osu file format v14

[General]
AudioFilename: SawanoHiroyuki[nZk]_mizuki-_amp_Z.mp3
AudioLeadIn: 0
PreviewTime: 62926
Countdown: 0
SampleSet: Soft
StackLeniency: 0.7
Mode: 0
LetterboxInBreaks: 0
EpilepsyWarning: 1
WidescreenStoryboard: 1

[Editor]
Bookmarks: 27419
DistanceSpacing: 1.4
BeatDivisor: 4
GridSize: 4
TimelineZoom: 1

[Metadata]
Title:&Z
TitleUnicode:&Z
Artist:SawanoHiroyuki[nZk]:mizuki
ArtistUnicode:SawanoHiroyuki[nZk]:mizuki
Creator:-Nya-
Version:Insane
Source:アルドノア・ゼロ
Tags:澤野弘之 Aldnoah.Zero opening 2nd season full version 10nya -_t_e_n_n_y_a_-
BeatmapID:702532
BeatmapSetID:315012

[Difficulty]
HPDrainRate:7
CircleSize:4
OverallDifficulty:7
ApproachRate:9
SliderMultiplier:1.4
SliderTickRate:1

[Events]
//Background and Video events
0,0,"zero.jpg",0,0
//Break Periods
2,102050,112642
2,188062,199224
//Storyboard Layer 0 (Background)
//Storyboard Layer 1 (Fail)
//Storyboard Layer 2 (Pass)
//Storyboard Layer 3 (Foreground)
//Storyboard Sound Samples

[TimingPoints]
3116,379.746835443038,4,2,1,70,1,0
15362,-100,4,2,1,60,0,0
45647,-133.333333333333,4,2,1,60,0,0
52103,-100,4,2,1,60,0,0
57799,-133.333333333333,4,2,1,60,0,0
63116,-166.666666666667,4,2,1,60,0,0
63875,-100,4,2,1,70,0,1
88179,-100,4,2,1,70,0,0
120078,-133.333333333333,4,2,1,70,0,0
126533,-100,4,2,1,70,0,0
132229,-133.333333333333,4,2,1,70,0,0
138305,-100,4,2,1,70,0,1
162609,-100,4,2,1,70,0,0
199824,-133.333333333333,4,2,1,70,0,0
200584,-100,4,2,1,70,0,1
224888,-100,4,2,1,70,0,0

[Colours]
Combo1 : 174,94,94
Combo2 : 74,165,255
Combo3 : 255,169,83

[HitObjects]
132,73,3116,6,0,L|88:128,1,70,4|0,0:0|0:0,0:0:0:0:
139,218,3495,2,0,L|184:164,1,70
292,192,3875,2,0,L|204:304,1,140,8|0,0:0|0:0,0:0:0:0:
108,344,4445,2,0,P|60:320|32:312,1,70,8|0,0:0|0:0,0:0:0:0:
44,212,4824,1,0,0:0:0:0:
184,164,5014,2,0,P|200:232|284:272,1,140,8|8,0:0|0:0,0:0:0:0:
360,268,5584,1,0,0:0:0:0:
424,184,5774,1,0,0:0:0:0:
424,184,6153,6,0,P|416:132|404:96,1,70,8|0,0:0|0:0,0:0:0:0:
316,72,6533,1,0,0:0:0:0:
244,136,6723,1,8,0:0:0:0:
368,16,6913,2,0,P|388:48|392:88,1,70
304,188,7293,1,0,0:0:0:0:
216,56,7483,2,0,P|168:96|176:180,1,140,8|0,0:0|0:0,0:0:0:0:
224,252,8052,1,8,0:0:0:0:
392,352,8432,2,0,L|460:316,1,70,8|0,0:0|0:0,0:0:0:0:
404,236,8812,2,0,L|342:268,1,70
220,336,9191,6,0,P|156:356|84:312,1,140,4|0,0:0|0:0,0:0:0:0:
92,228,9761,1,0,0:0:0:0:
112,132,9951,2,0,B|152:128|180:140|180:140|260:112,1,140,8|0,0:0|0:0,0:0:0:0:
344,96,10521,2,0,P|400:84|488:40,1,140,8|0,0:0|0:0,0:0:0:0:
488,148,11090,2,0,L|468:244,1,70,8|8,0:0|0:0,0:0:0:0:
456,312,11470,1,8,0:0:0:0:
360,212,11660,1,0,0:0:0:0:
320,308,11850,1,0,0:0:0:0:
320,308,12229,6,0,P|268:304|240:288,1,70,8|0,0:0|0:0,0:0:0:0:
212,208,12609,1,0,0:0:0:0:
68,264,12799,1,8,0:0:0:0:
184,328,12989,1,0,0:0:0:0:
108,152,13179,1,0,0:0:0:0:
212,208,13369,1,0,0:0:0:0:
240,72,13559,2,0,P|172:48|104:80,1,140,8|0,0:0|0:0,0:0:0:0:
176,140,14128,1,8,0:0:0:0:
404,312,14508,1,0,0:0:0:0:
404,312,14698,1,0,0:0:0:0:
400,180,14888,2,0,L|368:108,1,70,8|0,0:0|0:0,0:0:0:0:
220,56,15267,6,0,P|144:48|104:100,1,140,4|2,0:0|0:0,0:0:0:0:
100,192,15837,1,0,0:0:0:0:
172,260,16027,2,0,L|72:364,1,140,8|2,0:0|0:0,0:0:0:0:
100,192,16597,1,0,0:0:0:0:
228,172,16786,2,0,P|264:184|304:184,1,70
428,120,17166,2,0,P|395:108|360:106,1,70,2|0,0:0|0:0,0:0:0:0:
368,256,17546,2,0,P|379:223|381:188,1,70,8|0,0:0|0:0,0:0:0:0:
264,36,17926,2,0,P|265:70|277:103,1,70,2|0,0:0|0:0,0:0:0:0:
428,120,18305,6,0,B|484:164|484:164|508:232,1,140,0|2,0:0|0:0,0:0:0:0:
460,316,18875,1,0,0:0:0:0:
376,364,19065,2,0,P|304:348|224:372,1,140,8|2,0:0|0:0,0:0:0:0:
154,316,19634,1,0,0:0:0:0:
76,200,19824,2,0,L|40:124,1,70
156,140,20204,2,0,L|185:203,1,70,2|0,0:0|0:0,0:0:0:0:
268,260,20584,1,8,0:0:0:0:
356,212,20774,1,0,0:0:0:0:
400,124,20964,2,0,P|400:80|388:56,1,70,2|0,0:0|0:0,0:0:0:0:
252,36,21343,5,0,0:0:0:0:
156,56,21533,1,0,0:0:0:0:
68,100,21723,2,0,P|113:150|181:150,1,140,2|8,0:0|0:0,0:0:0:0:
156,56,22293,1,0,0:0:0:0:
181,150,22483,1,2,0:0:0:0:
280,148,22672,1,0,0:0:0:0:
360,36,22862,2,0,P|392:52|436:60,1,70
432,156,23242,2,0,P|397:163|366:179,1,70,2|0,0:0|0:0,0:0:0:0:
292,232,23622,1,8,0:0:0:0:
212,352,23812,1,0,0:0:0:0:
324,256,24002,1,2,0:0:0:0:
180,328,24191,1,0,0:0:0:0:
292,232,24381,6,0,P|292:184|232:112,1,140,0|2,0:0|0:0,0:0:0:0:
140,88,24951,1,0,0:0:0:0:
76,212,25141,2,0,L|8:90,1,140,8|2,0:0|0:0,0:0:0:0:
140,88,25710,1,0,0:0:0:0:
256,36,25900,2,0,B|300:56|340:44|340:44|392:80,1,140,0|2,0:0|0:0,0:0:0:0:
456,144,26470,1,0,0:0:0:0:
420,236,26660,2,0,P|356:252|316:332,1,140,8|2,0:0|0:0,0:0:0:0:
412,332,27229,1,0,0:0:0:0:
456,144,27419,6,0,L|396:96,1,70,4|0,0:0|0:0,0:0:0:0:
272,76,27799,2,0,L|326:119,1,70,2|0,0:0|0:0,0:0:0:0:
204,112,28179,2,0,L|149:68,1,70,8|0,0:0|0:0,0:0:0:0:
24,52,28559,2,0,L|78:95,1,70,2|0,0:0|0:0,0:0:0:0:
164,200,28938,2,0,B|192:232|176:268|176:268|200:308|172:360,1,140,0|2,0:0|0:0,0:0:0:0:
88,316,29508,1,0,0:0:0:0:
164,200,29698,2,0,L|280:100,1,140,8|2,0:0|0:0,0:0:0:0:
340,40,30267,1,0,0:0:0:0:
456,124,30457,6,0,B|440:196|440:196|444:268,1,140,0|2,0:0|0:0,0:0:0:0:
484,352,31027,1,0,0:0:0:0:
388,360,31217,2,0,P|324:332|248:336,1,140,8|2,0:0|0:0,0:0:0:0:
156,344,31786,1,0,0:0:0:0:
68,236,31976,2,0,P|40:176|44:100,1,140,0|2,0:0|0:0,0:0:0:0:
140,92,32546,1,0,0:0:0:0:
236,108,32736,2,0,L|320:88,1,70,8|0,0:0|0:0,0:0:0:0:
388,144,33116,2,0,P|400:72|360:12,1,140,2|0,0:0|0:0,0:0:0:0:
324,312,33875,5,0,0:0:0:0:
296,324,34255,1,8,0:0:0:0:
272,336,34634,1,2,0:0:0:0:
244,344,35014,2,0,P|200:348|192:260,2,140,0|0|8,0:0|0:0|0:0,0:0:0:0:
268,248,35964,1,0,0:0:0:0:
256,152,36153,2,0,B|236:120|236:120|184:92,1,70,2|0,0:0|0:0,0:0:0:0:
76,100,36533,5,0,0:0:0:0:
60,124,36913,1,0,0:0:0:0:
44,148,37293,2,0,L|28:224,1,70,8|0,0:0|0:0,0:0:0:0:
92,292,37672,2,0,B|136:276|184:284|184:284|220:244,1,140,2|0,0:0|0:0,0:0:0:0:
300,196,38242,1,0,0:0:0:0:
396,224,38432,2,0,L|360:128,1,70,2|0,0:0|0:0,0:0:0:0:
328,68,38812,1,8,0:0:0:0:
236,40,39002,1,0,0:0:0:0:
152,88,39191,1,2,0:0:0:0:
148,188,39381,1,0,0:0:0:0:
248,288,39571,6,0,P|308:332|384:344,1,140,4|0,0:0|0:0,0:0:0:0:
452,288,40141,1,0,0:0:0:0:
460,192,40331,2,0,L|356:96,1,140,2|0,0:0|0:0,0:0:0:0:
268,60,40900,1,0,0:0:0:0:
272,196,41090,1,2,0:0:0:0:
188,124,41280,1,0,0:0:0:0:
316,128,41470,2,0,P|348:164|352:192,1,70
188,124,41850,1,2,0:0:0:0:
140,208,42040,1,0,0:0:0:0:
100,296,42229,2,0,L|64:372,1,70
212,348,42609,6,0,B|284:340|284:340|368:344,1,140,2|0,0:0|0:0,0:0:0:0:
452,340,43179,1,0,0:0:0:0:
472,244,43369,2,0,P|476:192|456:108,1,140,2|0,0:0|0:0,0:0:0:0:
388,36,43938,1,0,0:0:0:0:
292,56,44128,2,0,L|224:96,1,70,2|0,0:0|0:0,0:0:0:0:
200,200,44508,2,0,L|260:164,1,70
388,172,44888,2,0,L|327:207,1,70,2|0,0:0|0:0,0:0:0:0:
296,316,45267,2,0,L|356:280,1,70
388,172,45647,6,0,L|364:104,1,52.5000020027161,2|0,0:0|0:0,0:0:0:0:
288,108,46027,2,0,L|264:40,1,52.5000020027161
192,28,46407,1,2,0:0:0:0:
116,128,46597,1,0,0:0:0:0:
192,28,46786,1,0,0:0:0:0:
116,128,46976,1,0,0:0:0:0:
116,232,47166,6,0,P|132:264|156:288,1,52.5000020027161,2|0,0:0|0:0,0:0:0:0:
248,284,47546,2,0,P|280:268|304:244,1,52.5000020027161
352,172,47926,2,0,P|372:192|384:228,1,52.5000020027161,2|0,0:0|0:0,0:0:0:0:
436,304,48305,2,0,P|468:288|492:264,1,52.5000020027161
484,156,48685,5,2,0:0:0:0:
368,80,48875,1,0,0:0:0:0:
504,124,49065,1,0,0:0:0:0:
352,116,49255,1,0,0:0:0:0:
504,124,49445,2,0,L|476:56,1,52.5000020027161,2|0,0:0|0:0,0:0:0:0:
352,116,49824,2,0,L|312:160,1,52.5000020027161
236,240,50204,5,2,0:0:0:0:
112,304,50394,1,0,0:0:0:0:
172,188,50584,1,0,0:0:0:0:
200,320,50774,1,0,0:0:0:0:
100,220,50964,2,0,P|92:184|100:160,1,52.5000020027161,2|0,0:0|0:0,0:0:0:0:
52,56,51343,2,0,P|54:81|44:106,1,52.5000020027161
12,180,51723,1,0,0:0:0:0:
12,180,52103,6,0,L|80:112,1,70,2|0,0:0|0:0,0:0:0:0:
212,120,52483,2,0,L|160:172,1,70,8|0,0:0|0:0,0:0:0:0:
100,244,52862,1,2,0:0:0:0:
196,256,53052,1,0,0:0:0:0:
276,176,53242,2,0,P|292:104|240:40,1,140,0|2,0:0|0:0,0:0:0:0:
212,120,53812,1,0,0:0:0:0:
276,176,54002,2,0,B|272:248|272:248|288:320,1,140,8|2,0:0|0:0,0:0:0:0:
372,364,54571,1,0,0:0:0:0:
424,280,54761,1,0,0:0:0:0:
256,60,55141,6,0,L|184:32,1,70,2|0,0:0|0:0,0:0:0:0:
82,98,55521,2,0,L|148:124,1,70,8|0,0:0|0:0,0:0:0:0:
248,152,55900,1,2,0:0:0:0:
288,248,56090,1,0,0:0:0:0:
340,116,56280,2,0,P|376:72|456:64,1,140,0|2,0:0|0:0,0:0:0:0:
500,152,56850,1,0,0:0:0:0:
400,240,57040,2,0,L|452:384,1,140,8|2,0:0|0:0,0:0:0:0:
352,360,57609,1,0,0:0:0:0:
212,320,57799,6,0,L|152:280,1,52.5000020027161
100,248,58179,1,2,0:0:0:0:
72,176,58369,1,0,0:0:0:0:
92,100,58559,2,0,L|135:129,1,52.5000020027161,8|0,0:0|0:0,0:0:0:0:
212,140,58938,1,2,0:0:0:0:
288,116,59128,1,0,0:0:0:0:
408,56,59318,6,0,L|336:32,1,52.5000020027161
412,136,59698,2,0,L|461:152,1,52.5000020027161,2|0,0:0|0:0,0:0:0:0:
372,204,60078,2,0,L|322:187,1,52.5000020027161,8|0,0:0|0:0,0:0:0:0:
212,140,60457,1,2,0:0:0:0:
212,140,60647,1,0,0:0:0:0:
136,244,60837,6,0,L|104:288,1,52.5000020027161
221,258,61217,2,0,L|252:216,1,52.5000020027161,2|0,0:0|0:0,0:0:0:0:
316,132,61597,1,8,0:0:0:0:
216,20,61786,1,0,0:0:0:0:
372,80,61976,1,2,0:0:0:0:
160,68,62166,1,8,0:0:0:0:
160,68,63116,6,0,L|136:120,1,41.9999987182618,8|0,0:0|0:0,0:0:0:0:
108,184,63495,1,0,0:0:0:0:
68,256,63685,1,0,0:0:0:0:
228,276,63875,6,0,P|272:232|344:244,1,140,8|0,1:1|0:0,0:0:0:0:
424,188,64445,2,0,P|440:256|388:336,1,140,8|0,0:0|0:0,0:0:0:0:
332,376,65014,1,8,0:0:0:0:
236,368,65204,1,0,0:0:0:0:
152,284,65394,6,0,P|176:220|252:204,1,140,8|0,0:0|0:0,0:0:0:0:
224,120,65964,2,0,L|76:52,1,140,8|0,0:0|0:0,0:0:0:0:
216,32,66533,2,0,L|288:68,1,70,8|0,0:0|0:0,0:0:0:0:
376,112,66913,5,8,0:0:0:0:
480,36,67103,1,0,0:0:0:0:
440,156,67293,1,0,0:0:0:0:
396,32,67483,1,8,0:0:0:0:
504,116,67672,2,0,P|516:156|500:204,1,70
456,264,68052,2,0,L|409:324,1,70,8|0,0:0|0:0,0:0:0:0:
364,188,68432,5,0,0:0:0:0:
292,264,68622,1,8,0:0:0:0:
196,92,68812,1,0,0:0:0:0:
124,160,69002,1,0,0:0:0:0:
292,264,69191,2,0,L|304:344,1,70,8|0,0:0|0:0,0:0:0:0:
400,356,69571,1,8,0:0:0:0:
302,333,69761,1,0,0:0:0:0:
168,368,69951,6,0,B|128:348|96:352|96:352|48:292,1,140,8|0,1:1|0:0,0:0:0:0:
36,204,70521,1,8,0:0:0:0:
56,108,70710,2,0,P|128:104|172:44,1,140,0|8,0:0|0:0,0:0:0:0:
268,36,71280,1,0,0:0:0:0:
320,148,71470,6,0,L|408:40,1,140,8|0,0:0|0:0,0:0:0:0:
268,36,72040,1,8,0:0:0:0:
356,172,72229,2,0,L|444:64,1,140,0|8,0:0|0:0,0:0:0:0:
268,36,72799,1,0,0:0:0:0:
356,172,72989,6,0,L|392:232,1,70,8|0,0:0|0:0,0:0:0:0:
356,348,73369,2,0,L|320:288,1,70,0|8,0:0|0:0,0:0:0:0:
272,204,73748,1,0,0:0:0:0:
196,264,73938,1,0,0:0:0:0:
102,236,74128,2,0,L|144:180,1,70,8|0,0:0|0:0,0:0:0:0:
196,96,74508,1,0,0:0:0:0:
296,96,74698,1,8,0:0:0:0:
412,176,74888,6,0,L|488:196,1,70
452,80,75267,2,0,L|384:62,1,70,8|8,0:0|0:0,0:0:0:0:
292,44,75647,1,0,0:0:0:0:
257,44,75741,1,0,0:0:0:0:
222,43,75836,1,0,0:0:0:0:
187,41,75931,1,0,0:0:0:0:
152,44,76027,6,0,B|76:56|76:56|40:112,1,140,4|8,0:0|0:0,0:0:0:0:
48,208,76597,1,0,0:0:0:0:
120,276,76786,2,0,P|160:284|200:272,1,70
268,228,77166,1,0,0:0:0:0:
372,264,77356,6,0,L|256:376,1,140,8|0,0:0|0:0,0:0:0:0:
172,368,77926,1,8,0:0:0:0:
84,328,78116,1,0,0:0:0:0:
124,244,78305,2,0,P|148:208|140:164,1,70
88,124,78685,2,0,L|136:40,1,70,0|8,0:0|0:0,0:0:0:0:
260,40,79065,6,0,P|292:60|396:60,1,140,0|8,0:0|0:0,0:0:0:0:
484,100,79634,1,0,0:0:0:0:
492,196,79824,2,0,P|476:248|480:296,1,70
396,324,80204,2,0,L|336:252,1,70,8|0,0:0|0:0,0:0:0:0:
340,152,80584,6,0,L|384:205,1,70
396,100,80964,2,0,L|351:46,1,70,8|0,0:0|0:0,0:0:0:0:
256,32,81343,2,0,P|236:68|228:112,1,70
244,192,81723,1,8,0:0:0:0:
340,152,81913,1,0,0:0:0:0:
468,204,82103,6,0,B|420:256|420:256|396:324,1,140,4|8,0:0|0:0,0:0:0:0:
304,356,82672,1,0,0:0:0:0:
172,308,82862,2,0,L|16:244,1,140
92,168,83432,1,8,0:0:0:0:
184,64,83622,6,0,P|136:28|48:40,1,140,0|8,0:0|0:0,0:0:0:0:
104,120,84191,1,0,0:0:0:0:
236,164,84381,2,0,P|300:180|376:152,1,140
304,80,84951,1,8,0:0:0:0:
448,180,85141,6,0,B|436:224|400:228|400:228|380:260|342:256,1,140,4|8,0:0|0:0,0:0:0:0:
248,272,85710,2,0,P|280:328|368:352,1,140
436,272,86280,1,8,0:0:0:0:
460,84,86470,1,0,0:0:0:0:
320,204,86660,5,0,0:0:0:0:
496,148,86850,1,0,0:0:0:0:
364,264,87040,1,8,0:0:0:0:
388,80,87229,1,0,0:0:0:0:
488,224,87419,2,0,L|428:186,1,70
320,204,87799,2,0,L|256:244,1,70,8|0,0:0|0:0,0:0:0:0:
180,300,88179,5,2,0:0:0:0:
156,316,88559,1,2,0:0:0:0:
132,332,88938,1,2,0:0:0:0:
108,348,89318,1,2,0:0:0:0:
48,160,89698,6,0,L|170:92,1,140,4|2,0:0|0:0,0:0:0:0:
260,56,90267,1,0,0:0:0:0:
356,32,90457,2,0,P|396:87|393:155,1,140,8|2,0:0|0:0,0:0:0:0:
328,228,91027,1,0,0:0:0:0:
193,244,91217,2,0,B|137:280|137:280|105:352,1,140,0|2,0:0|0:0,0:0:0:0:
204,356,91786,1,0,0:0:0:0:
300,352,91976,2,0,L|384:312,1,70,8|0,0:0|0:0,0:0:0:0:
432,216,92356,2,0,L|368:246,1,70,2|0,0:0|0:0,0:0:0:0:
264,152,92736,6,0,P|208:128|204:48,1,140,0|2,0:0|0:0,0:0:0:0:
104,36,93305,1,0,0:0:0:0:
20,88,93495,2,0,P|52:152|80:216,1,140,8|2,0:0|0:0,0:0:0:0:
168,260,94065,1,0,0:0:0:0:
260,296,94255,2,0,L|204:348,1,70
256,220,94634,2,0,L|307:172,1,70,2|0,0:0|0:0,0:0:0:0:
380,96,95014,1,8,0:0:0:0:
456,168,95204,1,0,0:0:0:0:
448,52,95394,2,0,P|420:24|360:20,1,70,2|0,0:0|0:0,0:0:0:0:
256,76,95774,6,0,P|236:116|144:136,1,140,0|2,0:0|0:0,0:0:0:0:
56,104,96343,2,0,L|12:188,1,70,0|8,0:0|0:0,0:0:0:0:
36,264,96723,1,0,0:0:0:0:
100,340,96913,2,0,L|132:277,1,70,2|0,0:0|0:0,0:0:0:0:
240,232,97293,2,0,L|205:292,1,70
300,324,97672,2,0,L|368:176,1,140,2|8,0:0|0:0,0:0:0:0:
400,108,98242,1,0,0:0:0:0:
328,40,98432,1,2,0:0:0:0:
232,64,98622,1,0,0:0:0:0:
140,168,98812,6,0,P|168:212|252:224,1,140,0|2,0:0|0:0,0:0:0:0:
344,200,99381,1,0,0:0:0:0:
436,236,99571,2,0,L|348:348,1,140,8|2,0:0|0:0,0:0:0:0:
252,368,100141,1,0,0:0:0:0:
156,356,100331,2,0,P|116:348|76:260,1,140,0|2,0:0|0:0,0:0:0:0:
96,168,100900,1,0,0:0:0:0:
96,168,100995,1,0,0:0:0:0:
96,168,101090,2,0,B|136:180|164:172|164:172|208:192|248:176,1,140,8|2,0:0|0:0,0:0:0:0:
328,160,101660,1,0,0:0:0:0:
408,104,101850,5,0,0:0:0:0:
180,288,113242,6,0,L|232:232,1,70
284,156,113622,2,0,P|308:116|292:68,1,70
204,84,114002,6,0,L|128:52,1,70,8|0,0:0|0:0,0:0:0:0:
92,40,114286,1,0,0:0:0:0:
44,48,114381,1,2,0:0:0:0:
40,144,114571,1,0,0:0:0:0:
44,240,114761,2,0,B|88:236|108:212|108:212|184:236,1,140,0|2,0:0|0:0,0:0:0:0:
268,260,115331,1,0,0:0:0:0:
360,296,115521,2,0,L|436:316,1,70
368,204,115900,2,0,L|300:186,1,70,2|0,0:0|0:0,0:0:0:0:
208,156,116280,1,0,0:0:0:0:
240,64,116470,1,0,0:0:0:0:
336,68,116660,1,2,0:0:0:0:
240,64,116850,1,0,0:0:0:0:
240,64,116945,1,0,0:0:0:0:
240,64,117040,6,0,P|168:68|112:116,1,140,8|2,0:0|0:0,0:0:0:0:
64,192,117609,1,0,0:0:0:0:
56,288,117799,2,0,L|140:340,1,70
212,352,118179,1,2,0:0:0:0:
248,352,118274,1,0,0:0:0:0:
280,344,118369,1,0,0:0:0:0:
312,328,118464,1,0,0:0:0:0:
340,308,118559,1,0,0:0:0:0:
360,212,118748,1,0,0:0:0:0:
288,144,118938,5,2,0:0:0:0:
224,216,119128,1,0,0:0:0:0:
224,216,119318,2,0,P|199:191|185:159,1,70
249,87,119698,2,0,P|273:111|287:143,1,70,2|0,0:0|0:0,0:0:0:0:
320,180,119983,1,0,0:0:0:0:
320,180,120078,6,0,L|392:172,1,52.5000020027161,2|0,0:0|0:0,0:0:0:0:
464,104,120457,2,0,L|411:109,1,52.5000020027161
344,80,120837,1,2,0:0:0:0:
292,28,121027,1,0,0:0:0:0:
249,87,121217,2,0,L|205:135,1,52.5000020027161
108,144,121597,6,0,L|143:105,1,52.5000020027161,2|0,0:0|0:0,0:0:0:0:
132,212,121976,2,0,L|96:250,1,52.5000020027161
40,308,122356,1,2,0:0:0:0:
104,352,122546,1,0,0:0:0:0:
184,348,122736,1,0,0:0:0:0:
240,296,122926,1,0,0:0:0:0:
244,260,123021,1,0,0:0:0:0:
248,224,123116,6,0,L|252:192|256:160,1,52.5000020027161,2|0,0:0|0:0,0:0:0:0:
340,96,123495,2,0,L|337:116|333:148,1,52.5000020027161
344,228,123875,1,2,0:0:0:0:
416,196,124065,1,0,0:0:0:0:
468,136,124255,2,0,P|492:168|496:200,1,52.5000020027161
492,260,124634,6,0,L|456:308,1,52.5000020027161,2|0,0:0|0:0,0:0:0:0:
404,356,125014,1,0,0:0:0:0:
404,356,125204,1,0,0:0:0:0:
324,352,125394,2,0,L|272:332,1,52.5000020027161,2|0,0:0|0:0,0:0:0:0:
152,328,125774,2,0,L|201:346,1,52.5000020027161
228,244,126153,5,4,0:0:0:0:
228,244,126533,2,0,L|136:208,1,70,2|0,0:0|0:0,0:0:0:0:
296,216,126913,2,0,L|361:241,1,70,8|0,0:0|0:0,0:0:0:0:
456,216,127293,1,2,0:0:0:0:
448,120,127483,1,0,0:0:0:0:
312,84,127672,2,0,P|252:96|172:76,1,140,0|2,0:0|0:0,0:0:0:0:
88,36,128242,1,0,0:0:0:0:
36,120,128432,2,0,P|40:196|52:260,1,140,8|2,0:0|0:0,0:0:0:0:
140,300,129002,1,0,0:0:0:0:
236,304,129191,1,0,0:0:0:0:
464,148,129571,5,2,0:0:0:0:
384,272,129761,1,0,0:0:0:0:
492,164,129951,1,8,0:0:0:0:
352,252,130141,1,0,0:0:0:0:
464,148,130331,2,0,L|448:72,1,70,2|0,0:0|0:0,0:0:0:0:
356,32,130710,2,0,P|288:52|264:48,1,70
204,28,131090,2,0,L|128:96,1,70,2|0,0:0|0:0,0:0:0:0:
88,136,131470,2,0,B|96:172|68:196|68:196|96:232|72:272,1,140,8|2,0:0|0:0,0:0:0:0:
40,364,132040,1,0,0:0:0:0:
144,344,132229,6,0,L|200:324,1,52.5000020027161
268,304,132609,1,2,0:0:0:0:
324,248,132799,1,0,0:0:0:0:
312,172,132989,2,0,L|280:108,1,52.5000020027161,8|0,0:0|0:0,0:0:0:0:
328,40,133369,2,0,L|351:86,1,52.5000020027161,2|0,0:0|0:0,0:0:0:0:
400,180,133748,5,0,0:0:0:0:
476,156,133938,1,0,0:0:0:0:
476,156,134128,2,0,P|480:196|468:224,1,52.5000020027161,2|0,0:0|0:0,0:0:0:0:
440,276,134508,2,0,P|444:316|456:340,1,52.5000020027161,8|0,0:0|0:0,0:0:0:0:
372,352,134888,2,0,L|324:296,1,52.5000020027161,2|0,0:0|0:0,0:0:0:0:
320,228,135267,5,0,0:0:0:0:
240,48,135457,1,0,0:0:0:0:
184,180,135647,1,2,0:0:0:0:
376,100,135837,1,0,0:0:0:0:
184,104,136027,1,8,0:0:0:0:
244,232,136217,1,0,0:0:0:0:
316,48,136407,1,2,0:0:0:0:
372,176,136597,1,8,0:0:0:0:
96,24,137546,6,0,L|76:92,1,52.5000020027161
120,140,137926,2,0,L|100:208,1,52.5000020027161
28,312,138305,6,0,P|96:312|168:360,1,140,8|8,1:1|0:0,0:0:0:0:
256,340,138875,2,0,L|344:232,1,140
408,156,139445,1,0,0:0:0:0:
499,124,139634,2,0,P|498:193|452:244,1,140,8|0,0:0|0:0,0:0:0:0:
408,156,140204,1,8,0:0:0:0:
312,52,140394,6,0,P|252:84|176:116,1,140
96,152,140964,1,0,0:0:0:0:
32,224,141153,1,8,0:0:0:0:
16,128,141343,2,0,L|40:56,1,70,8|0,0:0|0:0,0:0:0:0:
136,32,141723,2,0,P|140:100|96:152,1,140,8|0,0:0|0:0,0:0:0:0:
128,244,142293,2,0,L|176:316,1,70,0|8,0:0|0:0,0:0:0:0:
256,340,142672,1,0,0:0:0:0:
368,256,142862,6,0,L|428:212,1,70
384,328,143242,2,0,L|327:369,1,70,8|0,0:0|0:0,0:0:0:0:
264,244,143622,2,0,P|276:196|308:172,1,70
408,104,144002,2,0,P|396:152|364:176,1,70,8|0,0:0|0:0,0:0:0:0:
252,116,144381,6,0,P|172:132|108:120,1,140,8|8,1:1|0:0,0:0:0:0:
24,156,144951,1,0,0:0:0:0:
56,248,145141,2,0,L|144:372,1,140,0|8,0:0|0:0,0:0:0:0:
236,360,145710,1,0,0:0:0:0:
328,328,145900,6,0,P|376:276|384:208,1,140,0|8,0:0|0:0,0:0:0:0:
332,124,146470,1,0,0:0:0:0:
252,68,146660,2,0,L|164:192,1,140,0|8,0:0|0:0,0:0:0:0:
108,260,147229,1,0,0:0:0:0:
248,280,147419,6,0,B|316:280|316:280|388:260,1,140,4|0,0:0|0:0,0:0:0:0:
440,180,147989,1,8,0:0:0:0:
460,84,148179,2,0,P|424:48|392:36,1,70
308,16,148559,1,8,0:0:0:0:
208,88,148748,1,0,0:0:0:0:
328,88,148938,1,0,0:0:0:0:
232,16,149128,1,0,0:0:0:0:
268,136,149318,6,0,P|240:176|228:220,1,70,8|0,0:0|0:0,0:0:0:0:
232,296,149698,1,0,0:0:0:0:
207,320,149792,1,0,0:0:0:0:
175,334,149887,1,0,0:0:0:0:
141,335,149982,1,0,0:0:0:0:
108,323,150077,1,0,0:0:0:0:
83,299,150172,1,0,0:0:0:0:
69,267,150267,1,0,0:0:0:0:
67,233,150362,1,0,0:0:0:0:
72,200,150457,6,0,B|72:156|96:136|96:136|92:92|124:68,1,140,4|8,0:0|0:0,0:0:0:0:
212,44,151027,1,0,0:0:0:0:
308,52,151217,2,0,P|375:61|416:115,1,140
428,212,151786,5,8,0:0:0:0:
404,308,151976,1,0,0:0:0:0:
320,256,152166,1,0,0:0:0:0:
264,336,152356,1,8,0:0:0:0:
188,276,152546,1,0,0:0:0:0:
96,316,152736,2,0,L|24:296,1,70
28,200,153116,2,0,L|95:181,1,70,0|8,0:0|0:0,0:0:0:0:
224,120,153495,6,0,P|272:80|324:20,1,140,0|8,0:0|0:0,0:0:0:0:
420,24,154065,1,0,0:0:0:0:
464,112,154255,2,0,P|456:168|464:260,1,140,0|8,0:0|0:0,0:0:0:0:
476,348,154824,5,0,0:0:0:0:
380,368,155014,1,0,0:0:0:0:
296,316,155204,1,0,0:0:0:0:
216,260,155394,2,0,L|192:328,1,70,8|0,0:0|0:0,0:0:0:0:
136,208,155774,2,0,L|159:141,1,70
96,32,156153,2,0,L|73:99,1,70,8|0,0:0|0:0,0:0:0:0:
196,144,156533,6,0,P|232:184|252:268,1,140,4|8,0:0|0:0,0:0:0:0:
324,332,157103,1,0,0:0:0:0:
404,280,157293,2,0,L|436:140,1,140,0|8,0:0|0:0,0:0:0:0:
376,64,157862,1,0,0:0:0:0:
276,60,158052,6,0,B|200:68|200:68|120:68,1,140,0|8,0:0|0:0,0:0:0:0:
48,116,158622,1,0,0:0:0:0:
36,212,158812,2,0,P|44:260|36:352,1,140
132,376,159381,1,8,0:0:0:0:
212,264,159571,6,0,P|256:256|308:268,1,70,4|0,0:0|0:0,0:0:0:0:
376,292,159951,1,8,0:0:0:0:
468,184,160141,2,0,P|417:171|376:180,1,70
304,180,160521,1,8,0:0:0:0:
208,76,160710,6,0,P|192:32|168:20,1,70,8|0,0:0|0:0,0:0:0:0:
152,132,161090,2,0,P|159:165|186:186,1,70,8|0,0:0|0:0,0:0:0:0:
268,244,161470,1,8,0:0:0:0:
232,336,161660,1,0,0:0:0:0:
136,352,161850,5,8,0:0:0:0:
121,320,161944,1,0,0:0:0:0:
107,288,162039,1,0,0:0:0:0:
92,256,162134,1,0,0:0:0:0:
78,224,162229,1,4,0:0:0:0:
40,136,162419,1,0,0:0:0:0:
80,48,162609,5,2,0:0:0:0:
108,44,162989,1,2,0:0:0:0:
136,40,163369,1,2,0:0:0:0:
164,36,163748,1,2,0:0:0:0:
432,112,164128,6,0,L|370:145,1,70,4|8,0:0|0:0,0:0:0:0:
292,208,164508,2,0,P|264:248|248:336,1,140,0|8,0:0|0:0,0:0:0:0:
348,340,165078,1,0,0:0:0:0:
424,236,165267,1,0,0:0:0:0:
476,348,165457,1,8,0:0:0:0:
352,252,165647,6,0,P|366:186|428:160,1,140,0|8,0:0|0:0,0:0:0:0:
488,84,166217,2,0,L|412:56,1,70,0|8,0:0|0:0,0:0:0:0:
324,44,166597,1,0,0:0:0:0:
228,48,166786,1,0,0:0:0:0:
152,112,166976,1,0,0:0:0:0:
108,244,167166,6,0,P|148:280|248:304,1,140,8|0,0:0|0:0,0:0:0:0:
328,288,167736,2,0,L|396:220,1,70,0|8,0:0|0:0,0:0:0:0:
452,172,168116,1,0,0:0:0:0:
456,76,168305,2,0,P|436:48|392:32,1,70,0|8,0:0|0:0,0:0:0:0:
308,44,168685,1,0,0:0:0:0:
232,108,168875,1,0,0:0:0:0:
156,228,169065,6,0,P|116:228|88:212,1,70,8|0,0:0|0:0,0:0:0:0:
236,224,169445,2,0,P|276:224|304:240,1,70,8|0,0:0|0:0,0:0:0:0:
388,284,169824,1,0,0:0:0:0:
396,188,170014,1,0,0:0:0:0:
352,100,170204,2,0,L|292:56,1,70,8|0,0:0|0:0,0:0:0:0:
164,28,170584,6,0,L|220:68,1,70
208,152,170964,2,0,P|168:192|76:216,1,140,8|0,0:0|0:0,0:0:0:0:
16,280,171533,1,8,0:0:0:0:
144,336,171723,1,0,0:0:0:0:
48,380,171913,1,0,0:0:0:0:
132,260,172103,6,0,P|165:249|199:243,1,70,8|0,0:0|0:0,0:0:0:0:
296,224,172483,2,0,P|330:195|351:168,1,70,8|0,0:0|0:0,0:0:0:0:
372,84,172862,1,0,0:0:0:0:
464,212,173052,1,0,0:0:0:0:
444,64,173242,1,8,0:0:0:0:
392,240,173432,1,0,0:0:0:0:
372,84,173622,6,0,L|288:48,1,70
208,56,174002,2,0,L|143:83,1,70,8|0,0:0|0:0,0:0:0:0:
52,120,174381,1,0,0:0:0:0:
40,216,174571,2,0,P|56:276|40:352,1,140,8|0,0:0|0:0,0:0:0:0:
140,348,175141,1,0,0:0:0:0:
196,268,175331,5,0,0:0:0:0:
196,268,175426,1,0,0:0:0:0:
196,268,175521,2,0,L|248:344,1,70
328,352,175900,1,0,0:0:0:0:
424,328,176090,1,0,0:0:0:0:
468,240,176280,2,0,P|468:204|488:156,1,70,4|8,0:0|0:0,0:0:0:0:
428,40,176660,6,0,B|376:80|376:80|304:104,1,140,0|8,0:0|0:0,0:0:0:0:
228,164,177229,2,0,P|208:132|216:80,1,70
136,32,177609,1,8,0:0:0:0:
68,104,177799,2,0,L|40:196,1,70
24,268,178179,1,8,0:0:0:0:
100,332,178369,2,0,L|160:368,1,70,0|8,0:0|0:0,0:0:0:0:
248,324,178748,2,0,L|189:285,1,70
176,188,179128,1,0,0:0:0:0:
304,132,179318,6,0,P|304:72|232:20,1,140,8|0,0:0|0:0,0:0:0:0:
208,112,179888,1,0,0:0:0:0:
112,128,180078,2,0,L|76:208,1,70,8|0,0:0|0:0,0:0:0:0:
116,284,180457,1,0,0:0:0:0:
252,244,180647,6,0,P|280:216|304:180,1,70,8|0,0:0|0:0,0:0:0:0:
420,148,181027,2,0,P|392:176|368:212,1,70,0|8,0:0|0:0,0:0:0:0:
348,296,181407,2,0,P|386:306|429:309,1,70,0|8,0:0|0:0,0:0:0:0:
504,268,181786,1,0,0:0:0:0:
420,148,181976,1,8,0:0:0:0:
428,236,182166,1,0,0:0:0:0:
496,112,182356,6,0,P|492:72|480:40,1,70,4|8,0:0|0:0,0:0:0:0:
384,40,182736,2,0,L|300:84,1,70
232,116,183116,1,8,0:0:0:0:
56,60,183305,1,0,0:0:0:0:
136,176,183495,1,0,0:0:0:0:
164,16,183685,1,8,0:0:0:0:
56,148,183875,2,0,P|52:188|72:232,1,70
132,320,184255,6,0,L|64:344,1,70,8|0,0:0|0:0,0:0:0:0:
204,336,184634,2,0,L|270:312,1,70,8|0,0:0|0:0,0:0:0:0:
364,288,185014,1,0,0:0:0:0:
352,192,185204,1,0,0:0:0:0:
240,108,185394,6,0,P|208:120|152:112,1,70,8|0,0:0|0:0,0:0:0:0:
36,159,185774,2,0,P|69:147|104:148,1,70
188,200,186153,1,8,0:0:0:0:
240,108,186343,1,0,0:0:0:0:
340,104,186533,1,0,0:0:0:0:
412,172,186723,1,0,0:0:0:0:
408,312,186913,5,0,0:0:0:0:
374,321,187007,1,0,0:0:0:0:
339,323,187102,1,0,0:0:0:0:
304,318,187197,1,0,0:0:0:0:
272,305,187292,1,0,0:0:0:0:
243,286,187387,1,0,0:0:0:0:
218,261,187482,1,0,0:0:0:0:
199,232,187577,1,0,0:0:0:0:
187,199,187672,1,0,0:0:0:0:
160,104,187862,1,8,0:0:0:0:
160,136,199824,6,0,L|232:112,1,52.5000020027161
276,88,200204,2,0,P|304:60|316:32,1,52.5000020027161
448,80,200584,6,0,P|422:144|372:193,1,140,8|0,1:1|0:0,0:0:0:0:
280,228,201153,2,0,P|228:248|136:296,1,140,8|0,0:0|0:0,0:0:0:0:
56,300,201723,1,8,0:0:0:0:
80,204,201913,1,0,0:0:0:0:
160,88,202103,6,0,B|196:78|212:46|212:46|228:70|272:82,1,140,8|0,0:0|0:0,0:0:0:0:
368,56,202672,2,0,P|368:128|312:176,1,140,8|0,0:0|0:0,0:0:0:0:
228,200,203242,1,8,0:0:0:0:
156,268,203432,1,0,0:0:0:0:
232,328,203622,6,0,L|296:272,1,70,8|0,0:0|0:0,0:0:0:0:
360,216,204002,1,0,0:0:0:0:
388,124,204191,2,0,P|384:88|352:52,1,70,8|0,0:0|0:0,0:0:0:0:
272,28,204571,1,0,0:0:0:0:
180,64,204761,2,0,P|160:92|156:127,1,70,8|0,0:0|0:0,0:0:0:0:
240,180,205141,5,0,0:0:0:0:
348,316,205331,1,8,0:0:0:0:
188,236,205521,1,0,0:0:0:0:
396,260,205710,1,0,0:0:0:0:
220,304,205900,2,0,P|176:312|136:288,1,70,8|0,0:0|0:0,0:0:0:0:
72,248,206280,2,0,L|32:172,1,70,8|0,0:0|0:0,0:0:0:0:
124,72,206660,6,0,P|184:52|288:36,1,140,8|0,1:1|0:0,0:0:0:0:
356,44,207229,1,8,0:0:0:0:
444,88,207419,2,0,P|445:157|402:210,1,140,0|8,0:0|0:0,0:0:0:0:
304,208,207989,1,0,0:0:0:0:
206,187,208179,6,0,P|215:255|268:300,1,140,8|0,0:0|0:0,0:0:0:0:
364,312,208748,1,8,0:0:0:0:
452,268,208938,2,0,P|476:208|484:120,1,140,0|8,0:0|0:0,0:0:0:0:
396,88,209508,1,0,0:0:0:0:
259,58,209698,6,0,P|231:114|203:198,1,140,8|0,0:0|0:0,0:0:0:0:
164,276,210267,1,8,0:0:0:0:
264,272,210457,2,0,P|296:256|316:228,1,70
400,180,210837,2,0,L|456:236,1,70,8|0,0:0|0:0,0:0:0:0:
456,120,211217,2,0,L|406:70,1,70,0|8,0:0|0:0,0:0:0:0:
308,64,211597,6,0,P|303:98|315:131,1,70
252,208,211976,2,0,L|168:196,1,70
148,200,212261,1,0,0:0:0:0:
121,222,212355,1,0,0:0:0:0:
104,252,212450,1,0,0:0:0:0:
97,287,212545,1,0,0:0:0:0:
103,321,212640,1,0,0:0:0:0:
132,340,212736,6,0,B|217:359|217:359|269:351,1,140,4|8,0:0|0:0,0:0:0:0:
356,304,213305,1,0,0:0:0:0:
424,236,213495,2,0,P|448:208|464:164,1,70
420,88,213875,1,0,0:0:0:0:
340,36,214065,6,0,P|268:44|192:36,1,140,8|0,0:0|0:0,0:0:0:0:
104,52,214634,2,0,L|52:112,1,70,8|0,0:0|0:0,0:0:0:0:
56,204,215014,2,0,B|52:244|52:244|64:300,1,70
128,344,215394,2,0,P|180:360|196:360,1,70,0|8,0:0|0:0,0:0:0:0:
324,304,215774,6,0,P|352:248|344:168,1,140,0|8,0:0|0:0,0:0:0:0:
328,72,216343,1,0,0:0:0:0:
140,200,216533,1,0,0:0:0:0:
240,48,216723,1,0,0:0:0:0:
228,228,216913,5,8,0:0:0:0:
220,132,217103,1,0,0:0:0:0:
160,56,217293,1,0,0:0:0:0:
72,16,217483,2,0,L|28:92,1,70,0|8,0:0|0:0,0:0:0:0:
40,176,217862,1,0,0:0:0:0:
92,260,218052,5,0,0:0:0:0:
184,296,218242,1,0,0:0:0:0:
280,288,218432,1,8,0:0:0:0:
368,240,218622,1,0,0:0:0:0:
416,108,218812,6,0,P|392:48|304:28,1,140,4|8,0:0|0:0,0:0:0:0:
236,64,219381,1,0,0:0:0:0:
137,63,219571,2,0,P|159:127|220:160,1,140
316,180,220141,1,0,0:0:0:0:
408,208,220331,6,0,P|468:240|490:304,1,140,0|8,0:0|0:0,0:0:0:0:
404,352,220900,1,0,0:0:0:0:
304,352,221090,2,0,L|152:348,1,140
108,268,221660,1,8,0:0:0:0:
100,128,221850,6,0,L|163:99,1,70
256,64,222229,1,8,0:0:0:0:
384,116,222419,2,0,P|360:156|332:180,1,70
256,220,222799,1,0,0:0:0:0:
108,268,222989,6,0,P|128:304|164:340,1,70,8|0,0:0|0:0,0:0:0:0:
244,340,223369,2,0,L|316:328,1,70
408,300,223748,2,0,L|444:224,1,70,8|0,0:0|0:0,0:0:0:0:
432,132,224128,5,0,0:0:0:0:
433,97,224222,1,0,0:0:0:0:
418,65,224317,1,0,0:0:0:0:
391,43,224412,1,0,0:0:0:0:
358,36,224507,1,4,0:0:0:0:
260,60,224698,1,0,0:0:0:0:
188,124,224888,5,2,0:0:0:0:
188,152,225267,1,2,0:0:0:0:
188,180,225647,1,2,0:0:0:0:
188,208,226027,1,2,0:0:0:0:
328,348,226407,6,0,L|408:336,1,70,4|8,0:0|0:0,0:0:0:0:
388,240,226786,2,0,L|308:228,1,70
300,132,227166,2,0,P|292:76|344:8,1,140,8|0,0:0|0:0,0:0:0:0:
428,56,227736,1,8,0:0:0:0:
456,148,227926,2,0,B|460:220|460:220|500:280,1,140,0|8,0:0|0:0,0:0:0:0:
428,344,228495,2,0,L|387:287,1,70,0|8,0:0|0:0,0:0:0:0:
288,288,228875,2,0,L|247:231,1,70
176,164,229255,1,0,0:0:0:0:
120,296,229445,6,0,P|101:325|71:343,1,70,8|0,0:0|0:0,0:0:0:0:
36,252,229824,2,0,P|24:224|24:164,1,70
68,84,230204,1,8,0:0:0:0:
200,184,230394,1,0,0:0:0:0:
144,48,230584,1,0,0:0:0:0:
128,220,230774,1,8,0:0:0:0:
208,104,230964,1,0,0:0:0:0:
64,168,231153,1,0,0:0:0:0:
200,184,231343,6,0,L|240:184|296:184,1,70,8|0,0:0|0:0,0:0:0:0:
368,176,231723,2,0,P|400:163|422:136,1,70,8|0,0:0|0:0,0:0:0:0:
336,88,232103,1,0,0:0:0:0:
136,132,232293,1,0,0:0:0:0:
264,40,232483,1,8,0:0:0:0:
200,184,232672,1,0,0:0:0:0:
248,316,232862,6,0,L|316:372,1,70
396,332,233242,2,0,P|424:288|444:176,1,140,8|0,0:0|0:0,0:0:0:0:
420,108,233812,1,8,0:0:0:0:
324,124,234002,2,0,P|272:128|248:112,1,70
168,52,234381,2,0,P|201:41|235:49,1,70,8|0,0:0|0:0,0:0:0:0:
144,124,234761,2,0,P|92:128|68:112,1,70,8|0,0:0|0:0,0:0:0:0:
28,36,235141,1,0,0:0:0:0:
4,132,235331,1,0,0:0:0:0:
92,240,235521,5,8,0:0:0:0:
188,260,235710,1,0,0:0:0:0:
280,228,235900,2,0,L|228:160,1,70
224,76,236280,2,0,P|264:60|320:64,1,70,8|0,0:0|0:0,0:0:0:0:
384,84,236660,1,0,0:0:0:0:
428,216,236850,2,0,P|428:288|384:344,1,140,8|0,0:0|0:0,0:0:0:0:
292,352,237419,1,8,0:0:0:0:
248,264,237609,5,0,0:0:0:0:
280,228,237704,1,0,0:0:0:0:
312,192,237799,2,0,P|292:152|268:132,1,70
176,136,238179,2,0,P|151:111|137:79,1,70
8,24,238559,5,4,0:0:0:0:
44,116,238748,1,0,0:0:0:0:
64,212,238938,2,0,P|71:245|68:280,1,70
184,360,239318,2,0,B|254:370|254:370|322:362,1,140,8|0,0:0|0:0,0:0:0:0:
420,328,239888,1,8,0:0:0:0:
440,232,240078,2,0,P|414:207|382:194,1,70
284,192,240457,2,0,P|244:224|200:232,1,70,8|0,0:0|0:0,0:0:0:0:
136,188,240837,1,8,0:0:0:0:
180,100,241027,1,0,0:0:0:0:
276,76,241217,1,0,0:0:0:0:
364,116,241407,1,0,0:0:0:0:
388,212,241597,6,0,P|396:252|428:288,1,70,8|0,0:0|0:0,0:0:0:0:
344,344,241976,2,0,L|264:364,1,70
180,344,242356,2,0,P|172:309|156:278,1,70,8|0,0:0|0:0,0:0:0:0:
108,192,242736,1,0,0:0:0:0:
172,68,242926,6,0,L|96:20,1,70,8|0,0:0|0:0,0:0:0:0:
252,48,243305,2,0,L|311:85,1,70,0|8,0:0|0:0,0:0:0:0:
396,136,243685,1,0,0:0:0:0:
396,136,243780,1,0,0:0:0:0:
396,136,243875,2,0,P|384:180|396:208,1,70,8|0,0:0|0:0,0:0:0:0:
460,272,244255,2,0,P|468:305|455:337,1,70
320,372,244634,5,12,0:0:0:0:
232,324,244824,1,0,0:0:0:0:
228,228,245014,2,0,P|260:184|248:100,1,140,0|8,0:0|0:0,0:0:0:0:
300,16,245584,1,0,0:0:0:0:
376,80,245774,2,0,L|396:152,1,70,0|8,0:0|0:0,0:0:0:0:
472,208,246153,2,0,L|491:276,1,70
424,336,246533,5,8,0:0:0:0:
264,260,246723,1,0,0:0:0:0:
348,364,246913,1,8,0:0:0:0:
316,196,247103,1,0,0:0:0:0:
280,336,247293,1,0,0:0:0:0:
392,200,247483,1,0,0:0:0:0:
280,336,247672,6,0,P|236:332|212:340,1,70,8|0,0:0|0:0,0:0:0:0:
72,376,248052,2,0,P|116:380|140:372,1,70
148,272,248432,2,0,L|156:180,1,70,8|0,0:0|0:0,0:0:0:0:
244,112,248812,2,0,L|237:181,1,70,0|8,0:0|0:0,0:0:0:0:
312,272,249191,2,0,L|319:203,1,70
320,168,249476,5,0,0:0:0:0:
326,133,249570,1,0,0:0:0:0:
321,99,249665,1,0,0:0:0:0:
307,67,249760,1,0,0:0:0:0:
283,42,249855,1,0,0:0:0:0:
252,25,249950,1,0,0:0:0:0:
218,19,250045,1,0,0:0:0:0:
183,23,250140,1,0,0:0:0:0:
152,38,250235,1,0,0:0:0:0:
128,64,250330,1,0,0:0:0:0:
96,156,250521,1,0,0:0:0:0:
112,296,250710,6,0,L|176:356,1,70,4|0,0:0|0:0,0:0:0:0:
260,336,251090,2,0,P|312:308|400:288,1,140,0|2,0:0|0:0,0:0:0:0:
464,224,251660,1,0,0:0:0:0:
472,128,251850,2,0,P|452:96|416:68,1,70
336,40,252229,6,0,L|304:128,1,70
288,200,252609,1,0,0:0:0:0:
448,320,252799,1,0,0:0:0:0:
284,292,252989,1,2,0:0:0:0:
464,224,253179,1,0,0:0:0:0:
356,356,253369,1,0,0:0:0:0:
388,168,253559,1,0,0:0:0:0:
272,88,253748,6,0,B|240:64|240:64|192:48,1,70
136,116,254128,2,0,B|104:104|104:104|68:72,1,70
24,160,254508,2,0,L|84:236,1,70,2|0,0:0|0:0,0:0:0:0:
144,280,254888,1,0,0:0:0:0:
288,200,255078,1,0,0:0:0:0:
244,352,255267,1,0,0:0:0:0:
204,216,255457,1,0,0:0:0:0:
228,80,255647,6,0,P|180:76|160:84,1,70
292,120,256027,2,0,P|340:124|360:116,1,70,2|0,0:0|0:0,0:0:0:0:
448,76,256407,1,0,0:0:0:0:
296,12,256597,1,0,0:0:0:0:
448,76,256786,1,0,0:0:0:0:
268,88,256976,1,0,0:0:0:0:
428,152,257166,6,0,L|460:232,1,70
472,312,257546,2,0,P|408:352|344:348,1,140,2|0,0:0|0:0,0:0:0:0:
256,304,258116,1,0,0:0:0:0:
180,244,258305,2,0,L|120:200,1,70
192,132,258685,2,0,L|252:180,1,70
312,100,259065,2,0,L|252:56,1,70,2|0,0:0|0:0,0:0:0:0:
168,8,259445,1,0,0:0:0:0:
88,64,259634,1,0,0:0:0:0:
88,64,259729,1,0,0:0:0:0:
88,64,259824,6,0,P|64:156|56:228,1,140
72,300,260394,2,0,P|112:368|192:372,1,140
264,368,260964,2,0,P|296:340|308:300,1,70
312,216,261343,2,0,P|268:224|236:252,1,70
184,316,261723,5,0,0:0:0:0:
208,120,261913,1,0,0:0:0:0:
88,232,262103,1,2,0:0:0:0:
312,216,262293,1,0,0:0:0:0:
112,140,262483,1,0,0:0:0:0:
272,292,262672,1,0,0:0:0:0:
272,292,262767,1,0,0:0:0:0:
272,292,262862,6,0,P|352:292|392:244,1,140
424,160,263432,1,0,0:0:0:0:
360,88,263622,2,0,L|232:24,1,140,2|0,0:0|0:0,0:0:0:0:
144,64,264191,1,0,0:0:0:0:
116,160,264381,6,0,L|172:208,1,70
192,320,264761,2,0,L|138:274,1,70
60,216,265141,1,2,0:0:0:0:
64,120,265331,1,0,0:0:0:0:
144,64,265521,1,0,0:0:0:0:
240,72,265710,1,0,0:0:0:0:
320,188,265900,6,0,P|348:204|385:210,1,70
424,300,266280,2,0,P|391:313|357:322,1,70
260,316,266660,2,0,L|224:240,1,70,2|0,0:0|0:0,0:0:0:0:
196,160,267040,1,0,0:0:0:0:
240,72,267229,6,0,P|280:56|308:16,1,70
396,44,267609,2,0,P|415:72|420:107,1,70
368,188,267989,2,0,P|327:174|279:187,1,70,0|2,0:0|0:0,0:0:0:0:
220,232,268369,1,0,0:0:0:0:
348,312,268559,1,0,0:0:0:0:
196,308,268748,1,0,0:0:0:0:
376,236,268938,6,0,B|420:232|448:244|448:244|464:172,1,140
428,88,269508,2,0,L|388:8,1,70,0|2,0:0|0:0,0:0:0:0:
312,76,269888,1,0,0:0:0:0:
216,84,270078,2,0,L|248:147,1,70
152,132,270457,2,0,L|120:69,1,70
92,176,270837,5,0,0:0:0:0:
40,328,271027,1,0,0:0:0:0:
168,232,271217,1,2,0:0:0:0:
20,240,271407,1,0,0:0:0:0:
140,324,271597,1,0,0:0:0:0:
92,176,271786,1,0,0:0:0:0:
140,324,271976,6,0,P|174:325|209:332,1,70
304,352,272356,2,0,P|356:360|380:360,1,70
352,264,272736,2,0,L|376:196,1,70,2|0,0:0|0:0,0:0:0:0:
336,88,273116,2,0,L|312:154,1,70
352,264,273495,5,0,0:0:0:0:
492,120,273685,1,0,0:0:0:0:
424,292,273875,1,0,0:0:0:0:
416,96,274065,1,0,0:0:0:0:
496,268,274255,1,2,0:0:0:0:
344,116,274445,1,0,0:0:0:0:
512,196,274634,1,0,0:0:0:0:
324,192,274824,1,0,0:0:0:0:
