osu file format v14

[General]
AudioFilename: SawanoHiroyuki[nZk]_mizuki-_amp_Z.mp3
AudioLeadIn: 0
PreviewTime: 62926
Countdown: 0
SampleSet: Soft
StackLeniency: 0.7
Mode: 0
LetterboxInBreaks: 0
EpilepsyWarning: 1
WidescreenStoryboard: 1

[Editor]
DistanceSpacing: 1.4
BeatDivisor: 4
GridSize: 4
TimelineZoom: 1

[Metadata]
Title:&Z
TitleUnicode:&Z
Artist:SawanoHiroyuki[nZk]:mizuki
ArtistUnicode:SawanoHiroyuki[nZk]:mizuki
Creator:-Nya-
Version:Hard
Source:アルドノア・ゼロ
Tags:澤野弘之 Aldnoah.Zero opening 2nd season full version 10nya -_t_e_n_n_y_a_-
BeatmapID:715144
BeatmapSetID:315012

[Difficulty]
HPDrainRate:6
CircleSize:4
OverallDifficulty:6
ApproachRate:8
SliderMultiplier:1.2
SliderTickRate:1

[Events]
//Background and Video events
0,0,"zero.jpg",0,0
//Break Periods
2,102050,112492
2,188061,199074
//Storyboard Layer 0 (Background)
//Storyboard Layer 1 (Fail)
//Storyboard Layer 2 (Pass)
//Storyboard Layer 3 (Foreground)
//Storyboard Sound Samples

[TimingPoints]
3116,379.746835443038,4,2,1,70,1,0
15362,-100,4,2,1,60,0,0
63875,-100,4,2,1,70,0,1
88179,-100,4,2,1,70,0,0
138305,-100,4,2,1,70,0,1
162419,-100,4,2,1,70,0,0
200584,-100,4,2,1,70,0,1
224698,-100,4,2,1,70,0,0

[Colours]
Combo1 : 174,94,94
Combo2 : 74,165,255
Combo3 : 255,169,83

[HitObjects]
228,88,3116,5,4,0:0:0:0:
160,128,3305,1,0,0:0:0:0:
164,204,3495,2,0,P|128:200|100:176,1,60,0|0,0:0|0:0,0:0:0:0:
52,240,3875,2,0,P|96:272|176:280,1,120,8|0,0:0|0:0,0:0:0:0:
240,284,4445,2,0,P|298:275|347:241,1,120,8|0,0:0|0:0,0:0:0:0:
376,160,5014,2,0,P|372:120|360:88,1,60,8|0,0:0|0:0,0:0:0:0:
296,56,5394,2,0,L|236:32,1,60,8|0,0:0|0:0,0:0:0:0:
156,16,5774,1,0,0:0:0:0:
68,232,6153,6,0,L|124:272,2,60,8|0|0,0:0|0:0|0:0,0:0:0:0:
20,296,6723,2,0,L|124:364,1,120,8|0,0:0|0:0,0:0:0:0:
200,372,7293,1,0,0:0:0:0:
276,348,7483,2,0,P|304:316|288:224,1,120,8|0,0:0|0:0,0:0:0:0:
280,160,8052,2,0,L|248:104,1,60,8|0,0:0|0:0,0:0:0:0:
328,72,8432,2,0,L|368:144,1,60,8|0,0:0|0:0,0:0:0:0:
432,88,8812,2,0,L|392:24,1,60
280,16,9191,5,4,0:0:0:0:
200,40,9381,1,0,0:0:0:0:
136,92,9571,1,0,0:0:0:0:
140,176,9761,2,0,P|88:168|52:104,1,120,8|0,0:0|0:0,0:0:0:0:
136,92,10331,1,0,0:0:0:0:
212,132,10521,2,0,P|228:164|196:244,1,120,8|0,0:0|0:0,0:0:0:0:
156,312,11090,2,0,L|212:348,1,60,8|0,0:0|0:0,0:0:0:0:
284,312,11470,2,0,P|288:276|312:232,1,60,8|0,0:0|0:0,0:0:0:0:
328,176,11850,1,0,0:0:0:0:
92,116,12229,6,0,L|108:56,1,60,8|0,0:0|0:0,0:0:0:0:
184,36,12609,1,0,0:0:0:0:
260,44,12799,2,0,B|292:52|316:68|316:68|344:48|392:40,1,120,8|0,0:0|0:0,0:0:0:0:
448,32,13369,1,0,0:0:0:0:
468,108,13559,2,0,B|448:164|448:164|456:240,1,120,8|0,0:0|0:0,0:0:0:0:
464,308,14128,2,0,L|404:344,1,60,8|0,0:0|0:0,0:0:0:0:
328,356,14508,2,0,L|252:360,1,60,8|0,0:0|0:0,0:0:0:0:
184,356,14888,2,0,L|125:342,1,60,8|0,0:0|0:0,0:0:0:0:
48,252,15267,6,0,B|60:224|52:196|52:196|72:168|60:132,1,120,4|2,0:0|0:0,0:0:0:0:
36,56,15837,1,0,0:0:0:0:
116,36,16027,2,0,P|148:52|244:48,1,120,8|2,0:0|0:0,0:0:0:0:
312,28,16597,1,0,0:0:0:0:
384,68,16786,6,0,L|360:148,1,60
432,180,17166,2,0,L|408:260,1,60,2|0,0:0|0:0,0:0:0:0:
476,296,17546,2,0,L|452:376,1,60,8|0,0:0|0:0,0:0:0:0:
376,364,17926,1,2,0:0:0:0:
376,364,18116,1,0,0:0:0:0:
256,348,18305,6,0,B|220:336|208:312|208:312|144:280,1,120,0|2,0:0|0:0,0:0:0:0:
76,260,18875,1,0,0:0:0:0:
40,184,19065,2,0,B|76:116|76:116|80:60,1,120,8|2,0:0|0:0,0:0:0:0:
152,32,19634,1,0,0:0:0:0:
232,60,19824,6,0,P|280:96|300:108,1,60
352,144,20204,2,0,L|360:232,1,60,2|0,0:0|0:0,0:0:0:0:
364,288,20584,1,8,0:0:0:0:
344,368,20774,1,0,0:0:0:0:
268,336,20964,2,0,P|232:324|156:332,1,90,2|0,0:0|0:0,0:0:0:0:
140,328,21343,6,0,L|64:224,2,120,0|2|8,0:0|0:0|0:0,0:0:0:0:
196,276,22293,2,0,L|148:212,1,60,0|2,0:0|0:0,0:0:0:0:
112,168,22672,1,0,0:0:0:0:
124,92,22862,6,0,B|168:56|168:56|236:40,1,120,0|2,0:0|0:0,0:0:0:0:
308,36,23432,1,0,0:0:0:0:
372,80,23622,2,0,L|412:128,1,60,8|0,0:0|0:0,0:0:0:0:
368,192,24002,2,0,L|408:240,1,60,2|0,0:0|0:0,0:0:0:0:
340,340,24381,6,0,B|276:328|276:328|212:332,1,120,0|2,0:0|0:0,0:0:0:0:
140,348,24951,1,0,0:0:0:0:
112,268,25141,2,0,P|136:220|116:144,1,120,8|2,0:0|0:0,0:0:0:0:
64,100,25710,1,0,0:0:0:0:
96,24,25900,6,0,B|136:44|144:88|144:88|192:72,1,120,0|2,0:0|0:0,0:0:0:0:
260,48,26470,1,0,0:0:0:0:
292,124,26660,2,0,P|336:84|340:24,1,120,8|2,0:0|0:0,0:0:0:0:
464,68,27229,1,0,0:0:0:0:
480,104,27324,1,0,0:0:0:0:
484,144,27419,6,0,B|468:172|480:204|480:204|456:232|468:268,1,120,4|2,0:0|0:0,0:0:0:0:
472,336,27989,1,0,0:0:0:0:
396,340,28179,2,0,P|332:320|272:336,1,120,8|2,0:0|0:0,0:0:0:0:
204,348,28748,1,0,0:0:0:0:
136,300,28938,6,0,L|80:252,1,60,0|0,0:0|0:0,0:0:0:0:
116,172,29318,2,0,L|161:211,1,60,2|0,0:0|0:0,0:0:0:0:
252,176,29698,2,0,L|206:136,1,60,8|0,0:0|0:0,0:0:0:0:
140,88,30078,1,2,0:0:0:0:
216,52,30267,1,0,0:0:0:0:
216,52,30362,1,0,0:0:0:0:
216,52,30457,6,0,P|156:8|92:24,1,120,0|2,0:0|0:0,0:0:0:0:
56,76,31027,1,0,0:0:0:0:
44,160,31217,2,0,P|48:200|40:236,1,60,8|0,0:0|0:0,0:0:0:0:
108,312,31597,2,0,P|104:282|109:252,1,60,2|0,0:0|0:0,0:0:0:0:
220,212,31976,6,0,B|296:220|296:220|352:208,1,120,0|2,0:0|0:0,0:0:0:0:
412,168,32546,1,0,0:0:0:0:
472,108,32736,2,0,P|432:84|400:84,1,60,8|0,0:0|0:0,0:0:0:0:
336,76,33116,2,0,P|296:96|208:96,1,120,2|0,0:0|0:0,0:0:0:0:
252,264,33875,5,0,0:0:0:0:
252,264,34255,1,8,0:0:0:0:
252,264,34634,1,2,0:0:0:0:
108,180,35014,6,0,L|24:276,1,120,0|0,0:0|0:0,0:0:0:0:
88,328,35584,1,0,0:0:0:0:
172,308,35774,2,0,P|164:248|208:180,1,120,8|2,0:0|0:0,0:0:0:0:
248,136,36343,1,0,0:0:0:0:
368,148,36533,6,0,P|396:156|432:160,1,60,0|0,0:0|0:0,0:0:0:0:
388,236,36913,2,0,P|416:244|452:248,1,60
462,331,37293,2,0,P|432:328|404:320,1,60,8|0,0:0|0:0,0:0:0:0:
324,340,37672,2,0,L|296:224,1,120,2|0,0:0|0:0,0:0:0:0:
280,140,38242,5,0,0:0:0:0:
208,96,38432,2,0,L|124:96,1,60,2|0,0:0|0:0,0:0:0:0:
120,176,38812,2,0,L|180:176,1,60,8|0,0:0|0:0,0:0:0:0:
252,216,39191,1,2,0:0:0:0:
280,140,39381,1,0,0:0:0:0:
384,212,39571,6,0,P|440:196|480:128,1,120,4|0,0:0|0:0,0:0:0:0:
468,64,40141,1,0,0:0:0:0:
388,40,40331,2,0,L|308:28,1,60,2|0,0:0|0:0,0:0:0:0:
248,48,40710,2,0,B|216:80|216:80|240:120|224:176,1,120,0|2,0:0|0:0,0:0:0:0:
180,220,41280,1,0,0:0:0:0:
228,288,41470,2,0,P|256:256|264:216,1,60,0|0,0:0|0:0,0:0:0:0:
376,184,41850,2,0,P|354:204|342:231,1,60,2|0,0:0|0:0,0:0:0:0:
452,184,42229,6,0,P|440:140|360:108,1,120,0|2,0:0|0:0,0:0:0:0:
140,144,42989,2,0,L|84:176,1,60,0|0,0:0|0:0,0:0:0:0:
51,85,43369,2,0,L|104:56,1,60,2|0,0:0|0:0,0:0:0:0:
184,84,43748,2,0,P|212:124|192:196,1,120,0|2,0:0|0:0,0:0:0:0:
388,360,44508,5,0,0:0:0:0:
416,236,44698,1,0,0:0:0:0:
472,344,44888,1,2,0:0:0:0:
348,280,45078,1,0,0:0:0:0:
488,264,45267,6,0,P|488:200|432:160,1,120,0|2,0:0|0:0,0:0:0:0:
364,164,45837,1,0,0:0:0:0:
300,112,46027,2,0,L|228:124,1,60,0|0,0:0|0:0,0:0:0:0:
132,72,46407,2,0,L|191:62,1,60,2|0,0:0|0:0,0:0:0:0:
276,40,46786,6,0,B|328:28|360:64|360:64|412:48,1,120,0|2,0:0|0:0,0:0:0:0:
468,40,47356,1,0,0:0:0:0:
468,124,47546,2,0,B|464:184|464:184|428:248,1,120,0|2,0:0|0:0,0:0:0:0:
380,304,48116,1,0,0:0:0:0:
296,316,48305,2,0,B|260:316|240:332|240:332|208:324|176:336,1,120,0|2,0:0|0:0,0:0:0:0:
180,334,49065,5,0,0:0:0:0:
116,280,49255,1,0,0:0:0:0:
112,196,49445,2,0,L|168:128,2,60,2|0|0,0:0|0:0|0:0,0:0:0:0:
48,140,50014,6,0,L|88:96,1,60,0|2,0:0|0:0,0:0:0:0:
156,44,50394,1,0,0:0:0:0:
240,28,50584,1,0,0:0:0:0:
296,88,50774,1,0,0:0:0:0:
372,120,50964,2,0,P|376:80|364:44,1,60,2|0,0:0|0:0,0:0:0:0:
440,176,51343,2,0,P|435:205|439:234,1,60,0|0,0:0|0:0,0:0:0:0:
468,316,51723,5,0,0:0:0:0:
468,316,52103,2,0,L|392:352,1,60,2|0,0:0|0:0,0:0:0:0:
328,344,52483,2,0,L|290:297,1,60,8|0,0:0|0:0,0:0:0:0:
240,228,52862,2,0,P|188:236|160:236,1,60,2|0,0:0|0:0,0:0:0:0:
120,140,53242,6,0,P|149:142|179:148,1,60,0|0,0:0|0:0,0:0:0:0:
68,196,53622,2,0,P|44:148|76:76,1,120,2|8,0:0|0:0,0:0:0:0:
63,87,54381,1,2,0:0:0:0:
63,87,54761,1,0,0:0:0:0:
63,87,55141,6,0,L|120:52,1,60,2|0,0:0|0:0,0:0:0:0:
168,120,55521,2,0,L|225:85,1,60,8|0,0:0|0:0,0:0:0:0:
268,156,55900,2,0,L|325:121,1,60,2|0,0:0|0:0,0:0:0:0:
364,196,56280,6,0,L|248:264,1,120,0|2,0:0|0:0,0:0:0:0:
188,300,56850,1,0,0:0:0:0:
108,320,57040,2,0,B|96:280|124:240|124:240|104:196,1,120,8|2,0:0|0:0,0:0:0:0:
109,207,57799,6,0,B|88:168|108:120|108:120|88:72|120:24,1,180,0|0,0:0|0:0,0:0:0:0:
200,36,58559,2,0,P|240:52|312:32,1,120,8|2,0:0|0:0,0:0:0:0:
396,36,59128,1,0,0:0:0:0:
448,104,59318,6,0,L|492:232,1,120,0|2,0:0|0:0,0:0:0:0:
496,300,59888,1,0,0:0:0:0:
428,348,60078,2,0,B|368:336|368:336|288:340,1,120,8|2,0:0|0:0,0:0:0:0:
228,352,60647,1,0,0:0:0:0:
140,288,60837,6,0,P|152:260|152:208,1,60,0|0,0:0|0:0,0:0:0:0:
140,148,61217,1,2,0:0:0:0:
180,72,61407,1,0,0:0:0:0:
264,60,61597,1,8,0:0:0:0:
340,92,61786,1,0,0:0:0:0:
352,176,61976,1,2,0:0:0:0:
296,240,62166,1,8,0:0:0:0:
296,240,63116,6,0,L|356:344,1,120,8|0,0:0|0:0,0:0:0:0:
440,348,63685,1,0,0:0:0:0:
464,232,63875,6,0,P|452:180|472:104,1,120,8|0,1:1|0:0,0:0:0:0:
396,68,64445,2,0,L|272:48,1,120,8|0,0:0|0:0,0:0:0:0:
192,56,65014,1,8,0:0:0:0:
144,124,65204,1,0,0:0:0:0:
164,244,65394,6,0,B|212:236|236:204|236:204|288:200,1,120,8|0,0:0|0:0,0:0:0:0:
356,208,65964,2,0,P|408:212|464:280,1,120,8|0,0:0|0:0,0:0:0:0:
444,340,66533,1,8,0:0:0:0:
364,360,66723,1,0,0:0:0:0:
244,352,66913,6,0,L|184:316,1,60,8|0,0:0|0:0,0:0:0:0:
108,320,67293,2,0,L|56:350,1,60,0|8,0:0|0:0,0:0:0:0:
24,272,67672,2,0,P|32:224|24:192,1,60,0|0,0:0|0:0,0:0:0:0:
80,104,68052,2,0,P|78:133|86:162,1,60,8|0,0:0|0:0,0:0:0:0:
184,184,68432,6,0,L|244:156,2,60,0|8|0,0:0|0:0|0:0,0:0:0:0:
236,252,69002,2,0,L|296:224,2,60,0|8|0,0:0|0:0|0:0,0:0:0:0:
164,296,69571,1,8,0:0:0:0:
236,340,69761,1,0,0:0:0:0:
236,340,69856,1,0,0:0:0:0:
236,340,69951,6,0,L|360:280,1,120,8|0,1:1|0:0,0:0:0:0:
420,252,70521,1,8,0:0:0:0:
444,172,70710,2,0,P|444:132|384:56,1,120,0|8,0:0|0:0,0:0:0:0:
316,56,71280,1,0,0:0:0:0:
240,88,71470,6,0,B|184:124|184:124|116:148,1,120,8|0,0:0|0:0,0:0:0:0:
52,168,72040,1,8,0:0:0:0:
64,252,72229,2,0,P|96:272|136:360,1,120,0|8,0:0|0:0,0:0:0:0:
216,360,72799,1,0,0:0:0:0:
320,296,72989,6,0,P|352:264|376:256,1,60,8|0,0:0|0:0,0:0:0:0:
436,212,73369,2,0,P|462:197|480:174,1,60,0|8,0:0|0:0,0:0:0:0:
456,96,73748,1,0,0:0:0:0:
384,52,73938,1,0,0:0:0:0:
304,72,74128,1,8,0:0:0:0:
244,132,74318,2,0,P|224:100|220:56,1,60,0|0,0:0|0:0,0:0:0:0:
144,40,74698,1,8,0:0:0:0:
76,140,74888,6,0,L|40:276,1,120,0|8,0:0|0:0,0:0:0:0:
36,340,75457,1,0,0:0:0:0:
120,340,75647,2,0,L|172:320,3,30,8|0|0|0,0:0|0:0|0:0|0:0,0:0:0:0:
188,316,76027,6,0,P|252:276|272:216,1,120,4|8,0:0|0:0,0:0:0:0:
288,156,76597,1,0,0:0:0:0:
348,100,76786,2,0,B|416:160|416:160|424:200,1,120,0|0,0:0|0:0,0:0:0:0:
412,272,77356,1,8,0:0:0:0:
408,356,77546,6,0,B|360:348|336:304|336:304|296:308,1,120,0|8,0:0|0:0,0:0:0:0:
224,316,78116,1,0,0:0:0:0:
176,248,78305,2,0,L|148:168,1,60,0|0,0:0|0:0,0:0:0:0:
72,172,78685,2,0,L|44:92,1,60,0|8,0:0|0:0,0:0:0:0:
40,76,78970,1,0,0:0:0:0:
32,36,79065,6,0,P|84:44|156:32,1,120,0|8,0:0|0:0,0:0:0:0:
232,28,79634,1,0,0:0:0:0:
312,48,79824,1,0,0:0:0:0:
364,116,80014,1,0,0:0:0:0:
364,200,80204,1,8,0:0:0:0:
312,268,80394,1,0,0:0:0:0:
268,340,80584,6,0,P|240:312|228:280,1,60,0|0,0:0|0:0,0:0:0:0:
192,172,80964,2,0,P|214:191|228:218,1,60,8|0,0:0|0:0,0:0:0:0:
120,152,81343,2,0,P|92:124|80:92,1,60,0|0,0:0|0:0,0:0:0:0:
112,28,81723,1,8,0:0:0:0:
196,16,81913,1,0,0:0:0:0:
312,52,82103,6,0,P|332:88|412:128,1,120,4|8,0:0|0:0,0:0:0:0:
472,168,82672,1,0,0:0:0:0:
468,252,82862,2,0,L|400:356,1,120,0|0,0:0|0:0,0:0:0:0:
316,348,83432,1,8,0:0:0:0:
232,348,83622,6,0,B|208:296|208:296|144:240,1,120,0|8,0:0|0:0,0:0:0:0:
88,216,84191,1,0,0:0:0:0:
40,148,84381,2,0,P|24:100|88:56,1,120,0|0,0:0|0:0,0:0:0:0:
152,56,84951,1,8,0:0:0:0:
268,84,85141,6,0,L|380:136,1,120,4|8,0:0|0:0,0:0:0:0:
448,180,85710,2,0,P|448:228|404:300,1,120,0|0,0:0|0:0,0:0:0:0:
332,296,86280,2,0,P|300:284|256:280,1,60,8|0,0:0|0:0,0:0:0:0:
136,288,86660,2,0,P|168:300|212:304,1,60
216,220,87040,2,0,L|180:152,1,60,8|0,0:0|0:0,0:0:0:0:
216,64,87419,2,0,L|244:117,1,60,0|0,0:0|0:0,0:0:0:0:
304,176,87799,1,8,0:0:0:0:
384,148,87989,1,0,0:0:0:0:
384,148,88179,5,2,0:0:0:0:
384,136,88559,1,2,0:0:0:0:
384,124,88938,1,2,0:0:0:0:
384,112,89318,1,2,0:0:0:0:
384,100,89698,6,0,B|364:60|364:60|284:40,1,120,4|2,0:0|0:0,0:0:0:0:
208,44,90267,1,0,0:0:0:0:
152,104,90457,2,0,P|172:156|144:236,1,120,8|2,0:0|0:0,0:0:0:0:
108,284,91027,1,0,0:0:0:0:
180,328,91217,6,0,L|240:368,1,60,0|0,0:0|0:0,0:0:0:0:
300,316,91597,2,0,L|250:282,1,60,2|0,0:0|0:0,0:0:0:0:
268,200,91976,2,0,L|328:240,1,60,8|0,0:0|0:0,0:0:0:0:
388,280,92356,1,2,0:0:0:0:
388,280,92546,1,0,0:0:0:0:
476,200,92736,6,0,B|476:128|476:128|456:68,1,120,0|2,0:0|0:0,0:0:0:0:
384,52,93305,1,0,0:0:0:0:
300,52,93495,2,0,P|260:68|168:56,1,120,8|2,0:0|0:0,0:0:0:0:
100,68,94065,1,0,0:0:0:0:
72,148,94255,6,0,P|92:196|88:224,1,60,0|0,0:0|0:0,0:0:0:0:
116,284,94634,2,0,P|140:312|172:324,1,60,2|0,0:0|0:0,0:0:0:0:
244,332,95014,1,8,0:0:0:0:
324,312,95204,1,0,0:0:0:0:
368,240,95394,2,0,B|360:196|372:164|372:164|352:124|356:116,1,120,2|0,0:0|0:0,0:0:0:0:
200,72,96153,6,0,L|116:72,1,60,2|0,0:0|0:0,0:0:0:0:
112,152,96533,2,0,L|28:152,1,60,8|0,0:0|0:0,0:0:0:0:
116,224,96913,2,0,P|164:204|180:184,1,60,2|0,0:0|0:0,0:0:0:0:
284,168,97293,6,0,P|320:180|344:208,1,60
340,280,97672,2,0,L|392:344,1,60,2|0,0:0|0:0,0:0:0:0:
448,376,98052,1,8,0:0:0:0:
496,308,98242,1,0,0:0:0:0:
480,224,98432,2,0,P|468:188|472:148,1,60,2|0,0:0|0:0,0:0:0:0:
408,68,98812,6,0,B|368:44|368:44|288:36,1,120,0|2,0:0|0:0,0:0:0:0:
216,64,99381,1,0,0:0:0:0:
140,32,99571,2,0,P|136:88|196:140,1,120,8|2,0:0|0:0,0:0:0:0:
252,172,100141,1,0,0:0:0:0:
296,244,100331,6,0,P|284:284|216:308,1,120,0|2,0:0|0:0,0:0:0:0:
140,272,100900,1,0,0:0:0:0:
108,244,100995,1,0,0:0:0:0:
76,216,101090,2,0,P|76:176|60:88,1,120,8|2,0:0|0:0,0:0:0:0:
17,26,101660,1,0,0:0:0:0:
100,20,101850,5,2,0:0:0:0:
152,68,113242,6,0,P|180:84|232:92,1,60,0|0,0:0|0:0,0:0:0:0:
288,108,113622,2,0,P|304:148|308:180,1,60
304,208,113907,1,0,0:0:0:0:
280,244,114002,5,8,0:0:0:0:
132,320,114381,2,0,L|180:360,1,60,2|0,0:0|0:0,0:0:0:0:
264,364,114761,2,0,B|324:356|324:356|408:364,1,120,0|2,0:0|0:0,0:0:0:0:
460,324,115331,1,0,0:0:0:0:
472,240,115521,6,0,L|484:176,1,60
432,112,115900,2,0,P|400:120|364:116,1,60,2|0,0:0|0:0,0:0:0:0:
292,96,116280,1,0,0:0:0:0:
208,100,116470,1,0,0:0:0:0:
160,168,116660,1,2,0:0:0:0:
184,248,116850,1,0,0:0:0:0:
184,248,116945,1,0,0:0:0:0:
184,248,117040,6,0,P|188:292|128:336,1,120,8|2,0:0|0:0,0:0:0:0:
56,304,117609,1,0,0:0:0:0:
36,224,117799,2,0,L|28:92,1,120,0|2,0:0|0:0,0:0:0:0:
96,52,118369,1,0,0:0:0:0:
180,52,118559,6,0,P|216:48|256:52,1,60,0|0,0:0|0:0,0:0:0:0:
304,104,118938,2,0,P|333:105|363:101,1,60,2|0,0:0|0:0,0:0:0:0:
448,100,119318,2,0,L|484:168,1,60,0|0,0:0|0:0,0:0:0:0:
476,236,119698,1,2,0:0:0:0:
436,312,119888,1,0,0:0:0:0:
320,336,120078,6,0,B|272:328|232:340|232:340|200:336,1,120,2|0,0:0|0:0,0:0:0:0:
120,320,120647,1,0,0:0:0:0:
52,268,120837,2,0,P|40:220|64:128,1,120,2|0,0:0|0:0,0:0:0:0:
104,84,121407,1,0,0:0:0:0:
180,52,121597,5,2,0:0:0:0:
264,56,121786,1,0,0:0:0:0:
340,88,121976,2,0,L|384:156,1,60,0|0,0:0|0:0,0:0:0:0:
316,200,122356,2,0,L|360:268,1,60,2|0,0:0|0:0,0:0:0:0:
396,320,122736,1,0,0:0:0:0:
472,284,122926,1,0,0:0:0:0:
472,284,123021,1,0,0:0:0:0:
472,284,123116,6,0,B|472:216|472:216|488:152,1,120,2|0,0:0|0:0,0:0:0:0:
508,84,123685,1,0,0:0:0:0:
432,48,123875,2,0,L|360:16,2,60,2|0|0,0:0|0:0|0:0,0:0:0:0:
508,84,124445,1,0,0:0:0:0:
440,132,124634,6,0,P|404:152|368:160,1,60,2|0,0:0|0:0,0:0:0:0:
304,132,125014,2,0,P|275:141|250:157,1,60,0|0,0:0|0:0,0:0:0:0:
184,212,125394,1,2,0:0:0:0:
204,292,125584,1,0,0:0:0:0:
284,324,125774,1,0,0:0:0:0:
360,292,125964,1,0,0:0:0:0:
376,252,126059,1,0,0:0:0:0:
388,212,126153,6,0,L|364:72,1,120,4|2,0:0|0:0,0:0:0:0:
300,44,126723,1,0,0:0:0:0:
220,68,126913,1,8,0:0:0:0:
164,128,127103,1,0,0:0:0:0:
156,212,127293,2,0,P|124:204|96:176,1,60,2|0,0:0|0:0,0:0:0:0:
124,284,127672,6,0,P|92:276|64:248,1,60,0|0,0:0|0:0,0:0:0:0:
88,356,128052,2,0,P|56:348|28:320,1,60,2|0,0:0|0:0,0:0:0:0:
71,259,128432,2,0,L|67:135,1,120,8|2,0:0|0:0,0:0:0:0:
96,60,129002,1,0,0:0:0:0:
216,44,129191,6,0,P|252:36|344:44,1,120,0|2,0:0|0:0,0:0:0:0:
408,84,129761,1,0,0:0:0:0:
416,168,129951,2,0,B|412:228|412:228|440:288,1,120,8|2,0:0|0:0,0:0:0:0:
496,344,130521,1,0,0:0:0:0:
416,360,130710,6,0,L|336:340,1,60,0|0,0:0|0:0,0:0:0:0:
272,344,131090,2,0,L|213:358,1,60,2|0,0:0|0:0,0:0:0:0:
128,364,131470,2,0,P|96:312|100:256,1,120,8|2,0:0|0:0,0:0:0:0:
140,180,132040,1,0,0:0:0:0:
240,112,132229,5,0,0:0:0:0:
240,112,132419,1,0,0:0:0:0:
324,100,132609,1,2,0:0:0:0:
324,100,132799,1,0,0:0:0:0:
388,156,132989,2,0,L|388:224,1,60,8|0,0:0|0:0,0:0:0:0:
316,260,133369,2,0,L|316:328,1,60,2|0,0:0|0:0,0:0:0:0:
236,348,133748,6,0,L|168:356,2,60,0|0|2,0:0|0:0|0:0,0:0:0:0:
240,264,134318,1,0,0:0:0:0:
236,180,134508,2,0,L|168:172,2,60,8|0|2,0:0|0:0|0:0,0:0:0:0:
240,264,135078,1,0,0:0:0:0:
120,248,135267,6,0,P|72:220|56:200,1,60
96,136,135647,2,0,P|86:81|91:56,1,60,2|0,0:0|0:0,0:0:0:0:
172,76,136027,2,0,P|207:33|230:21,1,60,8|0,0:0|0:0,0:0:0:0:
288,64,136407,2,0,P|343:64|367:73,1,60,2|8,0:0|0:0,0:0:0:0:
288,64,137546,6,0,L|288:188,1,120,0|0,0:0|0:0,0:0:0:0:
328,256,138116,1,0,0:0:0:0:
432,312,138305,6,0,B|432:248|432:248|456:188,1,120,8|8,1:1|0:0,0:0:0:0:
484,116,138875,1,0,0:0:0:0:
412,68,139065,2,0,P|380:60|304:8,1,120,0|0,0:0|0:0,0:0:0:0:
224,20,139634,2,0,L|112:108,1,120,8|0,0:0|0:0,0:0:0:0:
60,144,140204,1,8,0:0:0:0:
92,260,140394,6,0,B|128:276|136:300|136:300|180:304|204:328,1,120,0|0,0:0|0:0,0:0:0:0:
272,348,140964,1,0,0:0:0:0:
356,336,141153,2,0,P|384:296|440:248,1,120,8|0,0:0|0:0,0:0:0:0:
488,180,141723,5,8,0:0:0:0:
456,104,141913,1,0,0:0:0:0:
376,76,142103,2,0,L|304:104,1,60,0|0,0:0|0:0,0:0:0:0:
240,68,142483,2,0,L|168:96,1,60,8|0,0:0|0:0,0:0:0:0:
144,164,142862,6,0,P|96:164|60:148,1,60,0|0,0:0|0:0,0:0:0:0:
152,236,143242,2,0,P|110:260|71:264,1,60,8|0,0:0|0:0,0:0:0:0:
204,288,143622,2,0,P|180:329|148:352,1,60,0|0,0:0|0:0,0:0:0:0:
248,368,144002,2,0,P|276:320|276:264,1,90,8|0,0:0|0:0,0:0:0:0:
276,244,144381,6,0,B|288:204|328:172|328:172|348:132,1,120,8|8,1:1|0:0,0:0:0:0:
388,76,144951,1,0,0:0:0:0:
448,136,145141,2,0,P|472:76|444:12,1,120,0|8,0:0|0:0,0:0:0:0:
388,76,145710,1,0,0:0:0:0:
304,68,145900,6,0,P|248:68|172:48,1,120,0|8,0:0|0:0,0:0:0:0:
104,36,146470,1,0,0:0:0:0:
72,112,146660,2,0,B|52:168|52:168|68:232,1,120,0|8,0:0|0:0,0:0:0:0:
96,308,147229,1,0,0:0:0:0:
216,316,147419,6,0,L|264:256,1,60,4|0,0:0|0:0,0:0:0:0:
336,272,147799,2,0,L|373:318,1,60,0|8,0:0|0:0,0:0:0:0:
460,320,148179,1,0,0:0:0:0:
496,244,148369,1,0,0:0:0:0:
472,164,148559,2,0,P|436:152|404:128,1,60,8|0,0:0|0:0,0:0:0:0:
340,108,148938,5,0,0:0:0:0:
340,108,149128,1,0,0:0:0:0:
256,96,149318,1,8,0:0:0:0:
256,96,149508,1,0,0:0:0:0:
188,148,149698,2,0,L|160:188,3,30,0|0|0|0,0:0|0:0|0:0|0:0,0:0:0:0:
184,212,150078,2,0,L|156:252,3,30,0|0|0|0,0:0|0:0|0:0|0:0,0:0:0:0:
144,272,150457,6,0,B|184:316|184:316|248:336,1,120,4|8,0:0|0:0,0:0:0:0:
324,344,151027,1,0,0:0:0:0:
404,320,151217,2,0,P|440:276|428:200,1,120,0|0,0:0|0:0,0:0:0:0:
364,176,151786,6,0,P|360:117|397:71,1,120,8|0,0:0|0:0,0:0:0:0:
332,20,152356,2,0,P|304:52|288:84,1,60,8|0,0:0|0:0,0:0:0:0:
212,68,152736,2,0,P|195:42|175:20,1,60,0|0,0:0|0:0,0:0:0:0:
92,32,153116,1,0,0:0:0:0:
52,104,153305,1,8,0:0:0:0:
80,220,153495,6,0,B|88:256|84:284|84:284|112:316|116:348,1,120,0|8,0:0|0:0,0:0:0:0:
192,356,154065,1,0,0:0:0:0:
276,356,154255,1,0,0:0:0:0:
356,328,154445,1,0,0:0:0:0:
396,256,154634,6,0,P|400:212|392:176,1,60,8|0,0:0|0:0,0:0:0:0:
432,120,155014,2,0,P|400:88|368:71,1,60,0|0,0:0|0:0,0:0:0:0:
320,28,155394,2,0,P|275:31|241:45,1,60,8|0,0:0|0:0,0:0:0:0:
176,44,155774,2,0,P|150:80|139:115,1,60,0|0,0:0|0:0,0:0:0:0:
84,152,156153,2,0,P|95:194|115:225,1,60,8|0,0:0|0:0,0:0:0:0:
184,296,156533,6,0,P|232:288|304:336,1,120,4|8,0:0|0:0,0:0:0:0:
372,352,157103,1,0,0:0:0:0:
432,292,157293,2,0,L|464:152,1,120,0|8,0:0|0:0,0:0:0:0:
444,92,157862,1,0,0:0:0:0:
364,64,158052,6,0,B|292:60|292:60|228:40,1,120,0|8,0:0|0:0,0:0:0:0:
164,24,158622,1,0,0:0:0:0:
96,72,158812,2,0,P|108:128|72:200,1,120,0|0,0:0|0:0,0:0:0:0:
24,240,159381,1,8,0:0:0:0:
128,300,159571,6,0,B|160:312|172:340|172:340|232:344,1,120,4|8,0:0|0:0,0:0:0:0:
316,344,160141,2,0,P|356:324|392:232,1,120,0|8,0:0|0:0,0:0:0:0:
368,180,160710,2,0,L|312:84,1,90,8|0,0:0|0:0,0:0:0:0:
300,68,161090,1,8,0:0:0:0:
220,40,161280,1,8,0:0:0:0:
144,72,161470,1,0,0:0:0:0:
116,152,161660,1,0,0:0:0:0:
60,216,161850,2,0,P|85:232|115:238,1,60,8|0,0:0|0:0,0:0:0:0:
152,252,162134,1,0,0:0:0:0:
188,272,162229,2,0,L|252:316,1,60,4|0,0:0|0:0,0:0:0:0:
316,340,162609,5,2,0:0:0:0:
316,340,162989,1,2,0:0:0:0:
316,340,163369,1,2,0:0:0:0:
316,340,163748,1,2,0:0:0:0:
316,340,164128,6,0,P|356:320|396:236,1,120,4|0,0:0|0:0,0:0:0:0:
400,172,164698,1,0,0:0:0:0:
356,100,164888,2,0,P|312:72|232:68,1,120,8|0,0:0|0:0,0:0:0:0:
164,76,165457,1,8,0:0:0:0:
92,120,165647,6,0,L|60:240,1,120,0|8,0:0|0:0,0:0:0:0:
56,320,166217,2,0,P|120:328|180:352,1,120,0|8,0:0|0:0,0:0:0:0:
256,348,166786,1,0,0:0:0:0:
328,308,166976,1,0,0:0:0:0:
364,192,167166,6,0,L|344:136,2,60,8|0|0,0:0|0:0|0:0,0:0:0:0:
448,200,167736,2,0,L|400:80,1,120
320,72,168305,2,0,P|260:80|188:68,1,120
120,52,168875,1,0,0:0:0:0:
64,116,169065,6,0,P|64:168|52:192,1,60,8|0,0:0|0:0,0:0:0:0:
128,268,169445,2,0,P|121:238|125:209,1,60,8|0,0:0|0:0,0:0:0:0:
160,132,169824,1,0,0:0:0:0:
244,148,170014,1,0,0:0:0:0:
276,228,170204,2,0,P|308:208|328:176,1,60,8|0,0:0|0:0,0:0:0:0:
356,116,170584,5,0,0:0:0:0:
432,84,170774,1,0,0:0:0:0:
464,160,170964,2,0,P|456:244|464:296,1,120,8|0,0:0|0:0,0:0:0:0:
404,340,171533,1,8,0:0:0:0:
320,356,171723,1,0,0:0:0:0:
236,348,171913,1,0,0:0:0:0:
160,308,172103,6,0,L|140:248,1,60,8|0,0:0|0:0,0:0:0:0:
232,164,172483,2,0,L|213:220,1,60,8|0,0:0|0:0,0:0:0:0:
292,248,172862,2,0,L|316:168,1,60,0|0,0:0|0:0,0:0:0:0:
332,108,173242,1,8,0:0:0:0:
288,36,173432,1,0,0:0:0:0:
168,32,173622,6,0,P|128:32|80:40,1,60,0|0,0:0|0:0,0:0:0:0:
92,116,174002,2,0,P|66:146|41:188,1,60,8|0,0:0|0:0,0:0:0:0:
48,248,174381,1,0,0:0:0:0:
108,308,174571,6,0,B|176:340|176:340|240:348,1,120,8|0,0:0|0:0,0:0:0:0:
304,332,175141,1,0,0:0:0:0:
356,268,175331,1,0,0:0:0:0:
356,268,175426,1,0,0:0:0:0:
356,268,175521,1,0,0:0:0:0:
356,184,175710,2,0,P|348:144|352:116,1,60,0|0,0:0|0:0,0:0:0:0:
376,44,176090,1,0,0:0:0:0:
256,36,176280,6,0,P|220:48|136:32,1,120,4|0,0:0|0:0,0:0:0:0:
60,64,176850,1,0,0:0:0:0:
40,144,177040,2,0,B|52:204|52:204|36:264,1,120,8|0,0:0|0:0,0:0:0:0:
24,344,177609,1,8,0:0:0:0:
104,320,177799,6,0,L|140:192,1,120,0|8,0:0|0:0,0:0:0:0:
180,132,178369,2,0,P|236:148|304:140,1,120,0|0,0:0|0:0,0:0:0:0:
380,124,178938,1,0,0:0:0:0:
460,144,179128,1,0,0:0:0:0:
484,224,179318,6,0,B|480:264|460:280|460:280|460:316|432:336,1,120,8|0,0:0|0:0,0:0:0:0:
356,352,179888,1,0,0:0:0:0:
272,348,180078,2,0,L|216:312,1,60,8|0,0:0|0:0,0:0:0:0:
148,276,180457,1,0,0:0:0:0:
120,196,180647,6,0,P|116:136|120:116,1,60,8|0,0:0|0:0,0:0:0:0:
196,56,181027,2,0,P|196:85|191:115,1,60,0|8,0:0|0:0,0:0:0:0:
212,196,181407,2,0,P|244:180|264:152,1,60,0|8,0:0|0:0,0:0:0:0:
288,84,181786,1,0,0:0:0:0:
372,76,181976,1,8,0:0:0:0:
440,128,182166,1,0,0:0:0:0:
440,248,182356,6,0,B|408:296|408:296|384:368,1,120,4|0,0:0|0:0,0:0:0:0:
304,356,182926,2,0,P|244:344|184:352,1,120,0|0,0:0|0:0,0:0:0:0:
104,360,183495,1,0,0:0:0:0:
48,296,183685,1,8,0:0:0:0:
68,212,183875,1,0,0:0:0:0:
152,196,184065,1,0,0:0:0:0:
212,256,184255,6,0,P|232:224|236:188,1,60,8|0,0:0|0:0,0:0:0:0:
236,120,184634,1,8,0:0:0:0:
232,36,184824,2,0,L|312:28,1,60,0|0,0:0|0:0,0:0:0:0:
376,24,185204,1,0,0:0:0:0:
432,132,185394,6,0,P|432:192|440:212,1,60,8|0,0:0|0:0,0:0:0:0:
448,276,185774,1,0,0:0:0:0:
432,360,185964,2,0,P|384:336|364:268,1,120,0|0,0:0|0:0,0:0:0:0:
312,208,186533,1,0,0:0:0:0:
232,232,186723,1,0,0:0:0:0:
184,300,186913,6,0,L|152:328,3,30,0|0|0|0,0:0|0:0|0:0|0:0,0:0:0:0:
120,320,187293,2,0,L|88:348,3,30,0|0|0|0,0:0|0:0|0:0|0:0,0:0:0:0:
60,356,187672,2,0,L|12:300,1,60,0|8,0:0|0:0,0:0:0:0:
124,68,199824,6,0,P|172:48|244:68,1,120,0|0,0:0|0:0,0:0:0:0:
300,120,200394,1,0,0:0:0:0:
388,204,200584,6,0,B|368:264|368:264|376:332,1,120,8|0,1:1|0:0,0:0:0:0:
296,352,201153,1,8,0:0:0:0:
212,360,201343,2,0,P|144:332|124:280,1,120,0|8,0:0|0:0,0:0:0:0:
124,208,201913,1,0,0:0:0:0:
176,140,202103,6,0,L|248:24,1,120,8|0,0:0|0:0,0:0:0:0:
324,52,202672,2,0,P|316:96|344:176,1,120,8|0,0:0|0:0,0:0:0:0:
404,220,203242,1,8,0:0:0:0:
460,284,203432,1,0,0:0:0:0:
396,340,203622,6,0,L|332:368,1,60,8|0,0:0|0:0,0:0:0:0:
256,364,204002,2,0,L|201:339,1,60,0|8,0:0|0:0,0:0:0:0:
148,272,204381,2,0,P|152:232|144:192,1,60,0|0,0:0|0:0,0:0:0:0:
80,120,204761,2,0,P|77:149|81:179,1,60,8|0,0:0|0:0,0:0:0:0:
152,88,205141,6,0,P|156:58|153:28,1,60,0|8,0:0|0:0,0:0:0:0:
236,36,205521,1,0,0:0:0:0:
320,48,205710,1,0,0:0:0:0:
368,116,205900,2,0,L|344:196,1,60,8|0,0:0|0:0,0:0:0:0:
400,240,206280,2,0,L|376:320,1,60,8|0,0:0|0:0,0:0:0:0:
268,332,206660,6,0,P|212:320|132:336,1,120,8|0,1:1|0:0,0:0:0:0:
72,352,207229,1,8,0:0:0:0:
36,276,207419,2,0,L|16:144,1,120,0|8,0:0|0:0,0:0:0:0:
64,88,207989,1,0,0:0:0:0:
144,64,208179,6,0,B|220:80|220:80|280:80,1,120,8|0,0:0|0:0,0:0:0:0:
344,72,208748,1,8,0:0:0:0:
396,136,208938,2,0,P|396:204|432:256,1,120,0|8,0:0|0:0,0:0:0:0:
492,296,209508,1,0,0:0:0:0:
424,344,209698,6,0,P|368:360|344:360,1,60,8|0,0:0|0:0,0:0:0:0:
284,356,210078,2,0,P|235:323|220:305,1,60,0|8,0:0|0:0,0:0:0:0:
192,248,210457,2,0,P|185:190|190:166,1,60,0|0,0:0|0:0,0:0:0:0:
216,108,210837,2,0,P|256:66|277:54,1,60,8|0,0:0|0:0,0:0:0:0:
340,56,211217,1,0,0:0:0:0:
412,100,211407,1,8,0:0:0:0:
408,184,211597,6,0,L|384:244,1,60,0|0,0:0|0:0,0:0:0:0:
300,232,211976,2,0,L|276:292,1,60,0|0,0:0|0:0,0:0:0:0:
200,324,212356,2,0,L|156:348,3,30,0|0|0|0,0:0|0:0|0:0|0:0,0:0:0:0:
132,352,212736,6,0,P|72:320|64:252,1,120,4|8,0:0|0:0,0:0:0:0:
64,188,213305,1,0,0:0:0:0:
144,164,213495,2,0,P|204:132|212:64,1,120,0|0,0:0|0:0,0:0:0:0:
288,36,214065,2,0,L|404:120,1,120,8|0,0:0|0:0,0:0:0:0:
448,160,214634,1,8,0:0:0:0:
452,244,214824,1,0,0:0:0:0:
404,312,215014,2,0,P|360:324|344:324,1,60,0|0,0:0|0:0,0:0:0:0:
248,248,215394,2,0,P|277:250|306:260,1,60,0|8,0:0|0:0,0:0:0:0:
192,300,215774,6,0,P|172:264|192:192,1,120,0|8,0:0|0:0,0:0:0:0:
264,144,216343,1,0,0:0:0:0:
344,116,216533,2,0,L|260:24,1,120,0|8,0:0|0:0,0:0:0:0:
180,32,217103,2,0,B|144:64|144:64|72:104,1,120,0|0,0:0|0:0,0:0:0:0:
44,172,217672,2,0,L|72:224,1,60,8|0,0:0|0:0,0:0:0:0:
120,292,218052,2,0,P|168:288|196:300,1,60,0|0,0:0|0:0,0:0:0:0:
260,316,218432,2,0,P|289:321|318:315,1,60,8|0,0:0|0:0,0:0:0:0:
416,244,218812,6,0,P|424:184|448:120,1,120,4|8,0:0|0:0,0:0:0:0:
400,56,219381,1,0,0:0:0:0:
316,48,219571,2,0,L|184:56,1,120,0|0,0:0|0:0,0:0:0:0:
112,64,220141,1,0,0:0:0:0:
84,144,220331,6,0,B|112:176|144:180|144:180|184:212,1,120,0|8,0:0|0:0,0:0:0:0:
248,264,220900,1,0,0:0:0:0:
284,340,221090,2,0,P|320:312|320:228,1,120,0|0,0:0|0:0,0:0:0:0:
248,264,221660,1,8,0:0:0:0:
252,180,221850,6,0,L|252:108,1,60,0|0,0:0|0:0,0:0:0:0:
304,56,222229,1,8,0:0:0:0:
384,76,222419,2,0,P|400:108|424:128,1,60,0|0,0:0|0:0,0:0:0:0:
484,176,222799,1,0,0:0:0:0:
484,260,222989,5,8,0:0:0:0:
428,324,223179,1,0,0:0:0:0:
344,340,223369,1,0,0:0:0:0:
264,312,223559,1,0,0:0:0:0:
240,232,223748,2,0,P|240:176|232:152,1,60,8|0,0:0|0:0,0:0:0:0:
212,92,224128,2,0,L|172:108,3,30,0|0|0|0,0:0|0:0|0:0|0:0,0:0:0:0:
144,116,224508,2,0,L|104:180,1,60,4|0,0:0|0:0,0:0:0:0:
88,248,224888,5,2,0:0:0:0:
85,256,225267,1,2,0:0:0:0:
83,265,225647,1,2,0:0:0:0:
81,274,226027,1,2,0:0:0:0:
232,344,226407,6,0,P|280:328|352:348,1,120,4|0,0:0|0:0,0:0:0:0:
428,356,226976,1,0,0:0:0:0:
448,276,227166,2,0,L|472:144,1,120,8|0,0:0|0:0,0:0:0:0:
444,76,227736,1,8,0:0:0:0:
364,52,227926,6,0,B|308:32|308:32|244:36,1,120,0|8,0:0|0:0,0:0:0:0:
176,80,228495,2,0,P|144:128|152:204,1,120,0|0,0:0|0:0,0:0:0:0:
176,268,229065,2,0,L|220:336,1,60,0|0,0:0|0:0,0:0:0:0:
292,336,229445,5,8,0:0:0:0:
360,288,229634,1,0,0:0:0:0:
364,204,229824,1,0,0:0:0:0:
300,148,230014,2,0,P|244:144|160:152,1,120,0|0,0:0|0:0,0:0:0:0:
124,212,230584,2,0,P|96:156|120:88,1,120,0|0,0:0|0:0,0:0:0:0:
176,48,231153,1,0,0:0:0:0:
268,48,231343,6,0,P|304:52|332:64,1,60,8|0,0:0|0:0,0:0:0:0:
380,148,231723,2,0,P|344:144|316:132,1,60,8|0,0:0|0:0,0:0:0:0:
232,128,232103,1,0,0:0:0:0:
184,204,232293,1,0,0:0:0:0:
204,292,232483,1,8,0:0:0:0:
284,336,232672,1,0,0:0:0:0:
396,296,232862,6,0,L|436:248,1,60,0|0,0:0|0:0,0:0:0:0:
476,176,233242,2,0,B|464:132|464:132|468:40,1,120,8|0,0:0|0:0,0:0:0:0:
388,32,233812,1,8,0:0:0:0:
304,48,234002,2,0,P|252:52|224:48,1,60,0|0,0:0|0:0,0:0:0:0:
160,60,234381,5,8,0:0:0:0:
96,116,234571,1,0,0:0:0:0:
84,200,234761,2,0,P|92:240|112:272,2,60,8|0|0,0:0|0:0|0:0,0:0:0:0:
96,116,235331,2,0,P|136:136|160:160,1,60,0|8,0:0|0:0,0:0:0:0:
204,208,235710,1,0,0:0:0:0:
280,244,235900,6,0,P|288:208|284:184,1,60,0|0,0:0|0:0,0:0:0:0:
272,104,236280,1,8,0:0:0:0:
348,72,236470,1,0,0:0:0:0:
428,104,236660,1,0,0:0:0:0:
452,184,236850,6,0,P|432:240|468:304,1,120,8|0,0:0|0:0,0:0:0:0:
392,348,237419,1,8,0:0:0:0:
308,344,237609,2,0,B|248:332|248:332|172:336,1,120,0|0,0:0|0:0,0:0:0:0:
104,336,238179,1,0,0:0:0:0:
80,256,238369,1,0,0:0:0:0:
104,140,238559,6,0,P|132:124|116:44,1,120,4|0,0:0|0:0,0:0:0:0:
204,28,239128,1,0,0:0:0:0:
284,56,239318,2,0,P|316:68|404:56,1,120,8|0,0:0|0:0,0:0:0:0:
480,40,239888,1,8,0:0:0:0:
476,124,240078,6,0,L|456:248,1,120,0|8,0:0|0:0,0:0:0:0:
412,312,240647,2,0,P|372:328|288:312,1,120,0|0,0:0|0:0,0:0:0:0:
220,280,241217,1,0,0:0:0:0:
200,200,241407,1,0,0:0:0:0:
244,128,241597,6,0,B|196:112|160:128|160:128|108:108,1,120,8|0,0:0|0:0,0:0:0:0:
56,72,242166,1,0,0:0:0:0:
132,36,242356,2,0,P|164:32|200:40,1,60,8|0,0:0|0:0,0:0:0:0:
276,52,242736,1,0,0:0:0:0:
360,68,242926,6,0,L|440:56,1,60,8|0,0:0|0:0,0:0:0:0:
412,144,243305,2,0,L|492:132,1,60,0|8,0:0|0:0,0:0:0:0:
496,216,243685,1,0,0:0:0:0:
496,216,243780,1,0,0:0:0:0:
496,216,243875,6,0,P|480:268|460:288,1,60,8|0,0:0|0:0,0:0:0:0:
412,328,244255,2,0,L|340:344,1,60,0|0,0:0|0:0,0:0:0:0:
268,352,244634,1,12,0:0:0:0:
188,328,244824,1,0,0:0:0:0:
132,220,245014,6,0,P|88:224|48:216,1,60,0|0,0:0|0:0,0:0:0:0:
28,152,245394,1,8,0:0:0:0:
76,84,245584,2,0,P|112:64|200:40,1,120,0|8,0:0|0:0,0:0:0:0:
272,52,246153,1,0,0:0:0:0:
340,100,246343,1,0,0:0:0:0:
328,184,246533,6,0,L|292:244,1,60,8|0,0:0|0:0,0:0:0:0:
252,308,246913,1,8,0:0:0:0:
320,356,247103,1,0,0:0:0:0:
404,348,247293,2,0,P|456:320|480:280,1,90,0|0,0:0|0:0,0:0:0:0:
480,256,247672,5,8,0:0:0:0:
480,172,247862,1,0,0:0:0:0:
424,108,248052,1,0,0:0:0:0:
340,100,248242,2,0,L|232:188,1,120,0|0,0:0|0:0,0:0:0:0:
180,224,248812,1,0,0:0:0:0:
100,244,249002,2,0,P|64:188|64:172,1,60,8|0,0:0|0:0,0:0:0:0:
80,116,249381,6,0,L|116:88,5,30
136,72,249951,2,0,P|172:64|220:64,1,60,0|0,0:0|0:0,0:0:0:0:
280,72,250331,1,0,0:0:0:0:
348,120,250521,1,0,0:0:0:0:
404,224,250710,6,0,B|360:268|360:268|320:336,1,120,4|0,0:0|0:0,0:0:0:0:
252,344,251280,1,0,0:0:0:0:
172,312,251470,2,0,P|120:272|64:256,1,120,2|0,0:0|0:0,0:0:0:0:
36,180,252040,1,0,0:0:0:0:
72,104,252229,6,0,L|156:16,1,120,0|0,0:0|0:0,0:0:0:0:
220,72,252799,2,0,L|137:158,1,120,0|0,0:0|0:0,0:0:0:0:
148,244,253369,2,0,P|196:224|212:200,1,60,0|0,0:0|0:0,0:0:0:0:
284,200,253748,6,0,L|352:248,1,60,0|0,0:0|0:0,0:0:0:0:
400,284,254128,1,0,0:0:0:0:
476,248,254318,2,0,P|476:184|488:120,1,120,0|0,0:0|0:0,0:0:0:0:
416,80,254888,2,0,L|304:16,1,120,0|0,0:0|0:0,0:0:0:0:
228,24,255457,1,0,0:0:0:0:
156,68,255647,6,0,P|144:96|144:128,1,60,0|0,0:0|0:0,0:0:0:0:
224,208,256027,2,0,P|223:178|211:150,1,60,2|0,0:0|0:0,0:0:0:0:
144,200,256407,2,0,L|100:264,1,60,0|0,0:0|0:0,0:0:0:0:
188,340,256786,6,0,P|224:340|312:344,1,120,0|0,0:0|0:0,0:0:0:0:
392,340,257356,1,0,0:0:0:0:
440,272,257546,2,0,P|464:212|452:152,1,120,2|0,0:0|0:0,0:0:0:0:
396,100,258116,1,0,0:0:0:0:
316,80,258305,6,0,L|280:32,1,60,0|0,0:0|0:0,0:0:0:0:
196,32,258685,2,0,L|160:80,1,60,0|0,0:0|0:0,0:0:0:0:
116,152,259065,1,2,0:0:0:0:
104,236,259255,1,0,0:0:0:0:
128,316,259445,1,0,0:0:0:0:
204,348,259634,1,0,0:0:0:0:
204,348,259729,1,0,0:0:0:0:
204,348,259824,6,0,B|260:332|260:332|344:328,1,120,0|0,0:0|0:0,0:0:0:0:
408,328,260394,1,0,0:0:0:0:
456,260,260584,2,0,P|472:216|464:184,1,60,0|0,0:0|0:0,0:0:0:0:
428,132,260964,1,0,0:0:0:0:
344,136,261153,6,0,P|348:104|368:72,1,60,0|0,0:0|0:0,0:0:0:0:
280,60,261533,2,0,P|276:28|256:-4,1,60,0|0,0:0|0:0,0:0:0:0:
184,36,261913,1,0,0:0:0:0:
124,96,262103,1,2,0:0:0:0:
116,180,262293,2,0,P|140:236|152:248,2,60,0|0|0,0:0|0:0|0:0,0:0:0:0:
124,96,262862,1,0,0:0:0:0:
328,220,263242,6,0,P|364:248|380:320,1,120,0|2,0:0|0:0,0:0:0:0:
300,348,263812,1,0,0:0:0:0:
216,344,264002,2,0,L|152:304,1,60,0|0,0:0|0:0,0:0:0:0:
96,264,264381,6,0,P|80:212|100:136,1,120,0|0,0:0|0:0,0:0:0:0:
164,104,264951,2,0,L|292:28,1,120,0|0,0:0|0:0,0:0:0:0:
352,52,265521,1,0,0:0:0:0:
424,96,265710,1,0,0:0:0:0:
452,212,265900,6,0,B|440:272|440:272|444:344,1,120,0|0,0:0|0:0,0:0:0:0:
364,356,266470,1,0,0:0:0:0:
280,348,266660,2,0,P|220:344|208:348,1,60,2|0,0:0|0:0,0:0:0:0:
136,348,267040,1,0,0:0:0:0:
84,280,267229,6,0,L|52:208,1,60,0|0,0:0|0:0,0:0:0:0:
56,140,267609,2,0,L|80:85,1,60,0|0,0:0|0:0,0:0:0:0:
156,48,267989,2,0,P|196:56|224:52,1,60,0|2,0:0|0:0,0:0:0:0:
340,24,268369,2,0,P|300:16|272:20,1,60,0|0,0:0|0:0,0:0:0:0:
300,96,268748,1,0,0:0:0:0:
300,96,268938,1,0,0:0:0:0:
308,264,269318,5,0,0:0:0:0:
308,264,269508,2,0,P|292:320|224:352,1,120,0|0,0:0|0:0,0:0:0:0:
156,344,270078,1,0,0:0:0:0:
112,272,270267,1,0,0:0:0:0:
124,188,270457,1,0,0:0:0:0:
196,148,270647,1,0,0:0:0:0:
276,172,270837,5,0,0:0:0:0:
276,172,271027,2,0,P|316:160|384:96,1,120,0|0,0:0|0:0,0:0:0:0:
320,44,271597,2,0,L|192:32,1,120,0|0,0:0|0:0,0:0:0:0:
116,32,272166,5,0,0:0:0:0:
72,104,272356,1,0,0:0:0:0:
68,188,272546,1,0,0:0:0:0:
112,260,272736,2,0,P|156:284|172:304,1,60,2|0,0:0|0:0,0:0:0:0:
240,320,273116,2,0,L|304:308,1,60,0|0,0:0|0:0,0:0:0:0:
364,252,273495,6,0,P|384:220|420:200,1,60,0|0,0:0|0:0,0:0:0:0:
452,140,273875,1,0,0:0:0:0:
420,64,274065,1,0,0:0:0:0:
336,64,274255,2,0,L|272:88,1,60,2|0,0:0|0:0,0:0:0:0:
204,120,274634,1,0,0:0:0:0:
204,120,274824,1,0,0:0:0:0:
