osu file format v14

[General]
AudioFilename: Owari no Seraph ED - Ending -scaPEGoat- by SawanoHiroyuki - [HD 720p ] - Serap.mp3
AudioLeadIn: 0
PreviewTime: 56820
Countdown: 0
SampleSet: Normal
StackLeniency: 0.7
Mode: 3
LetterboxInBreaks: 0
SpecialStyle: 0
WidescreenStoryboard: 1

[Editor]
DistanceSpacing: 1
BeatDivisor: 4
GridSize: 32
TimelineZoom: 1.600003

[Metadata]
Title:scaPEGoat
TitleUnicode:scaPEGoat
Artist:SawanoHiroyuki[nZk]:Yosh
ArtistUnicode:SawanoHiroyuki[nZk]:Yosh
Creator:Kominaru
Version:Normal 4K
Source:終わりのセラフ
Tags:seraph of the end, owari no seraph, ending
BeatmapID:678338
BeatmapSetID:302635

[Difficulty]
HPDrainRate:6
CircleSize:4
OverallDifficulty:6
ApproachRate:5
SliderMultiplier:1.4
SliderTickRate:1

[Events]
//Background and Video events
Video,0,"Owari no Seraph ED - Ending -scaPEGoat- by SawanoHiroyuki - [HD 720p ] 終わりのセラフ - Serap.avi"
0,0,"Chapter_6_CP.jpg",0,0
//Break Periods
//Storyboard Layer 0 (Background)
//Storyboard Layer 1 (Fail)
//Storyboard Layer 2 (Pass)
//Storyboard Layer 3 (Foreground)
//Storyboard Sound Samples

[TimingPoints]
2974,384.615384615385,4,1,0,40,1,0
56820,-100,4,1,0,50,0,0
58358,-100,4,1,0,50,0,1
86050,-100,4,1,0,50,0,0

[HitObjects]
64,192,2974,5,0,0:0:0:0:
192,192,2974,1,0,0:0:0:0:
192,192,3550,1,0,0:0:0:0:
448,192,3743,1,0,0:0:0:0:
320,192,4127,1,0,0:0:0:0:
64,192,4320,1,0,0:0:0:0:
64,192,4704,1,0,0:0:0:0:
64,192,4897,1,0,0:0:0:0:
448,192,5281,1,0,0:0:0:0:
320,192,5666,1,0,0:0:0:0:
192,192,5858,1,0,0:0:0:0:
64,192,6050,1,0,0:0:0:0:
448,192,6050,1,0,0:0:0:0:
320,192,6627,1,0,0:0:0:0:
448,192,6820,1,0,0:0:0:0:
448,192,7204,1,0,0:0:0:0:
320,192,7397,1,0,0:0:0:0:
192,192,7781,1,0,0:0:0:0:
192,192,8166,1,0,0:0:0:0:
448,192,8358,1,0,0:0:0:0:
320,192,8550,1,0,0:0:0:0:
192,192,8743,1,0,0:0:0:0:
64,192,8935,1,0,0:0:0:0:
320,192,9127,1,0,0:0:0:0:
192,192,9127,1,0,0:0:0:0:
448,192,9512,1,0,0:0:0:0:
64,192,9704,1,0,0:0:0:0:
448,192,9897,1,0,0:0:0:0:
320,192,10089,1,0,0:0:0:0:
192,192,10281,1,0,0:0:0:0:
448,192,10474,1,0,0:0:0:0:
64,192,10858,1,0,0:0:0:0:
192,192,11050,1,0,0:0:0:0:
64,192,11243,1,0,0:0:0:0:
448,192,11435,1,0,0:0:0:0:
192,192,11627,1,0,0:0:0:0:
320,192,11820,1,0,0:0:0:0:
64,192,12012,1,0,0:0:0:0:
192,192,12204,1,0,0:0:0:0:
320,192,12204,1,0,0:0:0:0:
192,192,12589,1,0,0:0:0:0:
64,192,12781,1,0,0:0:0:0:
448,192,12974,1,0,0:0:0:0:
320,192,13166,1,0,0:0:0:0:
64,192,13358,1,0,0:0:0:0:
192,192,13550,1,0,0:0:0:0:
64,192,13935,1,0,0:0:0:0:
192,192,14127,1,0,0:0:0:0:
320,192,14512,1,0,0:0:0:0:
192,192,14704,1,0,0:0:0:0:
448,192,14897,1,0,0:0:0:0:
64,192,15089,1,0,0:0:0:0:
320,192,15281,1,0,0:0:0:0:
192,192,15281,1,0,0:0:0:0:
448,192,15666,1,0,0:0:0:0:
448,192,16050,1,0,0:0:0:0:
320,192,16243,1,0,0:0:0:0:
64,192,16435,1,0,0:0:0:0:
448,192,16627,1,0,0:0:0:0:
192,192,17012,1,0,0:0:0:0:
320,192,17397,1,0,0:0:0:0:
192,192,17781,1,0,0:0:0:0:
320,192,17974,1,0,0:0:0:0:
64,192,18166,1,0,0:0:0:0:
192,192,18358,1,0,0:0:0:0:
320,192,18358,1,0,0:0:0:0:
448,192,18743,1,0,0:0:0:0:
320,192,18935,1,0,0:0:0:0:
448,192,19127,1,0,0:0:0:0:
192,192,19320,1,0,0:0:0:0:
64,192,19512,1,0,0:0:0:0:
448,192,19704,1,0,0:0:0:0:
192,192,20089,1,0,0:0:0:0:
320,192,20474,1,0,0:0:0:0:
320,192,20666,1,0,0:0:0:0:
192,192,21050,1,0,0:0:0:0:
64,192,21435,1,0,0:0:0:0:
448,192,21435,1,0,0:0:0:0:
320,192,21820,1,0,0:0:0:0:
192,192,22012,1,0,0:0:0:0:
448,192,22204,1,0,0:0:0:0:
64,192,22781,1,0,0:0:0:0:
320,192,23166,1,0,0:0:0:0:
192,192,23358,1,0,0:0:0:0:
448,192,23743,1,0,0:0:0:0:
320,192,24127,1,0,0:0:0:0:
192,192,24320,1,0,0:0:0:0:
64,192,24512,1,0,0:0:0:0:
448,192,24512,1,0,0:0:0:0:
192,192,24897,1,0,0:0:0:0:
64,192,25089,1,0,0:0:0:0:
448,192,25281,1,0,0:0:0:0:
192,192,25666,1,0,0:0:0:0:
320,192,25858,1,0,0:0:0:0:
192,192,26243,1,0,0:0:0:0:
320,192,26435,1,0,0:0:0:0:
64,192,26627,1,0,0:0:0:0:
448,192,26820,1,0,0:0:0:0:
320,192,27012,1,0,0:0:0:0:
192,192,27204,1,0,0:0:0:0:
64,192,27397,1,0,0:0:0:0:
320,192,27589,1,0,0:0:0:0:
192,192,27589,1,0,0:0:0:0:
320,192,28166,1,0,0:0:0:0:
448,192,28358,1,0,0:0:0:0:
192,192,28743,1,0,0:0:0:0:
320,192,28935,1,0,0:0:0:0:
448,192,29320,1,0,0:0:0:0:
64,192,29512,1,0,0:0:0:0:
448,192,29897,1,0,0:0:0:0:
192,192,30089,1,0,0:0:0:0:
320,192,30281,1,0,0:0:0:0:
64,192,30474,1,0,0:0:0:0:
192,192,30666,1,0,0:0:0:0:
320,192,30666,1,0,0:0:0:0:
64,192,31050,1,0,0:0:0:0:
448,192,31435,1,0,0:0:0:0:
192,192,31820,1,0,0:0:0:0:
320,192,32204,1,0,0:0:0:0:
192,192,32589,1,0,0:0:0:0:
448,192,32974,1,0,0:0:0:0:
64,192,33166,1,0,0:0:0:0:
320,192,33358,1,0,0:0:0:0:
192,192,33550,1,0,0:0:0:0:
320,192,33743,1,0,0:0:0:0:
448,192,33743,1,0,0:0:0:0:
192,192,34127,1,0,0:0:0:0:
64,192,34320,1,0,0:0:0:0:
320,192,34512,1,0,0:0:0:0:
64,192,34897,1,0,0:0:0:0:
448,192,35089,1,0,0:0:0:0:
192,192,35474,1,0,0:0:0:0:
320,192,35666,1,0,0:0:0:0:
64,192,35858,1,0,0:0:0:0:
448,192,36050,1,0,0:0:0:0:
320,192,36435,1,0,0:0:0:0:
192,192,36820,1,0,0:0:0:0:
64,192,36820,1,0,0:0:0:0:
320,192,37397,1,0,0:0:0:0:
448,192,37589,1,0,0:0:0:0:
64,192,37974,1,0,0:0:0:0:
192,192,38166,1,0,0:0:0:0:
448,192,38550,1,0,0:0:0:0:
320,192,38935,1,0,0:0:0:0:
192,192,39127,1,0,0:0:0:0:
448,192,39512,1,0,0:0:0:0:
192,192,39897,1,0,0:0:0:0:
64,192,39897,1,0,0:0:0:0:
320,192,40281,1,0,0:0:0:0:
448,192,40666,1,0,0:0:0:0:
192,192,41050,1,0,0:0:0:0:
320,192,41243,1,0,0:0:0:0:
192,192,41627,1,0,0:0:0:0:
320,192,41820,1,0,0:0:0:0:
64,192,42012,1,0,0:0:0:0:
448,192,42204,1,0,0:0:0:0:
320,192,42397,1,0,0:0:0:0:
192,192,42589,1,0,0:0:0:0:
64,192,42781,1,0,0:0:0:0:
320,192,42974,1,0,0:0:0:0:
448,192,42974,1,0,0:0:0:0:
320,192,43358,1,0,0:0:0:0:
192,192,43550,1,0,0:0:0:0:
448,192,43743,1,0,0:0:0:0:
320,192,43935,1,0,0:0:0:0:
64,192,44127,1,0,0:0:0:0:
192,192,44320,1,0,0:0:0:0:
64,192,44704,1,0,0:0:0:0:
448,192,44897,1,0,0:0:0:0:
192,192,45089,1,0,0:0:0:0:
320,192,45281,1,0,0:0:0:0:
64,192,45474,1,0,0:0:0:0:
192,192,45666,1,0,0:0:0:0:
64,192,45858,1,0,0:0:0:0:
448,192,46050,1,0,0:0:0:0:
448,192,46820,1,0,0:0:0:0:
64,192,47204,1,0,0:0:0:0:
192,192,47397,1,0,0:0:0:0:
448,192,47974,1,0,0:0:0:0:
320,192,48358,1,0,0:0:0:0:
64,192,48550,1,0,0:0:0:0:
320,192,48743,1,0,0:0:0:0:
64,192,48935,1,0,0:0:0:0:
192,192,49127,1,0,0:0:0:0:
192,192,49897,1,0,0:0:0:0:
448,192,50281,1,0,0:0:0:0:
320,192,50474,1,0,0:0:0:0:
192,192,51050,1,0,0:0:0:0:
448,192,51435,1,0,0:0:0:0:
64,192,51627,1,0,0:0:0:0:
320,192,51820,1,0,0:0:0:0:
64,192,52012,1,0,0:0:0:0:
192,192,52204,1,0,0:0:0:0:
320,192,52781,1,0,0:0:0:0:
192,192,52974,1,0,0:0:0:0:
192,192,53358,1,0,0:0:0:0:
320,192,53550,1,0,0:0:0:0:
64,192,54127,1,0,0:0:0:0:
320,192,54512,1,0,0:0:0:0:
192,192,54897,1,0,0:0:0:0:
448,192,55281,1,0,0:0:0:0:
448,192,55666,1,0,0:0:0:0:
320,192,55858,1,0,0:0:0:0:
448,192,56050,1,0,0:0:0:0:
448,192,56435,1,0,0:0:0:0:
320,192,56627,1,0,0:0:0:0:
64,192,56820,1,8,0:0:0:0:
448,192,56820,1,0,0:0:0:0:
192,192,57204,1,8,0:0:0:0:
320,192,57589,1,8,0:0:0:0:
192,192,57974,1,8,0:0:0:0:
64,192,58358,1,8,0:0:0:0:
448,192,58358,1,8,0:0:0:0:
320,192,58743,1,8,0:0:0:0:
192,192,58935,1,8,0:0:0:0:
320,192,59127,1,8,0:0:0:0:
64,192,59512,1,8,0:0:0:0:
192,192,59704,1,8,0:0:0:0:
64,192,60089,1,8,0:0:0:0:
192,192,60281,1,8,0:0:0:0:
64,192,60474,1,8,0:0:0:0:
448,192,60666,1,8,0:0:0:0:
320,192,60858,1,8,0:0:0:0:
192,192,61050,1,8,0:0:0:0:
64,192,61243,1,8,0:0:0:0:
320,192,61435,1,8,0:0:0:0:
448,192,61435,1,8,0:0:0:0:
192,192,61820,1,8,0:0:0:0:
64,192,62012,1,8,0:0:0:0:
448,192,62204,1,8,0:0:0:0:
320,192,62397,1,8,0:0:0:0:
64,192,62589,1,8,0:0:0:0:
192,192,62781,1,8,0:0:0:0:
320,192,63358,1,8,0:0:0:0:
64,192,63743,1,8,0:0:0:0:
448,192,63743,1,8,0:0:0:0:
320,192,64127,1,8,0:0:0:0:
192,192,64127,1,8,0:0:0:0:
448,192,64512,1,8,0:0:0:0:
64,192,64512,1,8,0:0:0:0:
192,192,65089,1,8,0:0:0:0:
448,192,65281,1,8,0:0:0:0:
64,192,65666,1,8,0:0:0:0:
192,192,65858,1,8,0:0:0:0:
64,192,66243,1,8,0:0:0:0:
192,192,66435,1,8,0:0:0:0:
64,192,66627,1,8,0:0:0:0:
448,192,66820,1,8,0:0:0:0:
192,192,67012,1,8,0:0:0:0:
320,192,67204,1,8,0:0:0:0:
64,192,67397,1,8,0:0:0:0:
192,192,67589,1,8,0:0:0:0:
320,192,67589,1,8,0:0:0:0:
448,192,67974,1,8,0:0:0:0:
64,192,68166,1,8,0:0:0:0:
320,192,68358,1,8,0:0:0:0:
448,192,68358,1,8,0:0:0:0:
192,192,68743,1,8,0:0:0:0:
448,192,69127,1,8,0:0:0:0:
64,192,69320,1,8,0:0:0:0:
448,192,69512,1,8,0:0:0:0:
64,192,69704,1,8,0:0:0:0:
448,192,69897,1,8,0:0:0:0:
64,192,70089,1,8,0:0:0:0:
448,192,70281,1,8,0:0:0:0:
64,192,70474,1,8,0:0:0:0:
192,192,70666,1,8,0:0:0:0:
320,192,70666,1,8,0:0:0:0:
320,192,71050,1,8,0:0:0:0:
192,192,71243,1,8,0:0:0:0:
64,192,71435,1,8,0:0:0:0:
192,192,71820,1,8,0:0:0:0:
448,192,72012,1,8,0:0:0:0:
448,192,72397,1,8,0:0:0:0:
320,192,72589,1,8,0:0:0:0:
192,192,72781,1,8,0:0:0:0:
64,192,72974,1,8,0:0:0:0:
192,192,73166,1,8,0:0:0:0:
320,192,73358,1,8,0:0:0:0:
64,192,73550,1,8,0:0:0:0:
320,192,73743,1,8,0:0:0:0:
448,192,73743,1,8,0:0:0:0:
192,192,74127,1,8,0:0:0:0:
64,192,74320,1,8,0:0:0:0:
448,192,74512,1,8,0:0:0:0:
448,192,74704,1,8,0:0:0:0:
64,192,74897,1,8,0:0:0:0:
320,192,75089,1,8,0:0:0:0:
192,192,75089,1,8,0:0:0:0:
64,192,75474,1,8,0:0:0:0:
320,192,75666,1,8,0:0:0:0:
64,192,75858,1,8,0:0:0:0:
448,192,76050,1,8,0:0:0:0:
320,192,76243,1,8,0:0:0:0:
192,192,76435,1,8,0:0:0:0:
64,192,76627,1,8,0:0:0:0:
192,192,76820,1,8,0:0:0:0:
320,192,76820,1,8,0:0:0:0:
192,192,77204,1,8,0:0:0:0:
64,192,77397,1,8,0:0:0:0:
448,192,77589,1,8,0:0:0:0:
64,192,77974,1,8,0:0:0:0:
192,192,78166,1,8,0:0:0:0:
64,192,78550,1,8,0:0:0:0:
192,192,78743,1,8,0:0:0:0:
64,192,78935,1,8,0:0:0:0:
448,192,79127,1,8,0:0:0:0:
192,192,79320,1,8,0:0:0:0:
320,192,79512,1,8,0:0:0:0:
192,192,79704,1,8,0:0:0:0:
448,192,79897,1,8,0:0:0:0:
320,192,79897,1,8,0:0:0:0:
64,192,80089,1,8,0:0:0:0:
192,192,80281,1,8,0:0:0:0:
64,192,80474,1,8,0:0:0:0:
448,192,80666,1,8,0:0:0:0:
320,192,80666,1,8,0:0:0:0:
192,192,80858,1,8,0:0:0:0:
320,192,81050,1,8,0:0:0:0:
448,192,81050,1,8,0:0:0:0:
64,192,81243,1,8,0:0:0:0:
192,192,81435,1,0,0:0:0:0:
448,192,81627,1,8,0:0:0:0:
320,192,81627,1,8,0:0:0:0:
320,192,82012,1,8,0:0:0:0:
64,192,82204,1,8,0:0:0:0:
448,192,82204,1,8,0:0:0:0:
320,192,82397,1,8,0:0:0:0:
64,192,82589,1,8,0:0:0:0:
448,192,82589,1,8,0:0:0:0:
192,192,82781,1,8,0:0:0:0:
320,192,82974,128,8,86050:0:0:0:0:
192,192,83743,1,8,0:0:0:0:
192,192,84320,1,8,0:0:0:0:
64,192,84897,1,8,0:0:0:0:
192,192,85281,1,8,0:0:0:0:
64,192,85666,1,8,0:0:0:0:
192,192,86050,1,8,0:0:0:0:
64,192,86050,1,8,0:0:0:0:
448,192,86435,1,8,0:0:0:0:
64,192,86627,1,8,0:0:0:0:
448,192,86820,1,8,0:0:0:0:
320,192,87012,1,8,0:0:0:0:
64,192,87204,1,8,0:0:0:0:
320,192,87397,1,8,0:0:0:0:
192,192,87589,1,8,0:0:0:0:
320,192,87781,1,8,0:0:0:0:
64,192,87974,1,8,0:0:0:0:
448,192,88166,1,8,0:0:0:0:
64,192,88358,1,8,0:0:0:0:
320,192,88550,128,8,88935:0:0:0:0:
