osu file format v14

[General]
AudioFilename: xu.mp3
AudioLeadIn: 0
PreviewTime: 56305
Countdown: 1
SampleSet: Soft
StackLeniency: 0.7
Mode: 3
LetterboxInBreaks: 1
SpecialStyle: 0
WidescreenStoryboard: 1

[Editor]
Bookmarks: 23776,46102,79590,101916,124241,157730,180055,213544,235869,258195,280520,302846,325171,330753
DistanceSpacing: 0.5
BeatDivisor: 6
GridSize: 4
TimelineZoom: 2.1

[Metadata]
Title:x.U. (ETIA. Hardcore Bootleg Remix)
TitleUnicode:×.U. (ETIA. Hardcore Bootleg Remix)
Artist:SawanoHiroyuki[nZk]:Gemie
ArtistUnicode:SawanoHiroyuki[nZk]:Gemie
Creator:[ M o m o ]
Version:Seraph
Source:終わりのセラフ
Tags:owari no seraph
BeatmapID:1205629
BeatmapSetID:568659

[Difficulty]
HPDrainRate:8
CircleSize:4
OverallDifficulty:8
ApproachRate:9
SliderMultiplier:1.6
SliderTickRate:1

[Events]
//Background and Video events
0,0,"xu-etia.jpg",0,0
//Break Periods
//Storyboard Layer 0 (Background)
//Storyboard Layer 1 (Fail)
//Storyboard Layer 2 (Pass)
//Storyboard Layer 3 (Foreground)
//Storyboard Sound Samples

[TimingPoints]
1451,348.837209302326,4,2,0,0,1,0
46102,-125,4,2,0,0,0,0
51683,-100,4,2,0,0,0,0
57264,-100,4,2,0,0,0,1
79590,-125,4,2,0,0,0,0
90753,-100,4,2,0,0,0,0
100520,-105.263157894737,4,2,0,0,0,0
101218,-104.166666666667,4,2,0,0,0,0
101305,-103.092783505155,4,2,0,0,0,0
101392,-102.040816326531,4,2,0,0,0,0
101480,-101.010101010101,4,2,0,0,0,0
101567,-100,4,2,0,0,0,0
101916,-100,4,2,0,0,0,0
124241,-181.818181818182,4,2,0,0,0,0
124299,-166.666666666667,4,2,0,0,0,0
124328,-142.857142857143,4,2,0,0,0,0
124416,-125,4,2,0,0,0,0
124590,-100,4,2,0,0,0,1
146567,-100,4,2,0,0,0,0

[Colours]
Combo1 : 255,128,64
Combo2 : 128,255,0
Combo3 : 166,0,0
Combo4 : 205,135,248
Combo5 : 0,0,125

[HitObjects]
64,192,1451,5,0,0:0:0:0:
192,192,1451,1,0,0:0:0:0:
320,192,1451,1,0,0:0:0:0:
448,192,1625,1,0,0:0:0:0:
64,192,1799,1,0,0:0:0:0:
192,192,1799,1,0,0:0:0:0:
320,192,1887,1,0,0:0:0:0:
448,192,1974,1,0,0:0:0:0:
320,192,2148,1,0,0:0:0:0:
192,192,2148,1,0,0:0:0:0:
64,192,2235,1,0,0:0:0:0:
448,192,2323,1,0,0:0:0:0:
320,192,2410,1,0,0:0:0:0:
192,192,2497,1,0,0:0:0:0:
64,192,2497,1,0,0:0:0:0:
448,192,2584,1,0,0:0:0:0:
192,192,2671,1,0,0:0:0:0:
320,192,2759,1,0,0:0:0:0:
64,192,2846,1,0,0:0:0:0:
192,192,2846,1,0,0:0:0:0:
320,192,2933,1,0,0:0:0:0:
448,192,3020,1,0,0:0:0:0:
64,192,3107,1,0,0:0:0:0:
192,192,3195,1,0,0:0:0:0:
320,192,3195,1,0,0:0:0:0:
448,192,3282,1,0,0:0:0:0:
192,192,3369,1,0,0:0:0:0:
64,192,3456,1,0,0:0:0:0:
448,192,3544,1,0,0:0:0:0:
320,192,3544,1,0,0:0:0:0:
192,192,3631,1,0,0:0:0:0:
64,192,3718,1,0,0:0:0:0:
448,192,3805,1,0,0:0:0:0:
192,192,3892,1,0,0:0:0:0:
64,192,3892,1,0,0:0:0:0:
320,192,3980,1,0,0:0:0:0:
448,192,4067,1,0,0:0:0:0:
192,192,4154,1,0,0:0:0:0:
448,192,4241,1,0,0:0:0:0:
320,192,4241,1,0,0:0:0:0:
64,192,4328,1,0,0:0:0:0:
192,192,4416,1,0,0:0:0:0:
320,192,4503,1,0,0:0:0:0:
192,192,4590,1,0,0:0:0:0:
448,192,4590,1,0,0:0:0:0:
64,192,4677,1,0,0:0:0:0:
448,192,4764,1,0,0:0:0:0:
320,192,4852,1,0,0:0:0:0:
192,192,4939,1,0,0:0:0:0:
64,192,4939,1,0,0:0:0:0:
448,192,5026,1,0,0:0:0:0:
320,192,5113,1,0,0:0:0:0:
64,192,5201,1,0,0:0:0:0:
192,192,5288,1,0,0:0:0:0:
320,192,5288,1,0,0:0:0:0:
448,192,5375,1,0,0:0:0:0:
192,192,5462,1,0,0:0:0:0:
64,192,5549,1,0,0:0:0:0:
320,192,5637,1,0,0:0:0:0:
448,192,5637,1,0,0:0:0:0:
192,192,5724,1,0,0:0:0:0:
64,192,5811,1,0,0:0:0:0:
192,192,5898,1,0,0:0:0:0:
320,192,5985,1,0,0:0:0:0:
448,192,5985,1,0,0:0:0:0:
64,192,6073,1,0,0:0:0:0:
192,192,6160,1,0,0:0:0:0:
320,192,6247,1,0,0:0:0:0:
192,192,6334,1,0,0:0:0:0:
64,192,6334,1,0,0:0:0:0:
320,192,6421,1,0,0:0:0:0:
448,192,6509,1,0,0:0:0:0:
192,192,6596,1,0,0:0:0:0:
64,192,6683,1,0,0:0:0:0:
448,192,6683,1,0,0:0:0:0:
320,192,6770,1,0,0:0:0:0:
192,192,6857,1,0,0:0:0:0:
64,192,6945,1,0,0:0:0:0:
320,192,7032,1,0,0:0:0:0:
448,192,7032,1,0,0:0:0:0:
192,192,7119,1,0,0:0:0:0:
320,192,7206,1,0,0:0:0:0:
448,192,7294,1,0,0:0:0:0:
64,192,7381,1,0,0:0:0:0:
192,192,7381,1,0,0:0:0:0:
320,192,7468,1,0,0:0:0:0:
448,192,7555,1,0,0:0:0:0:
192,192,7642,1,0,0:0:0:0:
64,192,7730,1,0,0:0:0:0:
448,192,7730,1,0,0:0:0:0:
320,192,7817,1,0,0:0:0:0:
192,192,7904,1,0,0:0:0:0:
64,192,7991,1,0,0:0:0:0:
320,192,8078,1,0,0:0:0:0:
448,192,8078,1,0,0:0:0:0:
192,192,8166,1,0,0:0:0:0:
320,192,8253,1,0,0:0:0:0:
64,192,8340,1,0,0:0:0:0:
192,192,8427,1,0,0:0:0:0:
448,192,8427,1,0,0:0:0:0:
320,192,8514,1,0,0:0:0:0:
192,192,8602,1,0,0:0:0:0:
64,192,8689,1,0,0:0:0:0:
320,192,8776,1,0,0:0:0:0:
448,192,8776,1,0,0:0:0:0:
64,192,8863,1,0,0:0:0:0:
448,192,8951,1,0,0:0:0:0:
320,192,9038,1,0,0:0:0:0:
192,192,9125,1,0,0:0:0:0:
64,192,9125,1,0,0:0:0:0:
448,192,9212,1,0,0:0:0:0:
192,192,9299,1,0,0:0:0:0:
64,192,9387,1,0,0:0:0:0:
448,192,9474,1,0,0:0:0:0:
320,192,9474,1,0,0:0:0:0:
192,192,9561,1,0,0:0:0:0:
448,192,9648,1,0,0:0:0:0:
64,192,9735,1,0,0:0:0:0:
320,192,9823,1,0,0:0:0:0:
192,192,9823,1,0,0:0:0:0:
448,192,9910,1,0,0:0:0:0:
320,192,9997,1,0,0:0:0:0:
192,192,10084,1,0,0:0:0:0:
64,192,10171,1,0,0:0:0:0:
320,192,10171,1,0,0:0:0:0:
448,192,10259,1,0,0:0:0:0:
64,192,10346,1,0,0:0:0:0:
192,192,10433,1,0,0:0:0:0:
448,192,10520,1,0,0:0:0:0:
320,192,10520,1,0,0:0:0:0:
64,192,10607,1,0,0:0:0:0:
192,192,10695,1,0,0:0:0:0:
448,192,10782,1,0,0:0:0:0:
192,192,10869,1,0,0:0:0:0:
64,192,10869,1,0,0:0:0:0:
320,192,10956,1,0,0:0:0:0:
64,192,11044,1,0,0:0:0:0:
448,192,11131,1,0,0:0:0:0:
320,192,11218,1,0,0:0:0:0:
64,192,11218,1,0,0:0:0:0:
192,192,11218,1,0,0:0:0:0:
448,192,11305,1,0,0:0:0:0:
320,192,11392,1,0,0:0:0:0:
192,192,11480,1,0,0:0:0:0:
64,192,11567,1,0,0:0:0:0:
448,192,11654,1,0,0:0:0:0:
64,192,11741,1,0,0:0:0:0:
192,192,11828,1,0,0:0:0:0:
320,192,11916,1,0,0:0:0:0:
448,192,12003,1,0,0:0:0:0:
192,192,12090,1,0,0:0:0:0:
64,192,12177,1,0,0:0:0:0:
448,192,12264,1,0,0:0:0:0:
320,192,12352,1,0,0:0:0:0:
192,192,12439,1,0,0:0:0:0:
64,192,12526,1,0,0:0:0:0:
192,192,12613,1,0,0:0:0:0:
320,192,12613,1,0,0:0:0:0:
448,192,12613,1,0,0:0:0:0:
64,192,12701,1,0,0:0:0:0:
448,192,12788,1,0,0:0:0:0:
320,192,12875,1,0,0:0:0:0:
64,192,12962,1,0,0:0:0:0:
192,192,12962,1,0,0:0:0:0:
320,192,13049,1,0,0:0:0:0:
448,192,13137,1,0,0:0:0:0:
192,192,13224,1,0,0:0:0:0:
320,192,13311,1,0,0:0:0:0:
64,192,13311,1,0,0:0:0:0:
448,192,13398,1,0,0:0:0:0:
64,192,13485,1,0,0:0:0:0:
320,192,13573,1,0,0:0:0:0:
192,192,13660,1,0,0:0:0:0:
448,192,13660,1,0,0:0:0:0:
64,192,13747,1,0,0:0:0:0:
320,192,13834,1,0,0:0:0:0:
448,192,13921,1,0,0:0:0:0:
192,192,14009,1,0,0:0:0:0:
64,192,14009,1,0,0:0:0:0:
320,192,14096,1,0,0:0:0:0:
192,192,14183,1,0,0:0:0:0:
64,192,14270,1,0,0:0:0:0:
320,192,14357,1,0,0:0:0:0:
448,192,14357,1,0,0:0:0:0:
192,192,14445,1,0,0:0:0:0:
448,192,14532,1,0,0:0:0:0:
320,192,14619,1,0,0:0:0:0:
192,192,14706,1,0,0:0:0:0:
64,192,14706,1,0,0:0:0:0:
320,192,14794,1,0,0:0:0:0:
448,192,14881,1,0,0:0:0:0:
64,192,14968,1,0,0:0:0:0:
192,192,15055,1,0,0:0:0:0:
320,192,15055,1,0,0:0:0:0:
448,192,15142,1,0,0:0:0:0:
192,192,15230,1,0,0:0:0:0:
64,192,15317,1,0,0:0:0:0:
320,192,15404,1,0,0:0:0:0:
448,192,15404,1,0,0:0:0:0:
192,192,15491,1,0,0:0:0:0:
320,192,15578,1,0,0:0:0:0:
448,192,15666,1,0,0:0:0:0:
64,192,15753,1,0,0:0:0:0:
192,192,15753,1,0,0:0:0:0:
448,192,15840,1,0,0:0:0:0:
64,192,15927,1,0,0:0:0:0:
320,192,16014,1,0,0:0:0:0:
192,192,16102,1,0,0:0:0:0:
448,192,16102,1,0,0:0:0:0:
64,192,16189,1,0,0:0:0:0:
320,192,16276,1,0,0:0:0:0:
448,192,16363,1,0,0:0:0:0:
320,192,16451,1,0,0:0:0:0:
192,192,16451,1,0,0:0:0:0:
64,192,16538,1,0,0:0:0:0:
320,192,16625,1,0,0:0:0:0:
448,192,16712,1,0,0:0:0:0:
192,192,16799,1,0,0:0:0:0:
64,192,16799,1,0,0:0:0:0:
320,192,16887,1,0,0:0:0:0:
448,192,16974,1,0,0:0:0:0:
320,192,17061,1,0,0:0:0:0:
64,192,17148,1,0,0:0:0:0:
192,192,17148,1,0,0:0:0:0:
448,192,17235,1,0,0:0:0:0:
64,192,17323,1,0,0:0:0:0:
192,192,17410,1,0,0:0:0:0:
320,192,17497,1,0,0:0:0:0:
448,192,17497,1,0,0:0:0:0:
64,192,17584,1,0,0:0:0:0:
320,192,17671,1,0,0:0:0:0:
448,192,17759,1,0,0:0:0:0:
64,192,17846,1,0,0:0:0:0:
192,192,17846,1,0,0:0:0:0:
320,192,17933,1,0,0:0:0:0:
192,192,18020,1,0,0:0:0:0:
64,192,18107,1,0,0:0:0:0:
448,192,18195,1,0,0:0:0:0:
320,192,18195,1,0,0:0:0:0:
192,192,18195,1,0,0:0:0:0:
64,192,18282,1,0,0:0:0:0:
192,192,18369,1,0,0:0:0:0:
320,192,18456,1,0,0:0:0:0:
448,192,18544,1,0,0:0:0:0:
64,192,18544,1,0,0:0:0:0:
320,192,18631,1,0,0:0:0:0:
64,192,18718,1,0,0:0:0:0:
192,192,18805,1,0,0:0:0:0:
448,192,18892,1,0,0:0:0:0:
320,192,18892,1,0,0:0:0:0:
64,192,18980,1,0,0:0:0:0:
320,192,19067,1,0,0:0:0:0:
192,192,19067,1,0,0:0:0:0:
448,192,19154,1,0,0:0:0:0:
64,192,19154,1,0,0:0:0:0:
192,192,19241,1,0,0:0:0:0:
320,192,19241,1,0,0:0:0:0:
448,192,19328,1,0,0:0:0:0:
64,192,19416,1,0,0:0:0:0:
320,192,19503,1,0,0:0:0:0:
448,192,19590,1,0,0:0:0:0:
192,192,19590,1,0,0:0:0:0:
64,192,19590,1,0,0:0:0:0:
320,192,19677,1,0,0:0:0:0:
192,192,19764,1,0,0:0:0:0:
64,192,19764,1,0,0:0:0:0:
448,192,19852,1,0,0:0:0:0:
320,192,19939,1,0,0:0:0:0:
64,192,19939,1,0,0:0:0:0:
192,192,20026,1,0,0:0:0:0:
320,192,20113,1,0,0:0:0:0:
448,192,20113,1,0,0:0:0:0:
64,192,20201,1,0,0:0:0:0:
448,192,20288,1,0,0:0:0:0:
192,192,20288,1,0,0:0:0:0:
320,192,20288,1,0,0:0:0:0:
64,192,20375,1,0,0:0:0:0:
448,192,20462,1,0,0:0:0:0:
320,192,20462,1,0,0:0:0:0:
192,192,20549,1,0,0:0:0:0:
64,192,20549,1,0,0:0:0:0:
320,192,20637,1,0,0:0:0:0:
448,192,20637,1,0,0:0:0:0:
64,192,20724,1,0,0:0:0:0:
192,192,20811,1,0,0:0:0:0:
448,192,20811,1,0,0:0:0:0:
320,192,20898,1,0,0:0:0:0:
192,192,20985,1,0,0:0:0:0:
64,192,20985,1,0,0:0:0:0:
448,192,21073,1,0,0:0:0:0:
320,192,21073,1,0,0:0:0:0:
192,192,21160,1,0,0:0:0:0:
64,192,21160,1,0,0:0:0:0:
320,192,21247,1,0,0:0:0:0:
448,192,21247,1,0,0:0:0:0:
192,192,21334,1,0,0:0:0:0:
64,192,21334,1,0,0:0:0:0:
320,192,21421,1,0,0:0:0:0:
448,192,21421,1,0,0:0:0:0:
192,192,21509,1,0,0:0:0:0:
64,192,21509,1,0,0:0:0:0:
320,192,21596,1,0,0:0:0:0:
448,192,21596,1,0,0:0:0:0:
192,192,21683,1,0,0:0:0:0:
64,192,21683,1,0,0:0:0:0:
320,192,21770,1,0,0:0:0:0:
448,192,21770,1,0,0:0:0:0:
64,192,21857,1,0,0:0:0:0:
192,192,21857,1,0,0:0:0:0:
448,192,21901,1,0,0:0:0:0:
320,192,21945,1,0,0:0:0:0:
192,192,21988,1,0,0:0:0:0:
64,192,22032,1,0,0:0:0:0:
448,192,22032,1,0,0:0:0:0:
320,192,22119,1,0,0:0:0:0:
192,192,22119,1,0,0:0:0:0:
64,192,22206,1,0,0:0:0:0:
448,192,22206,1,0,0:0:0:0:
192,192,22250,1,0,0:0:0:0:
320,192,22294,1,0,0:0:0:0:
448,192,22337,1,0,0:0:0:0:
320,192,22381,1,0,0:0:0:0:
192,192,22381,1,0,0:0:0:0:
64,192,22381,1,0,0:0:0:0:
448,192,22555,128,0,22642:0:0:0:0:
64,192,22730,128,0,22904:0:0:0:0:
192,192,22730,128,0,22904:0:0:0:0:
448,192,22904,128,0,23078:0:0:0:0:
320,192,22991,128,0,23078:0:0:0:0:
64,192,23078,128,0,23253:0:0:0:0:
448,192,23253,1,0,0:0:0:0:
320,192,23311,1,0,0:0:0:0:
192,192,23369,1,0,0:0:0:0:
448,192,23427,1,0,0:0:0:0:
320,192,23485,1,0,0:0:0:0:
192,192,23544,1,0,0:0:0:0:
64,192,23602,128,0,23776:0:0:0:0:
448,192,23602,128,0,23776:0:0:0:0:
320,192,23776,1,0,0:0:0:0:
192,192,23776,1,0,0:0:0:0:
192,192,23951,128,0,24125:0:0:0:0:
320,192,24125,1,0,0:0:0:0:
448,192,24125,1,0,0:0:0:0:
192,192,24299,128,0,24474:0:0:0:0:
64,192,24474,1,0,0:0:0:0:
448,192,24474,1,0,0:0:0:0:
192,192,24648,128,0,24823:0:0:0:0:
320,192,24823,1,0,0:0:0:0:
64,192,24823,1,0,0:0:0:0:
192,192,24997,128,0,25171:0:0:0:0:
320,192,25171,1,0,0:0:0:0:
448,192,25171,1,0,0:0:0:0:
192,192,25346,128,0,25520:0:0:0:0:
64,192,25520,1,0,0:0:0:0:
448,192,25520,1,0,0:0:0:0:
192,192,25695,128,0,25869:0:0:0:0:
320,192,25869,1,0,0:0:0:0:
64,192,25869,1,0,0:0:0:0:
192,192,26044,128,0,26218:0:0:0:0:
320,192,26218,1,0,0:0:0:0:
448,192,26218,1,0,0:0:0:0:
192,192,26392,128,0,26567:0:0:0:0:
64,192,26567,1,0,0:0:0:0:
448,192,26567,1,0,0:0:0:0:
192,192,26741,128,0,26916:0:0:0:0:
64,192,26916,1,0,0:0:0:0:
320,192,26916,1,0,0:0:0:0:
192,192,27090,128,0,27264:0:0:0:0:
320,192,27264,1,0,0:0:0:0:
448,192,27264,1,0,0:0:0:0:
192,192,27439,128,0,27613:0:0:0:0:
64,192,27613,1,0,0:0:0:0:
448,192,27613,1,0,0:0:0:0:
192,192,27788,128,0,27962:0:0:0:0:
64,192,27962,1,0,0:0:0:0:
320,192,27962,1,0,0:0:0:0:
192,192,28137,128,0,28311:0:0:0:0:
320,192,28311,1,0,0:0:0:0:
448,192,28311,1,0,0:0:0:0:
192,192,28485,128,0,28660:0:0:0:0:
64,192,28660,1,0,0:0:0:0:
448,192,28660,1,0,0:0:0:0:
192,192,28834,128,0,29009:0:0:0:0:
64,192,29009,1,0,0:0:0:0:
320,192,29009,1,0,0:0:0:0:
192,192,29183,128,0,29357:0:0:0:0:
320,192,29357,1,0,0:0:0:0:
448,192,29357,1,0,0:0:0:0:
192,192,29532,128,0,29706:0:0:0:0:
64,192,29706,1,0,0:0:0:0:
448,192,29706,1,0,0:0:0:0:
192,192,29881,128,0,30055:0:0:0:0:
64,192,30055,1,0,0:0:0:0:
320,192,30055,1,0,0:0:0:0:
192,192,30230,128,0,30404:0:0:0:0:
320,192,30404,1,0,0:0:0:0:
448,192,30404,1,0,0:0:0:0:
192,192,30578,128,0,30753:0:0:0:0:
64,192,30753,1,0,0:0:0:0:
448,192,30753,1,0,0:0:0:0:
192,192,30927,128,0,31102:0:0:0:0:
64,192,31102,1,0,0:0:0:0:
320,192,31102,1,0,0:0:0:0:
192,192,31276,128,0,31451:0:0:0:0:
320,192,31451,1,0,0:0:0:0:
448,192,31451,1,0,0:0:0:0:
192,192,31625,128,0,31799:0:0:0:0:
64,192,31799,1,0,0:0:0:0:
448,192,31799,1,0,0:0:0:0:
192,192,31974,128,0,32148:0:0:0:0:
64,192,32148,1,0,0:0:0:0:
320,192,32148,1,0,0:0:0:0:
192,192,32323,128,0,32497:0:0:0:0:
320,192,32497,1,0,0:0:0:0:
448,192,32497,1,0,0:0:0:0:
192,192,32671,128,0,32846:0:0:0:0:
64,192,32846,1,0,0:0:0:0:
448,192,32846,1,0,0:0:0:0:
192,192,33020,128,0,33195:0:0:0:0:
64,192,33195,1,0,0:0:0:0:
320,192,33195,1,0,0:0:0:0:
192,192,33369,128,0,33544:0:0:0:0:
320,192,33544,1,0,0:0:0:0:
448,192,33544,1,0,0:0:0:0:
192,192,33718,128,0,33892:0:0:0:0:
64,192,33892,1,0,0:0:0:0:
448,192,33892,1,0,0:0:0:0:
192,192,34067,128,0,34241:0:0:0:0:
320,192,34241,1,0,0:0:0:0:
448,192,34241,1,0,0:0:0:0:
192,192,34416,128,0,34590:0:0:0:0:
64,192,34590,1,0,0:0:0:0:
320,192,34590,1,0,0:0:0:0:
192,192,34764,128,0,34939:0:0:0:0:
64,192,34939,1,0,0:0:0:0:
320,192,34939,1,0,0:0:0:0:
448,192,34939,1,0,0:0:0:0:
192,192,35113,1,0,0:0:0:0:
320,192,35288,1,0,0:0:0:0:
448,192,35288,1,0,0:0:0:0:
64,192,35462,1,0,0:0:0:0:
192,192,35637,1,0,0:0:0:0:
320,192,35637,1,0,0:0:0:0:
64,192,35811,1,0,0:0:0:0:
320,192,35985,1,0,0:0:0:0:
448,192,35985,1,0,0:0:0:0:
192,192,36160,1,0,0:0:0:0:
64,192,36334,1,0,0:0:0:0:
448,192,36334,1,0,0:0:0:0:
320,192,36509,1,0,0:0:0:0:
192,192,36683,1,0,0:0:0:0:
64,192,36683,1,0,0:0:0:0:
448,192,36857,1,0,0:0:0:0:
192,192,37032,1,0,0:0:0:0:
320,192,37032,1,0,0:0:0:0:
64,192,37206,1,0,0:0:0:0:
320,192,37381,1,0,0:0:0:0:
448,192,37381,1,0,0:0:0:0:
192,192,37555,1,0,0:0:0:0:
320,192,37730,1,0,0:0:0:0:
448,192,37730,1,0,0:0:0:0:
64,192,37904,1,0,0:0:0:0:
192,192,38078,1,0,0:0:0:0:
320,192,38078,1,0,0:0:0:0:
448,192,38253,1,0,0:0:0:0:
192,192,38427,1,0,0:0:0:0:
320,192,38427,1,0,0:0:0:0:
64,192,38602,1,0,0:0:0:0:
448,192,38776,1,0,0:0:0:0:
320,192,38776,1,0,0:0:0:0:
64,192,38951,1,0,0:0:0:0:
192,192,39125,1,0,0:0:0:0:
320,192,39125,1,0,0:0:0:0:
448,192,39299,1,0,0:0:0:0:
320,192,39474,1,0,0:0:0:0:
192,192,39474,1,0,0:0:0:0:
64,192,39648,1,0,0:0:0:0:
320,192,39823,1,0,0:0:0:0:
448,192,39823,1,0,0:0:0:0:
192,192,39997,1,0,0:0:0:0:
64,192,40171,1,0,0:0:0:0:
448,192,40171,1,0,0:0:0:0:
320,192,40346,1,0,0:0:0:0:
192,192,40520,1,0,0:0:0:0:
64,192,40520,1,0,0:0:0:0:
448,192,40520,1,0,0:0:0:0:
320,192,40695,1,0,0:0:0:0:
64,192,40782,1,0,0:0:0:0:
448,192,40869,1,0,0:0:0:0:
320,192,40869,1,0,0:0:0:0:
192,192,40956,1,0,0:0:0:0:
448,192,41044,1,0,0:0:0:0:
192,192,41131,1,0,0:0:0:0:
64,192,41218,1,0,0:0:0:0:
320,192,41218,1,0,0:0:0:0:
448,192,41305,1,0,0:0:0:0:
192,192,41392,1,0,0:0:0:0:
64,192,41480,1,0,0:0:0:0:
448,192,41567,1,0,0:0:0:0:
320,192,41567,1,0,0:0:0:0:
192,192,41654,1,0,0:0:0:0:
320,192,41741,1,0,0:0:0:0:
448,192,41828,1,0,0:0:0:0:
192,192,41916,1,0,0:0:0:0:
64,192,41916,1,0,0:0:0:0:
320,192,42003,1,0,0:0:0:0:
64,192,42090,1,0,0:0:0:0:
448,192,42177,1,0,0:0:0:0:
320,192,42264,1,0,0:0:0:0:
192,192,42264,1,0,0:0:0:0:
64,192,42352,1,0,0:0:0:0:
448,192,42439,1,0,0:0:0:0:
192,192,42526,1,0,0:0:0:0:
320,192,42613,1,0,0:0:0:0:
448,192,42613,1,0,0:0:0:0:
64,192,42701,1,0,0:0:0:0:
320,192,42788,1,0,0:0:0:0:
64,192,42875,1,0,0:0:0:0:
192,192,42962,1,0,0:0:0:0:
448,192,42962,1,0,0:0:0:0:
320,192,43049,1,0,0:0:0:0:
64,192,43137,1,0,0:0:0:0:
320,192,43224,1,0,0:0:0:0:
64,192,43311,1,0,0:0:0:0:
192,192,43311,1,0,0:0:0:0:
448,192,43398,1,0,0:0:0:0:
192,192,43485,1,0,0:0:0:0:
448,192,43573,1,0,0:0:0:0:
64,192,43660,1,0,0:0:0:0:
320,192,43660,1,0,0:0:0:0:
192,192,43747,1,0,0:0:0:0:
448,192,43834,1,0,0:0:0:0:
192,192,43921,1,0,0:0:0:0:
320,192,44009,1,0,0:0:0:0:
448,192,44009,1,0,0:0:0:0:
64,192,44096,1,0,0:0:0:0:
320,192,44183,1,0,0:0:0:0:
192,192,44270,1,0,0:0:0:0:
320,192,44357,1,0,0:0:0:0:
448,192,44357,1,0,0:0:0:0:
64,192,44445,1,0,0:0:0:0:
448,192,44532,1,0,0:0:0:0:
320,192,44619,1,0,0:0:0:0:
192,192,44706,1,0,0:0:0:0:
64,192,44706,1,0,0:0:0:0:
320,192,44794,1,0,0:0:0:0:
448,192,44794,1,0,0:0:0:0:
192,192,44881,1,0,0:0:0:0:
64,192,44881,1,0,0:0:0:0:
320,192,44968,1,0,0:0:0:0:
448,192,44968,1,0,0:0:0:0:
64,192,45055,1,0,0:0:0:0:
192,192,45055,1,0,0:0:0:0:
320,192,45142,1,0,0:0:0:0:
448,192,45142,1,0,0:0:0:0:
64,192,45230,1,0,0:0:0:0:
192,192,45230,1,0,0:0:0:0:
448,192,45317,1,0,0:0:0:0:
320,192,45317,1,0,0:0:0:0:
192,192,45404,1,0,0:0:0:0:
64,192,45404,1,0,0:0:0:0:
320,192,45491,1,0,0:0:0:0:
448,192,45491,1,0,0:0:0:0:
192,192,45578,1,0,0:0:0:0:
64,192,45578,1,0,0:0:0:0:
320,192,45666,1,0,0:0:0:0:
448,192,45666,1,0,0:0:0:0:
64,192,45753,1,0,0:0:0:0:
192,192,45753,1,0,0:0:0:0:
320,192,45840,1,0,0:0:0:0:
448,192,45840,1,0,0:0:0:0:
192,192,45927,1,0,0:0:0:0:
64,192,45927,1,0,0:0:0:0:
320,192,46014,1,0,0:0:0:0:
448,192,46014,1,0,0:0:0:0:
192,192,46102,1,0,0:0:0:0:
64,192,46102,1,0,0:0:0:0:
448,192,46102,1,0,0:0:0:0:
320,192,46276,1,0,0:0:0:0:
64,192,46363,1,0,0:0:0:0:
320,192,46451,1,0,0:0:0:0:
192,192,46538,1,0,0:0:0:0:
64,192,46625,1,0,0:0:0:0:
320,192,46712,1,0,0:0:0:0:
448,192,46799,1,0,0:0:0:0:
192,192,46887,1,0,0:0:0:0:
320,192,46974,1,0,0:0:0:0:
64,192,47148,1,0,0:0:0:0:
320,192,47323,1,0,0:0:0:0:
192,192,47410,1,0,0:0:0:0:
64,192,47497,1,0,0:0:0:0:
448,192,47497,1,0,0:0:0:0:
192,192,47671,1,0,0:0:0:0:
320,192,47759,1,0,0:0:0:0:
64,192,47846,1,0,0:0:0:0:
448,192,48020,1,0,0:0:0:0:
320,192,48107,1,0,0:0:0:0:
192,192,48195,1,0,0:0:0:0:
320,192,48282,1,0,0:0:0:0:
64,192,48369,1,0,0:0:0:0:
320,192,48544,1,0,0:0:0:0:
192,192,48718,1,0,0:0:0:0:
320,192,48805,1,0,0:0:0:0:
448,192,48892,1,0,0:0:0:0:
64,192,48892,1,0,0:0:0:0:
192,192,49067,1,0,0:0:0:0:
64,192,49154,1,0,0:0:0:0:
320,192,49241,1,0,0:0:0:0:
192,192,49328,1,0,0:0:0:0:
448,192,49416,1,0,0:0:0:0:
320,192,49503,1,0,0:0:0:0:
192,192,49590,1,0,0:0:0:0:
64,192,49677,1,0,0:0:0:0:
320,192,49764,1,0,0:0:0:0:
192,192,49939,1,0,0:0:0:0:
64,192,50113,1,0,0:0:0:0:
192,192,50201,1,0,0:0:0:0:
448,192,50288,1,0,0:0:0:0:
320,192,50288,1,0,0:0:0:0:
64,192,50462,1,0,0:0:0:0:
320,192,50549,1,0,0:0:0:0:
192,192,50637,1,0,0:0:0:0:
448,192,50811,1,0,0:0:0:0:
320,192,50898,1,0,0:0:0:0:
192,192,50985,1,0,0:0:0:0:
64,192,51073,1,0,0:0:0:0:
320,192,51160,1,0,0:0:0:0:
448,192,51334,1,0,0:0:0:0:
320,192,51509,1,0,0:0:0:0:
64,192,51596,1,0,0:0:0:0:
448,192,51683,1,0,0:0:0:0:
192,192,51683,1,0,0:0:0:0:
320,192,51683,1,0,0:0:0:0:
64,192,51770,1,0,0:0:0:0:
192,192,51857,1,0,0:0:0:0:
320,192,51945,1,0,0:0:0:0:
448,192,52032,1,0,0:0:0:0:
64,192,52032,1,0,0:0:0:0:
192,192,52119,1,0,0:0:0:0:
448,192,52206,1,0,0:0:0:0:
320,192,52294,1,0,0:0:0:0:
64,192,52381,1,0,0:0:0:0:
192,192,52381,1,0,0:0:0:0:
320,192,52468,1,0,0:0:0:0:
448,192,52555,1,0,0:0:0:0:
64,192,52642,1,0,0:0:0:0:
320,192,52730,1,0,0:0:0:0:
192,192,52730,1,0,0:0:0:0:
448,192,52817,1,0,0:0:0:0:
192,192,52904,1,0,0:0:0:0:
64,192,52991,1,0,0:0:0:0:
192,192,53078,1,0,0:0:0:0:
448,192,53078,1,0,0:0:0:0:
320,192,53078,1,0,0:0:0:0:
64,192,53166,1,0,0:0:0:0:
448,192,53253,1,0,0:0:0:0:
320,192,53340,1,0,0:0:0:0:
64,192,53427,1,0,0:0:0:0:
192,192,53427,1,0,0:0:0:0:
320,192,53514,1,0,0:0:0:0:
448,192,53602,1,0,0:0:0:0:
64,192,53689,1,0,0:0:0:0:
320,192,53776,1,0,0:0:0:0:
192,192,53776,1,0,0:0:0:0:
448,192,53776,1,0,0:0:0:0:
64,192,53863,1,0,0:0:0:0:
192,192,53951,1,0,0:0:0:0:
320,192,54038,1,0,0:0:0:0:
192,192,54125,1,0,0:0:0:0:
448,192,54125,1,0,0:0:0:0:
64,192,54212,1,0,0:0:0:0:
320,192,54299,1,0,0:0:0:0:
192,192,54387,1,0,0:0:0:0:
320,192,54474,1,0,0:0:0:0:
448,192,54474,1,0,0:0:0:0:
64,192,54474,1,0,0:0:0:0:
192,192,54561,1,0,0:0:0:0:
320,192,54648,1,0,0:0:0:0:
448,192,54648,1,0,0:0:0:0:
64,192,54735,1,0,0:0:0:0:
448,192,54823,1,0,0:0:0:0:
192,192,54823,1,0,0:0:0:0:
320,192,54910,1,0,0:0:0:0:
192,192,54997,1,0,0:0:0:0:
64,192,54997,1,0,0:0:0:0:
448,192,55084,1,0,0:0:0:0:
192,192,55171,1,0,0:0:0:0:
320,192,55171,1,0,0:0:0:0:
64,192,55259,1,0,0:0:0:0:
448,192,55259,1,0,0:0:0:0:
320,192,55346,1,0,0:0:0:0:
192,192,55346,1,0,0:0:0:0:
64,192,55433,1,0,0:0:0:0:
448,192,55433,1,0,0:0:0:0:
320,192,55520,1,0,0:0:0:0:
192,192,55520,1,0,0:0:0:0:
64,192,55607,1,0,0:0:0:0:
448,192,55607,1,0,0:0:0:0:
320,192,55695,1,0,0:0:0:0:
192,192,55695,1,0,0:0:0:0:
64,192,55782,1,0,0:0:0:0:
448,192,55782,1,0,0:0:0:0:
320,192,55869,1,0,0:0:0:0:
192,192,55869,1,0,0:0:0:0:
64,192,55869,1,0,0:0:0:0:
448,192,56044,1,0,0:0:0:0:
320,192,56131,1,0,0:0:0:0:
192,192,56218,1,0,0:0:0:0:
64,192,56218,1,0,0:0:0:0:
448,192,56305,1,0,0:0:0:0:
192,192,56392,1,0,0:0:0:0:
320,192,56567,1,0,0:0:0:0:
192,192,56654,1,0,0:0:0:0:
64,192,56741,1,0,0:0:0:0:
320,192,56828,1,0,0:0:0:0:
192,192,56916,1,0,0:0:0:0:
64,192,56916,1,0,0:0:0:0:
448,192,56916,1,0,0:0:0:0:
320,192,57264,1,0,0:0:0:0:
448,192,57264,1,0,0:0:0:0:
64,192,57264,1,0,0:0:0:0:
192,192,57352,1,0,0:0:0:0:
320,192,57439,1,0,0:0:0:0:
448,192,57526,1,0,0:0:0:0:
192,192,57613,1,0,0:0:0:0:
64,192,57613,1,0,0:0:0:0:
320,192,57701,1,0,0:0:0:0:
64,192,57788,1,0,0:0:0:0:
192,192,57875,1,0,0:0:0:0:
320,192,57962,1,0,0:0:0:0:
64,192,58049,1,0,0:0:0:0:
320,192,58137,1,0,0:0:0:0:
192,192,58137,1,0,0:0:0:0:
448,192,58224,1,0,0:0:0:0:
192,192,58311,1,0,0:0:0:0:
64,192,58311,1,0,0:0:0:0:
320,192,58398,1,0,0:0:0:0:
448,192,58485,1,0,0:0:0:0:
64,192,58573,1,0,0:0:0:0:
192,192,58660,1,0,0:0:0:0:
320,192,58660,1,0,0:0:0:0:
448,192,58747,1,0,0:0:0:0:
320,192,58834,1,0,0:0:0:0:
192,192,58921,1,0,0:0:0:0:
64,192,59009,1,0,0:0:0:0:
448,192,59009,1,0,0:0:0:0:
320,192,59096,1,0,0:0:0:0:
64,192,59183,1,0,0:0:0:0:
192,192,59270,1,0,0:0:0:0:
320,192,59357,1,0,0:0:0:0:
64,192,59445,1,0,0:0:0:0:
192,192,59532,1,0,0:0:0:0:
448,192,59532,1,0,0:0:0:0:
320,192,59619,1,0,0:0:0:0:
192,192,59706,1,0,0:0:0:0:
64,192,59706,1,0,0:0:0:0:
448,192,59794,1,0,0:0:0:0:
192,192,59881,1,0,0:0:0:0:
320,192,59968,1,0,0:0:0:0:
192,192,60055,1,0,0:0:0:0:
64,192,60055,1,0,0:0:0:0:
448,192,60142,1,0,0:0:0:0:
320,192,60230,1,0,0:0:0:0:
192,192,60317,1,0,0:0:0:0:
64,192,60404,1,0,0:0:0:0:
320,192,60404,1,0,0:0:0:0:
448,192,60491,1,0,0:0:0:0:
64,192,60578,1,0,0:0:0:0:
192,192,60666,1,0,0:0:0:0:
320,192,60753,1,0,0:0:0:0:
64,192,60840,1,0,0:0:0:0:
320,192,60927,1,0,0:0:0:0:
448,192,60927,1,0,0:0:0:0:
192,192,61014,1,0,0:0:0:0:
320,192,61102,1,0,0:0:0:0:
64,192,61102,128,0,61276:0:0:0:0:
448,192,61189,1,0,0:0:0:0:
192,192,61276,1,0,0:0:0:0:
320,192,61363,1,0,0:0:0:0:
448,192,61451,128,0,61625:0:0:0:0:
64,192,61451,1,0,0:0:0:0:
192,192,61538,1,0,0:0:0:0:
320,192,61625,1,0,0:0:0:0:
192,192,61712,1,0,0:0:0:0:
64,192,61799,1,0,0:0:0:0:
448,192,61799,1,0,0:0:0:0:
320,192,61887,1,0,0:0:0:0:
192,192,61974,128,0,62148:0:0:0:0:
448,192,62061,1,0,0:0:0:0:
64,192,62148,1,0,0:0:0:0:
320,192,62235,1,0,0:0:0:0:
448,192,62323,1,0,0:0:0:0:
192,192,62323,1,0,0:0:0:0:
64,192,62410,1,0,0:0:0:0:
320,192,62497,1,0,0:0:0:0:
448,192,62497,1,0,0:0:0:0:
192,192,62584,1,0,0:0:0:0:
64,192,62671,1,0,0:0:0:0:
448,192,62759,1,0,0:0:0:0:
320,192,62846,1,0,0:0:0:0:
192,192,62846,1,0,0:0:0:0:
64,192,62933,1,0,0:0:0:0:
192,192,63020,1,0,0:0:0:0:
320,192,63107,1,0,0:0:0:0:
192,192,63195,1,0,0:0:0:0:
64,192,63195,1,0,0:0:0:0:
448,192,63282,1,0,0:0:0:0:
64,192,63369,1,0,0:0:0:0:
192,192,63456,1,0,0:0:0:0:
320,192,63544,1,0,0:0:0:0:
64,192,63631,1,0,0:0:0:0:
192,192,63718,1,0,0:0:0:0:
448,192,63718,1,0,0:0:0:0:
320,192,63805,1,0,0:0:0:0:
64,192,63892,1,0,0:0:0:0:
192,192,63892,1,0,0:0:0:0:
448,192,63980,1,0,0:0:0:0:
320,192,64067,1,0,0:0:0:0:
64,192,64154,1,0,0:0:0:0:
448,192,64241,1,0,0:0:0:0:
320,192,64241,1,0,0:0:0:0:
192,192,64328,1,0,0:0:0:0:
64,192,64416,1,0,0:0:0:0:
192,192,64503,1,0,0:0:0:0:
320,192,64590,1,0,0:0:0:0:
448,192,64590,1,0,0:0:0:0:
64,192,64677,1,0,0:0:0:0:
320,192,64764,1,0,0:0:0:0:
192,192,64852,1,0,0:0:0:0:
64,192,64939,1,0,0:0:0:0:
320,192,65026,1,0,0:0:0:0:
192,192,65113,1,0,0:0:0:0:
64,192,65113,1,0,0:0:0:0:
448,192,65201,1,0,0:0:0:0:
320,192,65288,1,0,0:0:0:0:
192,192,65288,1,0,0:0:0:0:
64,192,65375,1,0,0:0:0:0:
448,192,65462,1,0,0:0:0:0:
192,192,65549,1,0,0:0:0:0:
64,192,65637,1,0,0:0:0:0:
320,192,65637,1,0,0:0:0:0:
448,192,65724,1,0,0:0:0:0:
320,192,65811,1,0,0:0:0:0:
192,192,65898,1,0,0:0:0:0:
64,192,65985,1,0,0:0:0:0:
448,192,65985,1,0,0:0:0:0:
192,192,66073,1,0,0:0:0:0:
448,192,66160,1,0,0:0:0:0:
320,192,66247,1,0,0:0:0:0:
192,192,66334,1,0,0:0:0:0:
320,192,66421,1,0,0:0:0:0:
448,192,66509,1,0,0:0:0:0:
64,192,66509,1,0,0:0:0:0:
192,192,66596,1,0,0:0:0:0:
448,192,66683,1,0,0:0:0:0:
320,192,66683,128,0,66857:0:0:0:0:
64,192,66770,1,0,0:0:0:0:
192,192,66857,1,0,0:0:0:0:
448,192,66945,1,0,0:0:0:0:
64,192,67032,128,0,67206:0:0:0:0:
320,192,67032,1,0,0:0:0:0:
192,192,67119,1,0,0:0:0:0:
448,192,67206,1,0,0:0:0:0:
320,192,67294,1,0,0:0:0:0:
192,192,67381,1,0,0:0:0:0:
64,192,67381,1,0,0:0:0:0:
320,192,67468,1,0,0:0:0:0:
448,192,67555,128,0,67730:0:0:0:0:
64,192,67642,1,0,0:0:0:0:
192,192,67730,1,0,0:0:0:0:
320,192,67730,1,0,0:0:0:0:
64,192,67817,1,0,0:0:0:0:
192,192,67904,1,0,0:0:0:0:
448,192,67904,1,0,0:0:0:0:
320,192,67991,1,0,0:0:0:0:
192,192,68078,128,0,68253:0:0:0:0:
64,192,68078,1,0,0:0:0:0:
448,192,68166,1,0,0:0:0:0:
320,192,68253,1,0,0:0:0:0:
64,192,68340,1,0,0:0:0:0:
192,192,68427,1,0,0:0:0:0:
448,192,68427,1,0,0:0:0:0:
320,192,68427,1,0,0:0:0:0:
64,192,68514,1,0,0:0:0:0:
192,192,68602,1,0,0:0:0:0:
320,192,68689,1,0,0:0:0:0:
448,192,68776,1,0,0:0:0:0:
64,192,68776,1,0,0:0:0:0:
192,192,68863,1,0,0:0:0:0:
448,192,68951,1,0,0:0:0:0:
320,192,69038,1,0,0:0:0:0:
192,192,69125,1,0,0:0:0:0:
448,192,69212,1,0,0:0:0:0:
320,192,69299,1,0,0:0:0:0:
64,192,69299,1,0,0:0:0:0:
192,192,69387,1,0,0:0:0:0:
320,192,69474,1,0,0:0:0:0:
448,192,69474,1,0,0:0:0:0:
64,192,69561,1,0,0:0:0:0:
192,192,69648,1,0,0:0:0:0:
448,192,69735,1,0,0:0:0:0:
192,192,69823,1,0,0:0:0:0:
64,192,69823,1,0,0:0:0:0:
320,192,69910,1,0,0:0:0:0:
448,192,69997,1,0,0:0:0:0:
320,192,70084,1,0,0:0:0:0:
192,192,70171,1,0,0:0:0:0:
64,192,70171,1,0,0:0:0:0:
448,192,70259,1,0,0:0:0:0:
192,192,70346,1,0,0:0:0:0:
320,192,70433,1,0,0:0:0:0:
448,192,70520,1,0,0:0:0:0:
64,192,70520,1,0,0:0:0:0:
192,192,70607,1,0,0:0:0:0:
320,192,70695,1,0,0:0:0:0:
448,192,70695,1,0,0:0:0:0:
192,192,70782,1,0,0:0:0:0:
64,192,70869,1,0,0:0:0:0:
320,192,70869,1,0,0:0:0:0:
448,192,70956,1,0,0:0:0:0:
192,192,71044,1,0,0:0:0:0:
64,192,71131,1,0,0:0:0:0:
448,192,71218,1,0,0:0:0:0:
320,192,71218,1,0,0:0:0:0:
192,192,71305,1,0,0:0:0:0:
64,192,71392,1,0,0:0:0:0:
448,192,71480,1,0,0:0:0:0:
320,192,71567,1,0,0:0:0:0:
64,192,71567,1,0,0:0:0:0:
192,192,71654,1,0,0:0:0:0:
448,192,71741,5,0,0:0:0:0:
320,192,71828,1,0,0:0:0:0:
192,192,71916,1,0,0:0:0:0:
448,192,72003,1,0,0:0:0:0:
64,192,72090,1,0,0:0:0:0:
320,192,72090,1,0,0:0:0:0:
192,192,72177,1,0,0:0:0:0:
448,192,72264,128,0,72439:0:0:0:0:
320,192,72264,1,0,0:0:0:0:
64,192,72352,1,0,0:0:0:0:
192,192,72439,1,0,0:0:0:0:
320,192,72526,1,0,0:0:0:0:
64,192,72613,1,0,0:0:0:0:
192,192,72613,128,0,72788:0:0:0:0:
448,192,72701,1,0,0:0:0:0:
320,192,72788,1,0,0:0:0:0:
64,192,72875,1,0,0:0:0:0:
192,192,72962,1,0,0:0:0:0:
448,192,72962,1,0,0:0:0:0:
320,192,73049,1,0,0:0:0:0:
64,192,73137,128,0,73311:0:0:0:0:
320,192,73224,1,0,0:0:0:0:
192,192,73311,1,0,0:0:0:0:
448,192,73398,1,0,0:0:0:0:
64,192,73485,1,0,0:0:0:0:
320,192,73485,1,0,0:0:0:0:
192,192,73573,1,0,0:0:0:0:
320,192,73660,128,0,73834:0:0:0:0:
448,192,73660,1,0,0:0:0:0:
64,192,73747,1,0,0:0:0:0:
192,192,73834,1,0,0:0:0:0:
448,192,73834,1,0,0:0:0:0:
64,192,73921,1,0,0:0:0:0:
448,192,74009,1,0,0:0:0:0:
192,192,74009,1,0,0:0:0:0:
320,192,74009,1,0,0:0:0:0:
64,192,74096,1,0,0:0:0:0:
192,192,74183,1,0,0:0:0:0:
320,192,74270,1,0,0:0:0:0:
448,192,74357,1,0,0:0:0:0:
64,192,74357,1,0,0:0:0:0:
192,192,74445,1,0,0:0:0:0:
448,192,74532,1,0,0:0:0:0:
320,192,74619,1,0,0:0:0:0:
192,192,74706,1,0,0:0:0:0:
64,192,74706,1,0,0:0:0:0:
448,192,74794,1,0,0:0:0:0:
320,192,74881,1,0,0:0:0:0:
64,192,74968,1,0,0:0:0:0:
192,192,75055,1,0,0:0:0:0:
448,192,75055,1,0,0:0:0:0:
320,192,75142,1,0,0:0:0:0:
64,192,75230,1,0,0:0:0:0:
448,192,75317,1,0,0:0:0:0:
64,192,75404,1,0,0:0:0:0:
320,192,75404,1,0,0:0:0:0:
192,192,75404,1,0,0:0:0:0:
448,192,75491,1,0,0:0:0:0:
320,192,75578,1,0,0:0:0:0:
192,192,75666,1,0,0:0:0:0:
64,192,75753,1,0,0:0:0:0:
448,192,75753,1,0,0:0:0:0:
320,192,75840,1,0,0:0:0:0:
64,192,75927,1,0,0:0:0:0:
192,192,76014,1,0,0:0:0:0:
320,192,76102,1,0,0:0:0:0:
448,192,76102,1,0,0:0:0:0:
64,192,76189,1,0,0:0:0:0:
192,192,76189,1,0,0:0:0:0:
448,192,76276,1,0,0:0:0:0:
320,192,76276,1,0,0:0:0:0:
64,192,76363,1,0,0:0:0:0:
448,192,76451,1,0,0:0:0:0:
192,192,76451,1,0,0:0:0:0:
320,192,76538,1,0,0:0:0:0:
64,192,76625,1,0,0:0:0:0:
448,192,76712,1,0,0:0:0:0:
64,192,76799,1,0,0:0:0:0:
320,192,76799,1,0,0:0:0:0:
192,192,76799,1,0,0:0:0:0:
448,192,76887,1,0,0:0:0:0:
320,192,76974,1,0,0:0:0:0:
64,192,76974,1,0,0:0:0:0:
192,192,77061,1,0,0:0:0:0:
320,192,77148,1,0,0:0:0:0:
448,192,77148,1,0,0:0:0:0:
64,192,77235,1,0,0:0:0:0:
192,192,77323,1,0,0:0:0:0:
320,192,77323,1,0,0:0:0:0:
448,192,77410,1,0,0:0:0:0:
64,192,77497,1,0,0:0:0:0:
192,192,77497,1,0,0:0:0:0:
320,192,77584,1,0,0:0:0:0:
448,192,77584,1,0,0:0:0:0:
192,192,77671,1,0,0:0:0:0:
64,192,77671,1,0,0:0:0:0:
320,192,77759,1,0,0:0:0:0:
448,192,77759,1,0,0:0:0:0:
192,192,77846,1,0,0:0:0:0:
64,192,77846,1,0,0:0:0:0:
320,192,77933,1,0,0:0:0:0:
448,192,77933,1,0,0:0:0:0:
192,192,78020,1,0,0:0:0:0:
64,192,78020,1,0,0:0:0:0:
320,192,78107,1,0,0:0:0:0:
448,192,78107,1,0,0:0:0:0:
192,192,78195,1,0,0:0:0:0:
64,192,78195,1,0,0:0:0:0:
448,192,78195,1,0,0:0:0:0:
320,192,78282,1,0,0:0:0:0:
448,192,78369,1,0,0:0:0:0:
192,192,78369,1,0,0:0:0:0:
320,192,78456,1,0,0:0:0:0:
64,192,78456,1,0,0:0:0:0:
448,192,78544,1,0,0:0:0:0:
192,192,78544,1,0,0:0:0:0:
320,192,78631,1,0,0:0:0:0:
64,192,78718,1,0,0:0:0:0:
448,192,78718,1,0,0:0:0:0:
192,192,78718,1,0,0:0:0:0:
320,192,78805,1,0,0:0:0:0:
64,192,78892,1,0,0:0:0:0:
448,192,78892,1,0,0:0:0:0:
320,192,78980,1,0,0:0:0:0:
192,192,78980,1,0,0:0:0:0:
64,192,79067,1,0,0:0:0:0:
448,192,79067,1,0,0:0:0:0:
320,192,79154,1,0,0:0:0:0:
192,192,79154,1,0,0:0:0:0:
64,192,79241,1,0,0:0:0:0:
448,192,79241,128,0,79590:0:0:0:0:
64,192,79590,1,0,0:0:0:0:
192,192,79852,1,0,0:0:0:0:
320,192,80201,1,0,0:0:0:0:
64,192,80288,1,0,0:0:0:0:
448,192,80549,1,0,0:0:0:0:
192,192,80811,1,0,0:0:0:0:
320,192,80985,1,0,0:0:0:0:
64,192,81247,1,0,0:0:0:0:
448,192,81509,1,0,0:0:0:0:
64,192,81683,1,0,0:0:0:0:
320,192,81770,1,0,0:0:0:0:
192,192,81945,1,0,0:0:0:0:
320,192,82206,1,0,0:0:0:0:
448,192,82381,1,0,0:0:0:0:
64,192,82642,1,0,0:0:0:0:
320,192,82904,1,0,0:0:0:0:
64,192,83078,1,0,0:0:0:0:
448,192,83166,1,0,0:0:0:0:
192,192,83340,1,0,0:0:0:0:
320,192,83602,1,0,0:0:0:0:
448,192,83776,1,0,0:0:0:0:
448,192,84038,1,0,0:0:0:0:
64,192,84299,1,0,0:0:0:0:
192,192,84387,1,0,0:0:0:0:
320,192,84474,1,0,0:0:0:0:
448,192,84561,1,0,0:0:0:0:
192,192,84735,1,0,0:0:0:0:
320,192,84997,1,0,0:0:0:0:
64,192,85171,1,0,0:0:0:0:
64,192,85433,1,0,0:0:0:0:
448,192,85695,1,0,0:0:0:0:
320,192,85782,1,0,0:0:0:0:
192,192,85869,1,0,0:0:0:0:
64,192,85956,1,0,0:0:0:0:
320,192,86131,1,0,0:0:0:0:
192,192,86392,1,0,0:0:0:0:
448,192,86567,1,0,0:0:0:0:
192,192,86828,1,0,0:0:0:0:
320,192,87090,1,0,0:0:0:0:
64,192,87177,1,0,0:0:0:0:
448,192,87264,1,0,0:0:0:0:
192,192,87352,1,0,0:0:0:0:
320,192,87526,1,0,0:0:0:0:
64,192,87788,1,0,0:0:0:0:
320,192,87962,1,0,0:0:0:0:
192,192,88224,1,0,0:0:0:0:
320,192,88485,1,0,0:0:0:0:
192,192,88573,1,0,0:0:0:0:
448,192,88660,1,0,0:0:0:0:
320,192,88747,1,0,0:0:0:0:
64,192,88921,1,0,0:0:0:0:
320,192,89183,1,0,0:0:0:0:
192,192,89357,1,0,0:0:0:0:
192,192,89619,1,0,0:0:0:0:
448,192,89881,1,0,0:0:0:0:
320,192,89968,1,0,0:0:0:0:
192,192,90055,1,0,0:0:0:0:
64,192,90142,1,0,0:0:0:0:
320,192,90317,1,0,0:0:0:0:
192,192,90578,1,0,0:0:0:0:
64,192,90753,1,0,0:0:0:0:
320,192,90753,1,0,0:0:0:0:
448,192,90753,1,0,0:0:0:0:
448,192,91014,1,0,0:0:0:0:
320,192,91102,1,0,0:0:0:0:
192,192,91102,1,0,0:0:0:0:
64,192,91276,1,0,0:0:0:0:
192,192,91363,1,0,0:0:0:0:
320,192,91451,1,0,0:0:0:0:
448,192,91451,1,0,0:0:0:0:
64,192,91538,1,0,0:0:0:0:
320,192,91712,1,0,0:0:0:0:
192,192,91799,1,0,0:0:0:0:
64,192,91799,1,0,0:0:0:0:
448,192,91974,1,0,0:0:0:0:
320,192,92148,1,0,0:0:0:0:
64,192,92148,1,0,0:0:0:0:
192,192,92410,1,0,0:0:0:0:
320,192,92497,1,0,0:0:0:0:
448,192,92497,1,0,0:0:0:0:
64,192,92671,1,0,0:0:0:0:
192,192,92759,1,0,0:0:0:0:
320,192,92846,1,0,0:0:0:0:
448,192,92846,1,0,0:0:0:0:
64,192,92933,1,0,0:0:0:0:
320,192,93107,1,0,0:0:0:0:
192,192,93195,1,0,0:0:0:0:
64,192,93195,1,0,0:0:0:0:
448,192,93369,1,0,0:0:0:0:
320,192,93544,1,0,0:0:0:0:
64,192,93544,1,0,0:0:0:0:
448,192,93805,1,0,0:0:0:0:
192,192,93892,1,0,0:0:0:0:
320,192,93892,1,0,0:0:0:0:
448,192,94067,1,0,0:0:0:0:
320,192,94154,1,0,0:0:0:0:
192,192,94241,1,0,0:0:0:0:
64,192,94241,1,0,0:0:0:0:
448,192,94328,1,0,0:0:0:0:
192,192,94503,1,0,0:0:0:0:
320,192,94590,1,0,0:0:0:0:
448,192,94590,1,0,0:0:0:0:
64,192,94764,1,0,0:0:0:0:
192,192,94939,1,0,0:0:0:0:
448,192,94939,1,0,0:0:0:0:
64,192,95201,1,0,0:0:0:0:
320,192,95288,1,0,0:0:0:0:
192,192,95288,1,0,0:0:0:0:
64,192,95462,1,0,0:0:0:0:
192,192,95549,1,0,0:0:0:0:
320,192,95637,1,0,0:0:0:0:
448,192,95637,1,0,0:0:0:0:
64,192,95724,1,0,0:0:0:0:
320,192,95898,1,0,0:0:0:0:
192,192,95985,1,0,0:0:0:0:
64,192,95985,1,0,0:0:0:0:
448,192,96160,1,0,0:0:0:0:
320,192,96334,1,0,0:0:0:0:
192,192,96334,1,0,0:0:0:0:
64,192,96334,1,0,0:0:0:0:
192,192,96596,1,0,0:0:0:0:
320,192,96683,1,0,0:0:0:0:
448,192,96683,1,0,0:0:0:0:
64,192,96857,1,0,0:0:0:0:
192,192,96945,1,0,0:0:0:0:
320,192,97032,1,0,0:0:0:0:
448,192,97032,1,0,0:0:0:0:
64,192,97294,1,0,0:0:0:0:
320,192,97294,1,0,0:0:0:0:
192,192,97555,1,0,0:0:0:0:
320,192,97555,1,0,0:0:0:0:
448,192,97730,1,0,0:0:0:0:
320,192,97730,1,0,0:0:0:0:
64,192,97730,1,0,0:0:0:0:
192,192,97904,1,0,0:0:0:0:
64,192,97904,1,0,0:0:0:0:
320,192,97991,1,0,0:0:0:0:
448,192,98078,1,0,0:0:0:0:
192,192,98078,1,0,0:0:0:0:
64,192,98253,1,0,0:0:0:0:
448,192,98253,1,0,0:0:0:0:
192,192,98340,1,0,0:0:0:0:
448,192,98427,1,0,0:0:0:0:
320,192,98427,1,0,0:0:0:0:
64,192,98427,1,0,0:0:0:0:
192,192,98514,1,0,0:0:0:0:
320,192,98602,1,0,0:0:0:0:
448,192,98602,1,0,0:0:0:0:
192,192,98689,1,0,0:0:0:0:
64,192,98689,1,0,0:0:0:0:
320,192,98776,1,0,0:0:0:0:
192,192,98863,1,0,0:0:0:0:
64,192,98951,1,0,0:0:0:0:
448,192,98951,1,0,0:0:0:0:
320,192,99038,1,0,0:0:0:0:
448,192,99125,1,0,0:0:0:0:
192,192,99125,1,0,0:0:0:0:
64,192,99125,1,0,0:0:0:0:
320,192,99212,1,0,0:0:0:0:
64,192,99299,1,0,0:0:0:0:
448,192,99387,1,0,0:0:0:0:
320,192,99474,1,0,0:0:0:0:
192,192,99474,1,0,0:0:0:0:
64,192,99474,1,0,0:0:0:0:
448,192,99561,1,0,0:0:0:0:
64,192,99648,1,0,0:0:0:0:
192,192,99735,1,0,0:0:0:0:
320,192,99823,1,0,0:0:0:0:
448,192,99823,1,0,0:0:0:0:
64,192,99823,1,0,0:0:0:0:
192,192,99910,1,0,0:0:0:0:
448,192,99997,1,0,0:0:0:0:
320,192,100084,1,0,0:0:0:0:
192,192,100171,1,0,0:0:0:0:
64,192,100171,1,0,0:0:0:0:
448,192,100171,1,0,0:0:0:0:
320,192,100259,1,0,0:0:0:0:
64,192,100346,1,0,0:0:0:0:
448,192,100433,1,0,0:0:0:0:
320,192,100520,1,0,0:0:0:0:
192,192,100520,1,0,0:0:0:0:
64,192,100520,1,0,0:0:0:0:
320,192,100695,128,0,100869:0:0:0:0:
192,192,100782,128,0,100869:0:0:0:0:
64,192,100869,128,0,101044:0:0:0:0:
320,192,101044,1,0,0:0:0:0:
192,192,101131,1,0,0:0:0:0:
64,192,101218,128,0,101392:0:0:0:0:
448,192,101305,128,0,101654:0:0:0:0:
192,192,101392,128,0,101480:0:0:0:0:
320,192,101392,128,0,101567:0:0:0:0:
64,192,101567,1,0,0:0:0:0:
192,192,101654,1,0,0:0:0:0:
320,192,101741,1,0,0:0:0:0:
448,192,101828,1,0,0:0:0:0:
320,192,101916,1,0,0:0:0:0:
64,192,101916,1,0,0:0:0:0:
192,192,101916,1,0,0:0:0:0:
320,192,102090,1,0,0:0:0:0:
64,192,102177,1,0,0:0:0:0:
192,192,102264,1,0,0:0:0:0:
448,192,102264,1,0,0:0:0:0:
320,192,102352,1,0,0:0:0:0:
448,192,102439,128,0,102526:0:0:0:0:
320,192,102526,128,0,102613:0:0:0:0:
64,192,102613,128,0,102701:0:0:0:0:
192,192,102613,1,0,0:0:0:0:
448,192,102701,128,0,102788:0:0:0:0:
192,192,102788,1,0,0:0:0:0:
320,192,102875,1,0,0:0:0:0:
64,192,102962,1,0,0:0:0:0:
448,192,102962,1,0,0:0:0:0:
192,192,103049,1,0,0:0:0:0:
320,192,103137,128,0,103224:0:0:0:0:
448,192,103224,1,0,0:0:0:0:
64,192,103311,128,0,103398:0:0:0:0:
192,192,103311,1,0,0:0:0:0:
448,192,103398,1,0,0:0:0:0:
320,192,103485,1,0,0:0:0:0:
192,192,103573,128,0,103660:0:0:0:0:
64,192,103660,1,0,0:0:0:0:
320,192,103660,1,0,0:0:0:0:
448,192,103747,1,0,0:0:0:0:
320,192,103834,128,0,103921:0:0:0:0:
64,192,103921,128,0,104009:0:0:0:0:
448,192,104009,128,0,104096:0:0:0:0:
320,192,104009,1,0,0:0:0:0:
192,192,104096,128,0,104183:0:0:0:0:
64,192,104183,1,0,0:0:0:0:
448,192,104270,1,0,0:0:0:0:
64,192,104357,1,0,0:0:0:0:
320,192,104357,1,0,0:0:0:0:
192,192,104445,1,0,0:0:0:0:
448,192,104532,128,0,104619:0:0:0:0:
192,192,104619,1,0,0:0:0:0:
64,192,104706,128,0,104794:0:0:0:0:
320,192,104706,1,0,0:0:0:0:
448,192,104794,1,0,0:0:0:0:
192,192,104881,1,0,0:0:0:0:
448,192,104968,128,0,105055:0:0:0:0:
64,192,105055,1,0,0:0:0:0:
192,192,105055,1,0,0:0:0:0:
320,192,105142,1,0,0:0:0:0:
64,192,105230,128,0,105317:0:0:0:0:
192,192,105317,128,0,105404:0:0:0:0:
448,192,105404,128,0,105491:0:0:0:0:
320,192,105404,1,0,0:0:0:0:
64,192,105491,128,0,105578:0:0:0:0:
320,192,105578,1,0,0:0:0:0:
192,192,105666,1,0,0:0:0:0:
64,192,105753,1,0,0:0:0:0:
448,192,105753,1,0,0:0:0:0:
320,192,105840,1,0,0:0:0:0:
192,192,105927,128,0,106014:0:0:0:0:
320,192,106014,1,0,0:0:0:0:
448,192,106102,128,0,106189:0:0:0:0:
64,192,106102,1,0,0:0:0:0:
192,192,106189,1,0,0:0:0:0:
320,192,106276,1,0,0:0:0:0:
448,192,106363,128,0,106451:0:0:0:0:
192,192,106451,1,0,0:0:0:0:
64,192,106451,1,0,0:0:0:0:
320,192,106538,1,0,0:0:0:0:
192,192,106625,128,0,106712:0:0:0:0:
320,192,106712,128,0,106799:0:0:0:0:
64,192,106799,128,0,106887:0:0:0:0:
448,192,106799,1,0,0:0:0:0:
192,192,106887,128,0,106974:0:0:0:0:
320,192,106974,1,0,0:0:0:0:
448,192,107061,128,0,107148:0:0:0:0:
192,192,107148,1,0,0:0:0:0:
64,192,107148,1,0,0:0:0:0:
320,192,107235,1,0,0:0:0:0:
64,192,107323,128,0,107410:0:0:0:0:
192,192,107410,1,0,0:0:0:0:
448,192,107497,1,0,0:0:0:0:
320,192,107497,128,0,107584:0:0:0:0:
64,192,107584,1,0,0:0:0:0:
192,192,107671,1,0,0:0:0:0:
320,192,107759,128,0,107846:0:0:0:0:
448,192,107846,1,0,0:0:0:0:
192,192,107846,1,0,0:0:0:0:
64,192,107933,1,0,0:0:0:0:
192,192,108020,128,0,108107:0:0:0:0:
320,192,108107,128,0,108195:0:0:0:0:
64,192,108195,128,0,108282:0:0:0:0:
448,192,108195,1,0,0:0:0:0:
192,192,108282,128,0,108369:0:0:0:0:
320,192,108369,1,0,0:0:0:0:
448,192,108456,1,0,0:0:0:0:
192,192,108544,1,0,0:0:0:0:
64,192,108544,1,0,0:0:0:0:
320,192,108631,1,0,0:0:0:0:
192,192,108718,1,0,0:0:0:0:
448,192,108805,1,0,0:0:0:0:
64,192,108892,128,0,108980:0:0:0:0:
320,192,108892,1,0,0:0:0:0:
192,192,108980,1,0,0:0:0:0:
448,192,109067,1,0,0:0:0:0:
320,192,109154,128,0,109241:0:0:0:0:
64,192,109241,1,0,0:0:0:0:
192,192,109241,1,0,0:0:0:0:
448,192,109328,1,0,0:0:0:0:
320,192,109416,128,0,109503:0:0:0:0:
448,192,109503,128,0,109590:0:0:0:0:
192,192,109590,128,0,109677:0:0:0:0:
64,192,109590,1,0,0:0:0:0:
320,192,109677,128,0,109764:0:0:0:0:
64,192,109764,1,0,0:0:0:0:
448,192,109852,1,0,0:0:0:0:
320,192,109939,1,0,0:0:0:0:
192,192,109939,1,0,0:0:0:0:
64,192,110026,1,0,0:0:0:0:
192,192,110113,128,0,110201:0:0:0:0:
320,192,110201,1,0,0:0:0:0:
448,192,110288,128,0,110375:0:0:0:0:
64,192,110288,1,0,0:0:0:0:
192,192,110375,1,0,0:0:0:0:
320,192,110462,1,0,0:0:0:0:
64,192,110549,128,0,110637:0:0:0:0:
448,192,110637,1,0,0:0:0:0:
320,192,110637,1,0,0:0:0:0:
192,192,110724,1,0,0:0:0:0:
320,192,110811,128,0,110898:0:0:0:0:
448,192,110898,128,0,110985:0:0:0:0:
64,192,110985,128,0,111073:0:0:0:0:
320,192,110985,1,0,0:0:0:0:
192,192,111073,128,0,111160:0:0:0:0:
448,192,111160,1,0,0:0:0:0:
320,192,111247,1,0,0:0:0:0:
192,192,111334,1,0,0:0:0:0:
64,192,111334,1,0,0:0:0:0:
320,192,111421,1,0,0:0:0:0:
448,192,111509,128,0,111596:0:0:0:0:
64,192,111596,1,0,0:0:0:0:
192,192,111683,128,0,111770:0:0:0:0:
320,192,111683,1,0,0:0:0:0:
448,192,111770,1,0,0:0:0:0:
64,192,111857,1,0,0:0:0:0:
192,192,111945,128,0,112032:0:0:0:0:
320,192,112032,1,0,0:0:0:0:
448,192,112032,1,0,0:0:0:0:
64,192,112119,1,0,0:0:0:0:
320,192,112206,128,0,112294:0:0:0:0:
192,192,112294,128,0,112381:0:0:0:0:
64,192,112381,128,0,112468:0:0:0:0:
448,192,112381,1,0,0:0:0:0:
320,192,112468,128,0,112555:0:0:0:0:
192,192,112555,1,0,0:0:0:0:
64,192,112642,1,0,0:0:0:0:
448,192,112730,1,0,0:0:0:0:
320,192,112730,1,0,0:0:0:0:
192,192,112817,1,0,0:0:0:0:
64,192,112904,128,0,112991:0:0:0:0:
320,192,112991,1,0,0:0:0:0:
448,192,113078,128,0,113166:0:0:0:0:
192,192,113078,1,0,0:0:0:0:
64,192,113078,1,0,0:0:0:0:
320,192,113166,1,0,0:0:0:0:
64,192,113253,1,0,0:0:0:0:
448,192,113340,128,0,113427:0:0:0:0:
320,192,113427,1,0,0:0:0:0:
192,192,113427,1,0,0:0:0:0:
64,192,113514,1,0,0:0:0:0:
320,192,113602,128,0,113689:0:0:0:0:
192,192,113689,128,0,113776:0:0:0:0:
64,192,113776,128,0,113863:0:0:0:0:
448,192,113776,1,0,0:0:0:0:
320,192,113863,128,0,113951:0:0:0:0:
192,192,113951,1,0,0:0:0:0:
64,192,114038,1,0,0:0:0:0:
192,192,114125,1,0,0:0:0:0:
448,192,114125,1,0,0:0:0:0:
320,192,114212,1,0,0:0:0:0:
448,192,114299,128,0,114387:0:0:0:0:
64,192,114387,1,0,0:0:0:0:
192,192,114474,128,0,114561:0:0:0:0:
320,192,114474,1,0,0:0:0:0:
448,192,114561,1,0,0:0:0:0:
64,192,114648,1,0,0:0:0:0:
320,192,114735,128,0,114823:0:0:0:0:
448,192,114823,1,0,0:0:0:0:
192,192,114823,1,0,0:0:0:0:
64,192,114910,1,0,0:0:0:0:
192,192,114997,128,0,115084:0:0:0:0:
448,192,115084,128,0,115171:0:0:0:0:
64,192,115171,128,0,115259:0:0:0:0:
192,192,115171,1,0,0:0:0:0:
448,192,115259,128,0,115346:0:0:0:0:
320,192,115346,1,0,0:0:0:0:
64,192,115433,1,0,0:0:0:0:
192,192,115520,1,0,0:0:0:0:
448,192,115520,1,0,0:0:0:0:
320,192,115607,1,0,0:0:0:0:
192,192,115695,128,0,115782:0:0:0:0:
320,192,115782,1,0,0:0:0:0:
448,192,115869,128,0,115956:0:0:0:0:
64,192,115869,1,0,0:0:0:0:
192,192,115956,1,0,0:0:0:0:
320,192,116044,1,0,0:0:0:0:
64,192,116131,128,0,116218:0:0:0:0:
448,192,116218,1,0,0:0:0:0:
320,192,116218,1,0,0:0:0:0:
192,192,116305,1,0,0:0:0:0:
320,192,116392,128,0,116480:0:0:0:0:
192,192,116480,128,0,116567:0:0:0:0:
448,192,116567,128,0,116654:0:0:0:0:
64,192,116567,1,0,0:0:0:0:
320,192,116654,128,0,116741:0:0:0:0:
192,192,116741,1,0,0:0:0:0:
64,192,116828,1,0,0:0:0:0:
448,192,116916,1,0,0:0:0:0:
320,192,116916,1,0,0:0:0:0:
192,192,117003,1,0,0:0:0:0:
64,192,117090,128,0,117177:0:0:0:0:
320,192,117177,1,0,0:0:0:0:
448,192,117264,128,0,117352:0:0:0:0:
192,192,117264,1,0,0:0:0:0:
64,192,117352,1,0,0:0:0:0:
192,192,117439,1,0,0:0:0:0:
448,192,117526,128,0,117613:0:0:0:0:
64,192,117613,1,0,0:0:0:0:
320,192,117613,1,0,0:0:0:0:
192,192,117701,1,0,0:0:0:0:
320,192,117788,128,0,117875:0:0:0:0:
192,192,117875,128,0,117962:0:0:0:0:
64,192,117962,128,0,118049:0:0:0:0:
448,192,117962,1,0,0:0:0:0:
320,192,118049,128,0,118137:0:0:0:0:
192,192,118137,1,0,0:0:0:0:
64,192,118224,128,0,118311:0:0:0:0:
448,192,118311,1,0,0:0:0:0:
320,192,118311,1,0,0:0:0:0:
192,192,118398,1,0,0:0:0:0:
448,192,118485,128,0,118573:0:0:0:0:
64,192,118573,1,0,0:0:0:0:
192,192,118660,1,0,0:0:0:0:
448,192,118660,1,0,0:0:0:0:
320,192,118660,128,0,118747:0:0:0:0:
64,192,118747,1,0,0:0:0:0:
448,192,118834,1,0,0:0:0:0:
320,192,118921,128,0,119009:0:0:0:0:
192,192,119009,1,0,0:0:0:0:
64,192,119009,1,0,0:0:0:0:
448,192,119096,1,0,0:0:0:0:
192,192,119183,128,0,119270:0:0:0:0:
320,192,119270,128,0,119357:0:0:0:0:
448,192,119357,128,0,119445:0:0:0:0:
64,192,119357,1,0,0:0:0:0:
192,192,119445,128,0,119532:0:0:0:0:
320,192,119532,1,0,0:0:0:0:
448,192,119619,1,0,0:0:0:0:
64,192,119706,1,0,0:0:0:0:
320,192,119706,1,0,0:0:0:0:
192,192,119794,1,0,0:0:0:0:
64,192,119881,128,0,119968:0:0:0:0:
448,192,119968,1,0,0:0:0:0:
320,192,120055,128,0,120142:0:0:0:0:
192,192,120055,1,0,0:0:0:0:
64,192,120142,1,0,0:0:0:0:
448,192,120230,1,0,0:0:0:0:
192,192,120317,128,0,120404:0:0:0:0:
64,192,120404,1,0,0:0:0:0:
448,192,120404,1,0,0:0:0:0:
320,192,120491,1,0,0:0:0:0:
64,192,120578,128,0,120666:0:0:0:0:
448,192,120666,128,0,120753:0:0:0:0:
64,192,120753,128,0,120840:0:0:0:0:
192,192,120753,1,0,0:0:0:0:
320,192,120840,128,0,120927:0:0:0:0:
448,192,120927,1,0,0:0:0:0:
192,192,121014,1,0,0:0:0:0:
64,192,121102,1,0,0:0:0:0:
448,192,121102,1,0,0:0:0:0:
192,192,121189,1,0,0:0:0:0:
320,192,121276,128,0,121363:0:0:0:0:
448,192,121363,1,0,0:0:0:0:
64,192,121451,128,0,121538:0:0:0:0:
192,192,121451,1,0,0:0:0:0:
320,192,121538,1,0,0:0:0:0:
448,192,121625,1,0,0:0:0:0:
192,192,121712,128,0,121799:0:0:0:0:
320,192,121799,1,0,0:0:0:0:
64,192,121799,1,0,0:0:0:0:
448,192,121887,1,0,0:0:0:0:
192,192,121974,128,0,122061:0:0:0:0:
64,192,122061,128,0,122148:0:0:0:0:
448,192,122148,128,0,122235:0:0:0:0:
192,192,122148,1,0,0:0:0:0:
320,192,122235,128,0,122323:0:0:0:0:
64,192,122323,1,0,0:0:0:0:
192,192,122410,128,0,122497:0:0:0:0:
320,192,122497,1,0,0:0:0:0:
448,192,122497,1,0,0:0:0:0:
64,192,122584,1,0,0:0:0:0:
448,192,122671,128,0,122759:0:0:0:0:
320,192,122759,1,0,0:0:0:0:
192,192,122846,1,0,0:0:0:0:
64,192,122846,1,0,0:0:0:0:
320,192,122933,1,0,0:0:0:0:
448,192,122933,1,0,0:0:0:0:
192,192,123020,1,0,0:0:0:0:
64,192,123020,1,0,0:0:0:0:
320,192,123107,1,0,0:0:0:0:
448,192,123107,1,0,0:0:0:0:
192,192,123195,1,0,0:0:0:0:
64,192,123195,1,0,0:0:0:0:
320,192,123282,1,0,0:0:0:0:
448,192,123282,1,0,0:0:0:0:
192,192,123369,1,0,0:0:0:0:
64,192,123369,1,0,0:0:0:0:
320,192,123456,1,0,0:0:0:0:
448,192,123456,1,0,0:0:0:0:
192,192,123544,1,0,0:0:0:0:
64,192,123544,1,0,0:0:0:0:
448,192,123602,1,0,0:0:0:0:
320,192,123660,1,0,0:0:0:0:
192,192,123718,1,0,0:0:0:0:
64,192,123776,1,0,0:0:0:0:
448,192,123834,1,0,0:0:0:0:
320,192,123892,1,0,0:0:0:0:
192,192,123951,1,0,0:0:0:0:
64,192,124009,1,0,0:0:0:0:
448,192,124067,1,0,0:0:0:0:
320,192,124110,1,0,0:0:0:0:
64,192,124154,1,0,0:0:0:0:
192,192,124183,1,0,0:0:0:0:
448,192,124198,1,0,0:0:0:0:
320,192,124241,1,0,0:0:0:0:
64,192,124590,1,0,0:0:0:0:
192,192,124590,1,0,0:0:0:0:
320,192,124590,1,0,0:0:0:0:
448,192,124677,1,0,0:0:0:0:
320,192,124764,1,0,0:0:0:0:
64,192,124852,1,0,0:0:0:0:
448,192,124939,1,0,0:0:0:0:
192,192,124939,1,0,0:0:0:0:
320,192,125026,1,0,0:0:0:0:
64,192,125113,1,0,0:0:0:0:
448,192,125201,1,0,0:0:0:0:
320,192,125288,1,0,0:0:0:0:
192,192,125288,1,0,0:0:0:0:
64,192,125375,1,0,0:0:0:0:
448,192,125462,1,0,0:0:0:0:
320,192,125549,1,0,0:0:0:0:
192,192,125637,1,0,0:0:0:0:
64,192,125637,1,0,0:0:0:0:
448,192,125724,1,0,0:0:0:0:
192,192,125811,1,0,0:0:0:0:
64,192,125898,1,0,0:0:0:0:
320,192,125985,1,0,0:0:0:0:
448,192,125985,1,0,0:0:0:0:
192,192,126073,1,0,0:0:0:0:
320,192,126160,1,0,0:0:0:0:
448,192,126247,1,0,0:0:0:0:
192,192,126334,1,0,0:0:0:0:
64,192,126334,1,0,0:0:0:0:
320,192,126421,1,0,0:0:0:0:
64,192,126509,1,0,0:0:0:0:
448,192,126596,1,0,0:0:0:0:
320,192,126683,1,0,0:0:0:0:
192,192,126683,1,0,0:0:0:0:
64,192,126770,1,0,0:0:0:0:
448,192,126857,1,0,0:0:0:0:
320,192,126945,1,0,0:0:0:0:
192,192,127032,1,0,0:0:0:0:
64,192,127032,1,0,0:0:0:0:
448,192,127119,1,0,0:0:0:0:
320,192,127206,1,0,0:0:0:0:
64,192,127294,1,0,0:0:0:0:
192,192,127381,1,0,0:0:0:0:
448,192,127381,1,0,0:0:0:0:
320,192,127468,1,0,0:0:0:0:
64,192,127555,1,0,0:0:0:0:
448,192,127642,1,0,0:0:0:0:
320,192,127730,1,0,0:0:0:0:
192,192,127730,1,0,0:0:0:0:
64,192,127817,1,0,0:0:0:0:
192,192,127904,1,0,0:0:0:0:
320,192,127991,1,0,0:0:0:0:
64,192,128078,1,0,0:0:0:0:
448,192,128078,1,0,0:0:0:0:
192,192,128166,1,0,0:0:0:0:
448,192,128253,1,0,0:0:0:0:
320,192,128340,1,0,0:0:0:0:
192,192,128427,1,0,0:0:0:0:
64,192,128427,1,0,0:0:0:0:
448,192,128514,1,0,0:0:0:0:
64,192,128602,1,0,0:0:0:0:
320,192,128689,1,0,0:0:0:0:
192,192,128776,1,0,0:0:0:0:
448,192,128776,1,0,0:0:0:0:
64,192,128863,1,0,0:0:0:0:
320,192,128951,1,0,0:0:0:0:
448,192,129038,1,0,0:0:0:0:
192,192,129125,1,0,0:0:0:0:
64,192,129125,1,0,0:0:0:0:
320,192,129212,1,0,0:0:0:0:
192,192,129299,1,0,0:0:0:0:
448,192,129387,1,0,0:0:0:0:
320,192,129474,1,0,0:0:0:0:
64,192,129474,1,0,0:0:0:0:
192,192,129561,1,0,0:0:0:0:
448,192,129648,1,0,0:0:0:0:
64,192,129735,1,0,0:0:0:0:
192,192,129823,1,0,0:0:0:0:
320,192,129823,1,0,0:0:0:0:
448,192,129910,1,0,0:0:0:0:
64,192,129997,1,0,0:0:0:0:
192,192,130084,1,0,0:0:0:0:
320,192,130171,1,0,0:0:0:0:
448,192,130171,1,0,0:0:0:0:
64,192,130259,1,0,0:0:0:0:
448,192,130346,1,0,0:0:0:0:
192,192,130433,1,0,0:0:0:0:
320,192,130520,1,0,0:0:0:0:
64,192,130520,1,0,0:0:0:0:
448,192,130607,1,0,0:0:0:0:
192,192,130695,1,0,0:0:0:0:
64,192,130782,1,0,0:0:0:0:
320,192,130869,1,0,0:0:0:0:
448,192,130869,1,0,0:0:0:0:
192,192,130956,1,0,0:0:0:0:
448,192,131044,1,0,0:0:0:0:
320,192,131131,1,0,0:0:0:0:
192,192,131218,1,0,0:0:0:0:
64,192,131218,1,0,0:0:0:0:
448,192,131305,1,0,0:0:0:0:
320,192,131392,1,0,0:0:0:0:
192,192,131480,1,0,0:0:0:0:
320,192,131567,1,0,0:0:0:0:
448,192,131567,1,0,0:0:0:0:
64,192,131654,1,0,0:0:0:0:
448,192,131741,1,0,0:0:0:0:
320,192,131828,1,0,0:0:0:0:
192,192,131916,1,0,0:0:0:0:
64,192,131916,1,0,0:0:0:0:
448,192,132003,1,0,0:0:0:0:
64,192,132090,1,0,0:0:0:0:
320,192,132177,1,0,0:0:0:0:
448,192,132264,1,0,0:0:0:0:
192,192,132264,1,0,0:0:0:0:
64,192,132352,1,0,0:0:0:0:
320,192,132439,1,0,0:0:0:0:
448,192,132526,1,0,0:0:0:0:
192,192,132613,1,0,0:0:0:0:
64,192,132613,1,0,0:0:0:0:
320,192,132701,1,0,0:0:0:0:
64,192,132788,1,0,0:0:0:0:
448,192,132875,1,0,0:0:0:0:
320,192,132962,1,0,0:0:0:0:
192,192,132962,1,0,0:0:0:0:
64,192,133049,1,0,0:0:0:0:
192,192,133137,1,0,0:0:0:0:
320,192,133224,1,0,0:0:0:0:
448,192,133311,1,0,0:0:0:0:
64,192,133311,1,0,0:0:0:0:
192,192,133398,1,0,0:0:0:0:
448,192,133485,1,0,0:0:0:0:
320,192,133573,1,0,0:0:0:0:
192,192,133660,1,0,0:0:0:0:
64,192,133660,1,0,0:0:0:0:
448,192,133747,1,0,0:0:0:0:
192,192,133834,1,0,0:0:0:0:
64,192,133921,1,0,0:0:0:0:
448,192,134009,1,0,0:0:0:0:
320,192,134009,1,0,0:0:0:0:
192,192,134096,1,0,0:0:0:0:
320,192,134183,1,0,0:0:0:0:
64,192,134270,1,0,0:0:0:0:
192,192,134357,1,0,0:0:0:0:
448,192,134357,1,0,0:0:0:0:
320,192,134445,1,0,0:0:0:0:
64,192,134532,1,0,0:0:0:0:
192,192,134619,1,0,0:0:0:0:
320,192,134706,1,0,0:0:0:0:
448,192,134706,1,0,0:0:0:0:
64,192,134794,1,0,0:0:0:0:
448,192,134881,1,0,0:0:0:0:
192,192,134968,1,0,0:0:0:0:
64,192,135055,1,0,0:0:0:0:
320,192,135055,1,0,0:0:0:0:
448,192,135142,1,0,0:0:0:0:
192,192,135230,1,0,0:0:0:0:
448,192,135317,1,0,0:0:0:0:
192,192,135404,1,0,0:0:0:0:
320,192,135404,1,0,0:0:0:0:
64,192,135404,1,0,0:0:0:0:
448,192,135491,1,0,0:0:0:0:
320,192,135578,1,0,0:0:0:0:
64,192,135666,1,0,0:0:0:0:
448,192,135753,1,0,0:0:0:0:
192,192,135753,1,0,0:0:0:0:
320,192,135840,1,0,0:0:0:0:
64,192,135927,1,0,0:0:0:0:
192,192,136014,1,0,0:0:0:0:
320,192,136102,1,0,0:0:0:0:
448,192,136102,1,0,0:0:0:0:
64,192,136189,1,0,0:0:0:0:
320,192,136276,1,0,0:0:0:0:
448,192,136363,1,0,0:0:0:0:
192,192,136451,1,0,0:0:0:0:
64,192,136451,1,0,0:0:0:0:
320,192,136538,1,0,0:0:0:0:
192,192,136625,1,0,0:0:0:0:
64,192,136712,1,0,0:0:0:0:
320,192,136799,1,0,0:0:0:0:
448,192,136799,1,0,0:0:0:0:
192,192,136887,1,0,0:0:0:0:
448,192,136974,1,0,0:0:0:0:
64,192,137061,1,0,0:0:0:0:
192,192,137148,1,0,0:0:0:0:
320,192,137148,1,0,0:0:0:0:
448,192,137235,1,0,0:0:0:0:
192,192,137323,1,0,0:0:0:0:
64,192,137410,1,0,0:0:0:0:
320,192,137497,1,0,0:0:0:0:
448,192,137497,1,0,0:0:0:0:
192,192,137584,1,0,0:0:0:0:
320,192,137671,1,0,0:0:0:0:
448,192,137759,1,0,0:0:0:0:
192,192,137846,1,0,0:0:0:0:
64,192,137846,1,0,0:0:0:0:
320,192,137933,1,0,0:0:0:0:
448,192,138020,1,0,0:0:0:0:
192,192,138107,1,0,0:0:0:0:
64,192,138195,1,0,0:0:0:0:
448,192,138195,1,0,0:0:0:0:
320,192,138282,1,0,0:0:0:0:
64,192,138369,1,0,0:0:0:0:
192,192,138456,1,0,0:0:0:0:
320,192,138544,1,0,0:0:0:0:
448,192,138544,1,0,0:0:0:0:
64,192,138631,1,0,0:0:0:0:
448,192,138718,1,0,0:0:0:0:
320,192,138805,1,0,0:0:0:0:
192,192,138892,1,0,0:0:0:0:
64,192,138892,1,0,0:0:0:0:
448,192,138980,1,0,0:0:0:0:
64,192,139067,1,0,0:0:0:0:
320,192,139154,1,0,0:0:0:0:
192,192,139241,1,0,0:0:0:0:
448,192,139241,1,0,0:0:0:0:
64,192,139328,1,0,0:0:0:0:
320,192,139416,1,0,0:0:0:0:
448,192,139503,1,0,0:0:0:0:
192,192,139590,1,0,0:0:0:0:
64,192,139590,1,0,0:0:0:0:
320,192,139677,1,0,0:0:0:0:
64,192,139764,1,0,0:0:0:0:
448,192,139852,1,0,0:0:0:0:
320,192,139939,1,0,0:0:0:0:
192,192,139939,1,0,0:0:0:0:
64,192,140026,1,0,0:0:0:0:
448,192,140113,1,0,0:0:0:0:
320,192,140201,1,0,0:0:0:0:
192,192,140288,1,0,0:0:0:0:
64,192,140288,1,0,0:0:0:0:
448,192,140375,1,0,0:0:0:0:
192,192,140462,1,0,0:0:0:0:
320,192,140549,1,0,0:0:0:0:
448,192,140637,1,0,0:0:0:0:
64,192,140637,1,0,0:0:0:0:
192,192,140724,1,0,0:0:0:0:
448,192,140811,1,0,0:0:0:0:
320,192,140898,1,0,0:0:0:0:
448,192,140985,5,0,0:0:0:0:
192,192,140985,1,0,0:0:0:0:
64,192,140985,1,0,0:0:0:0:
320,192,141073,1,0,0:0:0:0:
64,192,141160,1,0,0:0:0:0:
192,192,141247,1,0,0:0:0:0:
448,192,141334,1,0,0:0:0:0:
320,192,141334,1,0,0:0:0:0:
64,192,141421,1,0,0:0:0:0:
320,192,141509,1,0,0:0:0:0:
192,192,141596,1,0,0:0:0:0:
448,192,141683,1,0,0:0:0:0:
64,192,141683,1,0,0:0:0:0:
192,192,141770,1,0,0:0:0:0:
448,192,141857,1,0,0:0:0:0:
320,192,141857,1,0,0:0:0:0:
192,192,141945,1,0,0:0:0:0:
64,192,141945,1,0,0:0:0:0:
448,192,142032,1,0,0:0:0:0:
320,192,142032,1,0,0:0:0:0:
64,192,142119,1,0,0:0:0:0:
448,192,142206,1,0,0:0:0:0:
192,192,142206,1,0,0:0:0:0:
320,192,142294,1,0,0:0:0:0:
448,192,142381,1,0,0:0:0:0:
192,192,142381,1,0,0:0:0:0:
64,192,142381,1,0,0:0:0:0:
448,192,142555,1,0,0:0:0:0:
320,192,142555,1,0,0:0:0:0:
64,192,142642,1,0,0:0:0:0:
448,192,142730,1,0,0:0:0:0:
192,192,142730,1,0,0:0:0:0:
320,192,142817,1,0,0:0:0:0:
64,192,142904,1,0,0:0:0:0:
192,192,142904,1,0,0:0:0:0:
448,192,142991,1,0,0:0:0:0:
64,192,143078,1,0,0:0:0:0:
320,192,143078,1,0,0:0:0:0:
192,192,143078,1,0,0:0:0:0:
448,192,143166,1,0,0:0:0:0:
64,192,143253,1,0,0:0:0:0:
320,192,143253,1,0,0:0:0:0:
192,192,143340,1,0,0:0:0:0:
448,192,143427,1,0,0:0:0:0:
320,192,143427,1,0,0:0:0:0:
64,192,143514,1,0,0:0:0:0:
320,192,143602,1,0,0:0:0:0:
448,192,143602,1,0,0:0:0:0:
192,192,143689,1,0,0:0:0:0:
64,192,143776,1,0,0:0:0:0:
448,192,143776,1,0,0:0:0:0:
320,192,143776,1,0,0:0:0:0:
192,192,143863,1,0,0:0:0:0:
320,192,143951,1,0,0:0:0:0:
64,192,143951,1,0,0:0:0:0:
448,192,144038,1,0,0:0:0:0:
320,192,144125,1,0,0:0:0:0:
192,192,144125,1,0,0:0:0:0:
64,192,144125,1,0,0:0:0:0:
448,192,144212,1,0,0:0:0:0:
320,192,144299,1,0,0:0:0:0:
64,192,144299,1,0,0:0:0:0:
192,192,144387,1,0,0:0:0:0:
320,192,144474,1,0,0:0:0:0:
448,192,144474,1,0,0:0:0:0:
64,192,144474,1,0,0:0:0:0:
192,192,144561,1,0,0:0:0:0:
320,192,144648,1,0,0:0:0:0:
448,192,144648,1,0,0:0:0:0:
64,192,144692,1,0,0:0:0:0:
192,192,144735,1,0,0:0:0:0:
320,192,144779,1,0,0:0:0:0:
448,192,144823,1,0,0:0:0:0:
192,192,144823,1,0,0:0:0:0:
64,192,144823,1,0,0:0:0:0:
320,192,144910,1,0,0:0:0:0:
192,192,144997,1,0,0:0:0:0:
64,192,144997,1,0,0:0:0:0:
448,192,145041,1,0,0:0:0:0:
320,192,145084,1,0,0:0:0:0:
192,192,145128,1,0,0:0:0:0:
64,192,145171,1,0,0:0:0:0:
448,192,145171,1,0,0:0:0:0:
192,192,145346,128,0,145520:0:0:0:0:
320,192,145433,128,0,145520:0:0:0:0:
448,192,145520,128,0,145869:0:0:0:0:
64,192,145695,1,0,0:0:0:0:
192,192,145782,1,0,0:0:0:0:
320,192,145869,1,0,0:0:0:0:
64,192,145956,128,0,146480:0:0:0:0:
320,192,146131,1,0,0:0:0:0:
448,192,146305,1,0,0:0:0:0:
192,192,146392,1,0,0:0:0:0:
448,192,146480,1,0,0:0:0:0:
64,192,146916,1,0,0:0:0:0:
192,192,146916,1,0,0:0:0:0:
320,192,146916,1,0,0:0:0:0:
448,192,146916,1,0,0:0:0:0:
