osu file format v14

[General]
AudioFilename: op.mp3
AudioLeadIn: 0
PreviewTime: 53961
Countdown: 0
SampleSet: Soft
StackLeniency: 0.7
Mode: 0
LetterboxInBreaks: 0
WidescreenStoryboard: 0

[Editor]
Bookmarks: 576,10024,25142,40261,55364,70497,85364
DistanceSpacing: 1
BeatDivisor: 4
GridSize: 4
TimelineZoom: 1.9

[Metadata]
Title:X.U.
TitleUnicode:「X.U.」
Artist:SawanoHiroyuki[nZk]:Gemie
ArtistUnicode:SawanoHiroyuki[nZk]:Gemie
Creator:mion_6GKM
Version:Insane
Source:終わりのセラフ
Tags:澤野弘之 seraph of the end owari no seraph op mion game rock Nofool nadapan Pho Sky Trias
BeatmapID:706879
BeatmapSetID:303177

[Difficulty]
HPDrainRate:6
CircleSize:4
OverallDifficulty:7
ApproachRate:8
SliderMultiplier:1.6
SliderTickRate:1

[Events]
//Background and Video events
Video,0,"Owari no Seraph.avi"
0,0,"BG.jpg",0,0
//Break Periods
//Storyboard Layer 0 (Background)
//Storyboard Layer 1 (Fail)
//Storyboard Layer 2 (Pass)
//Storyboard Layer 3 (Foreground)
//Storyboard Sound Samples

[TimingPoints]
576,472.44094488189,4,2,1,75,1,0
8016,-100,4,2,1,20,0,0
8135,-133.333333333333,4,2,1,40,0,0
8843,-133.333333333333,4,2,1,30,0,0
9552,-133.333333333333,4,2,1,20,0,0
10024,-100,4,2,1,55,0,0
25142,-90.9090909090909,4,2,1,75,0,0
40261,-111.111111111111,4,2,3,60,0,0
52426,-111.111111111111,4,2,3,20,0,0
53725,-100,4,2,3,30,0,0
54198,-100,4,2,3,60,0,0
55379,-76.9230769230769,4,2,2,80,0,1
62820,-76.9230769230769,4,2,2,80,0,0
62938,-76.9230769230769,4,2,2,80,0,1
70497,-76.9230769230769,4,2,2,80,0,0
78056,-76.9230769230769,4,2,2,80,0,1
78292,-76.9230769230769,4,2,2,80,0,0
85384,-100,4,2,2,80,0,0
85497,-100,4,2,2,70,0,0

[Colours]
Combo1 : 251,251,0
Combo2 : 0,128,192
Combo3 : 0,128,0
Combo4 : 174,0,87
Combo5 : 84,0,168
Combo6 : 230,115,0

[HitObjects]
108,112,576,6,0,P|112:184|140:200,1,80,4|2,0:0|0:0,0:0:0:0:
208,260,1048,2,0,P|280:260|312:276,1,80,8|2,0:0|0:0,0:0:0:0:
380,280,1520,2,0,L|408:212,2,40,0|0|2,0:0|0:0|0:0,0:0:0:0:
376,172,1993,2,0,L|268:172|268:172,1,80,8|2,0:0|0:0,0:0:0:0:
200,164,2465,6,0,L|128:164,2,40,0|0|2,0:0|0:0|0:0,0:0:0:0:
412,308,2938,2,0,L|324:308,1,80,8|2,0:0|0:0,0:0:0:0:
240,284,3410,2,0,L|172:284,1,40
152,292,3646,1,2,0:0:0:0:
112,204,3883,2,0,L|220:204,1,80,8|2,0:0|0:0,0:0:0:0:
244,124,4355,6,0,P|320:108|368:144,1,120,2|0,0:0|0:0,0:0:0:0:
368,172,4827,2,0,L|360:232,1,40,8|0,0:0|0:0,0:0:0:0:
352,260,5064,1,2,0:0:0:0:
196,292,5300,2,0,P|237:291|277:291,1,80,0|2,0:0|0:0,0:0:0:0:
228,208,5772,2,0,P|300:204|320:224,1,80,10|2,0:0|0:0,0:0:0:0:
352,212,6127,1,0,0:0:0:0:
384,248,6245,6,0,L|416:308|416:308,2,40,0|0|2,0:0|0:0|0:0,0:0:0:0:
428,164,6717,1,8,0:0:0:0:
372,88,6953,1,2,0:0:0:0:
348,76,7072,1,0,0:0:0:0:
320,68,7190,2,0,L|248:68,1,40,2|0,0:0|0:0,0:0:0:0:
236,88,7426,2,0,P|164:108|136:92,1,80,2|10,0:0|0:0,0:0:0:0:
124,132,7780,2,0,L|142:221,1,80,2|0,0:0|0:0,0:0:0:0:
256,192,8135,12,0,10024,3:0:0:0:
384,116,10497,6,0,P|416:168|408:208,1,80,0|0,3:0|0:0,0:0:0:0:
392,276,10969,2,0,L|280:276,1,80,0|0,3:0|0:0,0:0:0:0:
178,269,11442,2,0,P|174:317|226:337,1,80,0|0,3:0|0:0,0:0:0:0:
244,332,11796,1,0,0:0:0:0:
244,284,11914,6,0,P|244:220|240:172,1,80,0|0,3:0|0:0,0:0:0:0:
172,140,12387,2,0,L|76:140,1,80,0|0,3:0|0:0,0:0:0:0:
88,236,12859,1,0,3:0:0:0:
178,269,13095,2,0,L|216:208,1,40
232,200,13331,2,0,L|296:200|324:200,1,80,0|0,3:0|0:0,0:0:0:0:
284,292,13804,6,0,L|224:320,2,40,0|2|2,3:2|0:0|0:0,0:0:0:0:
332,296,14158,1,0,0:0:0:0:
380,292,14276,2,0,L|440:292,1,40,2|2,3:2|0:0,0:0:0:0:
468,288,14513,2,0,L|488:344,2,40,0|2|0,0:0|0:0|3:0,0:0:0:0:
464,240,14867,1,2,0:0:0:0:
432,204,14985,1,2,0:0:0:0:
348,248,15221,2,0,L|280:248,1,40,2|2,3:2|0:0,0:0:0:0:
260,252,15457,2,0,L|188:252,1,40,0|2,0:0|0:0,0:0:0:0:
172,252,15694,6,0,L|128:316,2,40,0|2|2,3:0|0:0|0:0,0:0:0:0:
160,156,16166,2,0,L|224:156,1,40,2|2,3:2|0:0,0:0:0:0:
240,128,16402,2,0,L|300:128,1,40,0|2,0:0|0:0,0:0:0:0:
328,128,16638,2,0,L|348:68,2,40,2|2|0,3:2|0:0|0:0,0:0:0:0:
333,227,17111,2,0,P|285:235|249:263,1,80,2|2,3:2|0:0,0:0:0:0:
140,192,17583,6,0,L|240:192,1,80,2|0,3:2|0:0,0:0:0:0:
272,108,18056,2,0,P|344:152|344:160,1,80,0|2,3:0|0:0,0:0:0:0:
420,188,18528,2,0,L|420:288,1,80,2|2,3:2|0:0,0:0:0:0:
324,284,19001,2,0,P|260:280|224:300,2,80,2|2|2,3:2|0:0|3:2,0:0:0:0:
348,192,19709,5,0,0:0:0:0:
336,172,19827,1,0,0:0:0:0:
324,152,19946,2,0,L|228:152,1,80,0|2,3:0|0:0,0:0:0:0:
196,152,20300,1,0,0:0:0:0:
156,180,20418,2,0,L|156:288,1,80,2|2,3:2|0:0,0:0:0:0:
64,288,20890,2,0,P|112:332|160:344,1,80,2|2,3:2|0:0,0:0:0:0:
220,340,21363,6,0,L|296:340|328:340,1,80,2|0,3:2|0:0,0:0:0:0:
280,244,21835,2,0,P|220:252|180:244,1,80,0|2,3:0|0:0,0:0:0:0:
132,184,22308,2,0,P|140:120|180:92,1,80,0|2,3:0|0:0,0:0:0:0:
216,176,22780,2,0,L|284:176,1,40,2|0,3:2|0:0,0:0:0:0:
304,172,23016,2,0,P|316:80|260:60,1,160,2|0,0:0|0:0,0:0:0:0:
172,80,23725,6,0,L|96:128,1,80,0|2,3:0|0:0,0:0:0:0:
168,192,24197,2,0,L|120:280,2,80,2|2|0,3:2|0:0|3:0,0:0:0:0:
244,248,24906,2,0,L|336:248,1,80,2|0,0:0|0:0,0:0:0:0:
428,240,25379,6,0,P|428:184|388:152,1,88.000002685547,0|8,0:0|0:0,0:0:0:0:
376,132,25733,2,0,P|312:132|292:176,1,88.000002685547
299,146,26087,2,0,L|203:146,1,88.000002685547,2|0,0:0|0:0,0:0:0:0:
152,212,26560,2,0,P|152:272|200:296,1,88.000002685547,8|0,0:0|0:0,0:0:0:0:
240,340,27032,5,2,0:0:0:0:
312,292,27268,1,2,0:0:0:0:
228,264,27505,1,10,0:0:0:0:
228,264,27623,2,0,P|156:280|116:276,1,88.000002685547,2|2,0:0|0:0,0:0:0:0:
116,244,27977,1,2,0:0:0:0:
212,180,28213,2,0,P|160:168|148:156,1,44.0000013427735
69,143,28450,2,0,P|90:136|112:140,1,44.0000013427735,8|0,0:0|0:0,0:0:0:0:
156,88,28686,2,0,P|204:60|228:64,1,44.0000013427735
232,80,28922,5,2,0:0:0:0:
308,124,29158,2,0,P|284:160|300:212,1,88.000002685547,0|8,0:0|0:0,0:0:0:0:
296,244,29513,2,0,B|248:260|248:260|192:260,1,88.000002685547
210,260,29867,2,0,P|134:264|102:244,1,88.000002685547,2|0,0:0|0:0,0:0:0:0:
96,176,30339,1,8,0:0:0:0:
184,184,30576,1,0,0:0:0:0:
252,104,30812,6,0,L|320:104,2,44.0000013427735,2|0|2,0:0|0:0|0:0,0:0:0:0:
164,112,31284,1,10,0:0:0:0:
164,112,31402,2,0,P|148:64|112:64,1,88.000002685547
84,92,31757,1,2,0:0:0:0:
84,180,31993,2,0,B|116:216|128:232,1,44.0000013427735
160,264,32229,2,0,P|208:308|220:312,1,44.0000013427735,8|0,0:0|0:0,0:0:0:0:
260,308,32465,2,0,L|336:308|336:308,1,44.0000013427735
380,296,32701,1,2,0:0:0:0:
416,216,32938,6,0,P|368:224|308:200,1,88.000002685547,0|8,0:0|0:0,0:0:0:0:
332,160,33292,2,0,P|292:132|248:132,1,88.000002685547
254,130,33646,2,0,P|258:186|234:234,1,88.000002685547,2|0,0:0|0:0,0:0:0:0:
192,284,34119,1,8,0:0:0:0:
184,272,34237,1,0,0:0:0:0:
176,260,34355,2,0,P|156:216|136:200,1,44.0000013427735
116,220,34591,6,0,P|56:224|32:192,1,88.000002685547,2|2,0:0|0:0,0:0:0:0:
36,120,35064,1,10,0:0:0:0:
60,84,35182,2,0,P|112:84|164:64,1,88.000002685547,2|2,0:0|0:0,0:0:0:0:
188,88,35536,2,0,P|240:116|296:104,1,88.000002685547,2|0,0:0|0:0,0:0:0:0:
312,184,36009,2,0,L|340:236,1,44.0000013427735,8|0,0:0|0:0,0:0:0:0:
336,276,36245,2,0,P|292:284|276:296,1,44.0000013427735
248,308,36481,5,2,0:0:0:0:
148,312,36717,2,0,B|116:268|116:268|116:212,1,88.000002685547,0|8,0:0|0:0,0:0:0:0:
116,192,37072,2,0,P|160:160|216:144,1,88.000002685547
228,124,37426,2,0,P|268:152|268:160,1,44.0000013427735,2|0,0:0|0:0,0:0:0:0:
352,184,37662,2,0,P|300:196|296:200,1,44.0000013427735
272,244,37898,2,0,P|312:268|332:268,1,44.0000013427735,8|0,0:0|0:0,0:0:0:0:
356,324,38135,2,0,P|308:336|292:336,1,44.0000013427735
268,332,38371,6,0,P|180:328|148:340,1,88.000002685547,2|2,0:0|0:0,0:0:0:0:
128,260,38843,1,10,0:0:0:0:
112,220,38961,2,0,P|96:168|120:136,1,88.000002685547,2|2,0:0|0:0,0:0:0:0:
152,120,39316,2,0,L|256:120,1,88.000002685547,2|0,0:2|0:0,0:0:0:0:
292,196,39788,2,0,L|292:256,1,44.0000013427735,8|0,0:0|0:0,0:0:0:0:
312,280,40024,2,0,L|372:312,1,44.0000013427735
380,320,40261,6,0,P|394:261|398:217,1,71.9999978027344,4|0,0:0|0:0,0:0:0:0:
412,144,40733,1,2,0:0:0:0:
316,108,40969,1,0,0:0:0:0:
220,140,41205,2,0,P|144:152|80:108,1,143.999995605469,0|2,0:0|0:0,0:0:0:0:
60,216,41914,2,0,L|96:292,1,71.9999978027344
180,236,42387,5,0,0:0:0:0:
116,160,42623,2,0,B|100:112|100:112|120:64,1,71.9999978027344,2|0,0:0|0:0,0:0:0:0:
208,88,43095,2,0,P|264:108|300:96,1,71.9999978027344
360,160,43568,2,0,B|376:212|376:212|368:244,1,71.9999978027344,2|0,0:0|0:0,0:0:0:0:
360,160,44040,6,0,P|288:172|272:184,1,71.9999978027344
192,192,44513,2,0,P|144:192|124:96,1,143.999995605469,2|0,0:0|0:0,0:0:0:0:
32,172,45221,1,0,0:0:0:0:
32,172,45457,2,0,L|44:232,3,35.9999989013672,2|0|0|0,0:0|0:0|0:0|0:0,0:0:0:0:
64,248,45930,6,0,L|148:248,1,71.9999978027344
156,164,46402,2,0,L|256:164,1,71.9999978027344,2|0,0:0|0:0,0:0:0:0:
296,88,46875,2,0,P|232:76|120:88,1,143.999995605469,0|2,0:0|0:0,0:0:0:0:
112,116,47465,1,0,0:0:0:0:
80,160,47583,2,0,L|64:216,2,35.9999989013672
96,268,48056,5,0,0:0:0:0:
192,320,48292,1,2,0:0:0:0:
192,200,48528,1,0,0:0:0:0:
84,280,48764,1,0,0:0:0:0:
184,336,49001,1,0,0:0:0:0:
204,180,49237,1,2,0:0:0:0:
204,180,49355,2,0,L|168:180,2,35.9999989013672
252,176,49709,6,0,P|296:116|300:108,1,71.9999978027344
372,172,50182,2,0,P|400:252|404:256,1,71.9999978027344,2|0,0:0|0:0,0:0:0:0:
316,300,50654,2,0,P|236:320|228:316,2,71.9999978027344,0|0|2,0:0|0:0|0:0,0:0:0:0:
312,256,51245,2,0,L|284:232,1,35.9999989013672
244,216,51481,1,0,0:0:0:0:
200,224,51599,2,0,P|188:284|96:300,1,143.999995605469,0|2,0:0|0:0,0:0:0:0:
68,236,52308,1,0,0:0:0:0:
256,192,52426,12,0,53725,0:0:0:0:
396,248,54198,6,0,L|288:244,1,80
180,164,54670,2,0,P|132:240|120:248,1,80
292,184,55142,1,0,0:0:0:0:
340,76,55379,6,0,P|260:80|192:60,1,103.999995239258,4|2,0:0|0:0,0:0:0:0:
152,136,55851,2,0,P|144:220|96:264,1,103.999995239258,8|2,0:0|0:0,0:0:0:0:
188,324,56324,2,0,P|284:328|312:312,1,103.999995239258,0|2,0:0|0:0,0:0:0:0:
384,356,56796,1,8,0:0:0:0:
476,312,57032,2,0,P|504:260|504:208,1,103.999995239258,2|0,0:0|0:0,0:0:0:0:
432,124,57505,6,0,L|372:124|304:124,1,103.999995239258,2|8,0:0|0:0,0:0:0:0:
228,156,57977,2,0,P|189:122|139:124,1,103.999995239258,2|0,0:0|0:0,0:0:0:0:
96,220,58450,2,0,L|132:296,1,51.999997619629,2|0,0:0|0:0,0:0:0:0:
152,304,58686,2,0,P|216:308|288:332,1,103.999995239258,8|2,0:0|0:0,0:0:0:0:
308,324,59040,1,0,0:0:0:0:
360,324,59158,5,0,0:0:0:0:
408,304,59276,1,0,0:0:0:0:
432,260,59394,1,2,0:0:0:0:
348,196,59631,2,0,P|288:196|212:164,1,103.999995239258,8|2,0:0|0:0,0:0:0:0:
144,188,60103,2,0,B|104:156|104:156|104:84,1,103.999995239258
176,40,60576,1,8,0:0:0:0:
228,52,60694,1,0,0:0:0:0:
260,84,60812,2,0,L|260:140,1,51.999997619629,2|0,0:0|0:0,0:0:0:0:
264,188,61048,6,0,L|384:188,1,103.999995239258
300,280,61520,2,0,L|184:280,1,103.999995239258,8|0,0:0|0:0,0:0:0:0:
88,300,61993,1,0,0:0:0:0:
80,284,62111,1,0,0:0:0:0:
80,260,62229,2,0,L|96:172,1,51.999997619629,2|0,0:0|0:0,0:0:0:0:
108,160,62465,2,0,P|188:164|228:148,1,103.999995239258,8|2,0:0|0:0,0:0:0:0:
248,124,62820,1,0,0:0:0:0:
300,116,62938,6,0,P|348:168|356:216,1,103.999995239258,4|2,0:0|0:0,0:0:0:0:
344,304,63410,2,0,P|240:320|216:304,1,103.999995239258,8|2,0:0|0:0,0:0:0:0:
196,320,63764,1,0,0:0:0:0:
148,300,63883,2,0,L|104:252,1,51.999997619629
72,228,64119,1,0,0:0:0:0:
76,124,64355,2,0,L|192:124,1,103.999995239258,8|2,0:0|0:0,0:0:0:0:
360,188,64827,6,0,L|247:189,1,103.999995239258,0|2,0:0|0:0,0:0:0:0:
164,224,65300,1,8,0:0:0:0:
172,276,65418,1,0,0:0:0:0:
184,320,65536,2,0,L|244:348,1,51.999997619629,2|0,0:0|0:0,0:0:0:0:
284,336,65772,2,0,P|356:332|420:348,1,103.999995239258,0|2,0:0|0:0,0:0:0:0:
484,300,66245,1,8,0:0:0:0:
460,200,66481,1,2,0:0:0:0:
464,180,66599,1,0,0:0:0:0:
468,160,66717,6,0,P|476:128|476:100,1,51.999997619629
460,64,66953,1,2,0:0:0:0:
356,48,67190,2,0,P|272:56|204:40,1,103.999995239258,8|2,0:0|0:0,0:0:0:0:
204,68,67544,1,0,0:0:0:0:
152,68,67662,2,0,L|84:124,2,51.999997619629
108,164,68135,2,0,P|108:244|160:268,1,103.999995239258,8|2,0:0|0:0,0:0:0:0:
168,276,68489,1,0,0:0:0:0:
220,276,68607,6,0,P|288:272|344:292,1,103.999995239258,0|2,0:0|0:0,0:0:0:0:
380,196,69079,2,0,P|320:188|268:204,1,103.999995239258,8|0,0:0|0:0,0:0:0:0:
224,196,69434,1,8,0:0:0:0:
176,180,69552,1,4,0:3:0:0:
128,196,69670,1,4,0:3:0:0:
104,240,69788,1,8,0:0:0:0:
124,288,69906,1,8,0:0:0:0:
160,308,70024,2,0,L|252:308,1,51.999997619629,8|8,0:0|0:0,0:0:0:0:
252,304,70261,2,0,L|328:272,1,51.999997619629,8|8,0:0|0:0,0:0:0:0:
352,284,70497,6,0,P|424:284|376:188,1,207.999990478516,4|8,0:0|0:0,0:0:0:0:
332,104,71205,1,0,0:0:0:0:
228,112,71442,2,0,L|108:112,1,103.999995239258
68,200,71914,2,0,B|52:236|52:236|68:316,1,103.999995239258,8|0,0:0|0:0,0:0:0:0:
156,260,72387,6,0,P|236:268|272:248,1,103.999995239258
308,248,72741,1,0,0:0:0:0:
360,244,72859,2,0,P|352:168|328:132,1,103.999995239258,8|0,0:0|0:0,0:0:0:0:
236,124,73331,2,0,P|180:120|164:136,1,51.999997619629
136,124,73568,2,0,P|116:176|116:196,1,51.999997619629
108,224,73804,2,0,P|120:268|100:344,1,103.999995239258,8|0,0:0|0:0,0:0:0:0:
216,324,74276,6,0,P|288:324|332:308,1,103.999995239258
352,216,74749,2,0,P|280:204|236:220,1,103.999995239258,8|0,0:0|0:0,0:0:0:0:
200,220,75103,1,0,0:0:0:0:
152,236,75221,2,0,L|76:236,1,51.999997619629
56,212,75457,1,0,0:0:0:0:
136,84,75694,2,0,L|260:84,1,103.999995239258,8|0,0:0|0:0,0:0:0:0:
292,72,76048,1,0,0:0:0:0:
348,60,76166,6,0,L|468:60,1,103.999995239258
468,172,76638,2,0,P|468:232|404:232,1,103.999995239258,8|0,0:0|0:0,0:0:0:0:
388,276,76993,1,0,0:0:0:0:
336,280,77111,2,0,L|316:220,1,51.999997619629
320,180,77347,1,0,0:0:0:0:
356,64,77583,2,0,P|268:60|232:76,1,103.999995239258,8|0,0:0|0:0,0:0:0:0:
208,84,77938,1,0,0:0:0:0:
160,100,78056,6,0,P|76:112|44:168,1,103.999995239258,4|0,0:0|0:0,0:0:0:0:
116,212,78528,2,0,P|192:184|228:192,1,103.999995239258,8|0,0:0|0:0,0:0:0:0:
260,208,78883,1,0,0:0:0:0:
308,184,79001,2,0,P|328:156|320:104,1,51.999997619629
336,88,79237,1,0,0:0:0:0:
156,68,79473,2,0,L|260:68,1,103.999995239258,8|0,0:0|0:0,0:0:0:0:
156,68,79946,6,0,L|156:176,1,103.999995239258
252,208,80418,2,0,P|236:263|256:308,1,103.999995239258,8|0,0:0|0:0,0:0:0:0:
328,316,80772,1,0,0:0:0:0:
328,300,80890,2,0,L|376:256,1,51.999997619629
392,220,81127,1,0,0:0:0:0:
332,124,81363,2,0,P|240:132|212:128,1,103.999995239258,8|0,0:0|0:0,0:0:0:0:
188,164,81717,1,0,0:0:0:0:
172,212,81835,6,0,P|176:288|224:316,1,103.999995239258
264,216,82308,2,0,P|284:276|316:308,1,103.999995239258,8|0,0:0|0:0,0:0:0:0:
364,308,82662,1,0,0:0:0:0:
416,308,82780,2,0,L|484:308,1,51.999997619629
468,232,83016,1,0,0:0:0:0:
360,192,83253,5,8,0:0:0:0:
448,120,83489,1,0,0:0:0:0:
340,84,83725,6,0,L|280:92,1,51.999997619629
244,92,83961,1,8,0:0:0:0:
192,100,84079,1,0,0:0:0:0:
144,120,84198,1,8,0:0:0:0:
112,160,84316,1,0,0:0:0:0:
108,212,84434,1,8,0:0:0:0:
124,260,84552,1,8,0:0:0:0:
152,304,84670,2,8,L|240:300,1,51.999997619629,0|0,0:0|0:0,0:0:0:0:
264,328,84906,6,8,L|336:324,1,51.999997619629
376,292,85142,2,8,L|444:276,1,51.999997619629
452,216,85379,2,8,L|424:152,1,51.999997619629
