osu file format v14

[General]
AudioFilename: SawanoHiroyuki[nZk] Gemie - X.U. (TV size).mp3
AudioLeadIn: 2000
PreviewTime: 53895
Countdown: 0
SampleSet: Soft
StackLeniency: 0.7
Mode: 0
LetterboxInBreaks: 1
WidescreenStoryboard: 1

[Editor]
Bookmarks: 85076,86966
DistanceSpacing: 1.2
BeatDivisor: 4
GridSize: 4
TimelineZoom: 1.1

[Metadata]
Title:X.U. (TV size)
TitleUnicode:X.U. (TV size)
Artist:SawanoHiroyuki[nZk]:Gemie
ArtistUnicode:SawanoHiroyuki[nZk]:Gemie
Creator:Rina-desu
Version:Hard
Source:終わりのセラフ
Tags:owari no seraph opening seraph of the end wit studio shinoa hiiragi mikaela yuuichirou hyakuya
BeatmapID:680415
BeatmapSetID:302984

[Difficulty]
HPDrainRate:7
CircleSize:4
OverallDifficulty:7
ApproachRate:8
SliderMultiplier:1.5
SliderTickRate:1

[Events]
//Background and Video events
0,0,"bg.png",0,0
//Break Periods
2,8150,9208
//Storyboard Layer 0 (Background)
//Storyboard Layer 1 (Fail)
//Storyboard Layer 2 (Pass)
//Storyboard Layer 3 (Foreground)
//Storyboard Sound Samples

[TimingPoints]
510,472.44094488189,4,2,0,40,1,0
9958,-100,4,2,0,40,0,0
14210,-100,4,2,0,40,0,0
17517,-100,4,2,0,40,0,0
21297,-100,4,2,0,40,0,0
24132,-100,4,2,0,40,0,0
32635,-100,4,2,0,40,0,0
40667,-100,4,2,0,40,0,0
55313,-100,4,2,0,40,0,1
61927,-100,4,2,0,40,0,0
70313,-100,4,2,0,40,0,0
70549,-100,4,2,0,40,0,1
77872,-100,4,2,0,40,0,0
78108,-100,4,2,0,40,0,0
86966,-100,4,2,0,40,0,0

[Colours]
Combo1 : 163,99,241
Combo2 : 0,155,230
Combo3 : 249,6,109
Combo4 : 0,185,0
Combo5 : 221,132,251
Combo6 : 34,0,227
Combo7 : 157,202,208

[HitObjects]
104,240,510,6,0,P|88:176|136:112,1,150
216,80,1218,2,0,P|256:64|296:72,1,75
272,160,1691,2,0,P|312:160|360:136,2,75
184,168,2399,2,0,P|136:216|168:312,1,150
224,248,3108,1,0,0:0:0:0:
320,240,3344,2,0,P|368:232|392:200,1,75
320,152,3817,2,0,L|296:112,1,37.5
192,72,4289,6,0,P|152:64|120:72,1,75
152,160,4761,1,0,0:0:0:0:
80,216,4998,2,0,P|48:248|40:288,1,75
168,248,5470,1,0,0:0:0:0:
216,304,5706,2,0,P|240:336|280:352,2,75
372,196,6651,1,0,0:0:0:0:
312,128,6887,1,0,0:0:0:0:
224,80,7124,2,0,P|248:48|288:32,2,75
200,120,7714,2,0,P|176:152|136:168,1,75
184,152,9958,5,0,0:0:0:0:
296,256,10431,1,0,0:0:0:0:
368,320,10667,2,0,P|392:280|392:248,1,75
328,176,11139,1,0,0:0:0:0:
400,120,11376,2,0,P|328:88|256:120,1,150
184,152,12084,2,0,P|144:176|104:176,1,75
56,104,12557,2,0,P|24:168|48:240,1,150
96,312,13265,2,0,P|80:344|40:360,2,75
272,264,14210,5,0,0:0:0:0:
352,240,14683,1,0,0:0:0:0:
432,216,15155,1,0,0:0:0:0:
512,192,15628,1,0,0:0:0:0:
360,104,16100,2,0,P|344:64|304:40,1,75
272,120,16572,1,0,0:0:0:0:
272,120,16809,2,0,P|232:129|201:154,2,75
144,200,17517,6,0,P|120:224|72:232,1,75
184,296,17990,2,0,P|224:296|264:288,1,75
344,272,18462,2,0,P|376:248|392:216,1,75
312,184,18935,2,0,P|312:144|320:104,2,75
144,128,19880,1,0,0:0:0:0:
64,128,20116,2,0,P|88:64|184:64,1,150
240,96,20824,2,0,P|272:112|296:144,1,75
216,184,21297,6,0,L|184:216,2,37.5
312,184,21769,1,0,0:0:0:0:
408,184,22006,2,0,L|440:152,2,37.5
328,344,22714,2,0,L|328:384,2,37.5
216,288,23187,1,0,0:0:0:0:
48,216,23659,1,0,0:0:0:0:
68,128,23895,2,0,P|28:108|12:72,2,75
96,40,24604,6,0,P|152:64|160:152,1,150
128,232,25313,2,0,P|80:224|56:200,1,75
128,312,25785,2,0,P|112:352|112:392,1,75
200,280,26258,2,0,P|248:272|272:248,1,75
328,208,26730,1,0,0:0:0:0:
416,224,26966,2,0,P|400:152|328:120,1,150
328,208,27675,1,0,0:0:0:0:
240,240,27911,1,0,0:0:0:0:
152,272,28147,1,0,0:0:0:0:
152,272,28384,6,0,P|104:208|120:128,2,150
192,184,29565,2,0,P|208:144|200:112,1,75
201,114,30037,1,0,0:0:0:0:
160,32,30273,2,0,P|192:16|240:24,1,75
320,72,30746,2,0,P|360:56|392:32,1,75
416,120,31218,2,0,P|448:96|480:80,2,75
480,176,31927,2,0,P|448:200|416:216,1,75
416,128,32399,1,0,0:0:0:0:
416,128,32635,5,0,0:0:0:0:
488,288,33108,2,0,P|416:320|344:288,1,150
288,192,33817,1,0,0:0:0:0:
288,192,34053,2,0,P|264:120|200:88,1,150
184,192,34761,1,0,0:0:0:0:
80,192,34998,2,0,P|80:232|64:272,1,75
32,352,35470,1,0,0:0:0:0:
68,264,35706,1,0,0:0:0:0:
176,264,35943,2,0,P|192:224|216:192,1,75
240,352,36415,6,0,P|264:312|272:280,1,75
360,272,36887,2,0,P|360:232|368:192,1,75
456,272,37360,2,0,P|456:304|448:352,2,75
424,160,38069,1,0,0:0:0:0:
424,160,38305,6,0,P|408:80|328:48,1,150
336,136,39013,2,0,P|304:168|264:168,2,75
264,64,39722,1,0,0:0:0:0:
160,72,39958,2,0,L|144:32,2,37.5
72,288,40667,6,0,P|144:320|216:288,1,150
144,232,41376,1,0,0:0:0:0:
192,160,41612,2,0,P|270:171|320:224,1,150
272,304,42321,2,0,P|304:320|344:312,1,75
440,272,42793,1,0,0:0:0:0:
440,272,43029,2,0,P|408:200|344:176,2,150
352,248,44210,2,0,P|288:224|280:144,1,150
336,56,44919,2,0,P|368:32|408:32,2,75
277,150,45628,1,0,0:0:0:0:
176,96,45864,5,0,0:0:0:0:
128,8,46100,2,0,P|74:67|88:138,1,150
160,192,46809,2,0,P|128:216|94:226,1,75
144,320,47281,2,0,P|104:313|65:325,1,75
208,368,47754,2,0,P|240:368|287:357,1,75
328,344,48108,1,0,0:0:0:0:
328,344,48226,6,0,P|384:280|376:216,1,150
377,219,49171,1,0,0:0:0:0:
200,232,49643,1,0,0:0:0:0:
368,176,50116,1,0,0:0:0:0:
184,176,50588,1,0,0:0:0:0:
72,104,51061,2,0,P|88:64|120:40,1,75
152,32,51415,1,0,0:0:0:0:
152,32,51533,6,0,P|224:32|264:96,1,150
264,200,52242,1,0,0:0:0:0:
304,296,52478,2,0,P|264:304|232:296,2,75
376,240,53187,2,0,P|416:232|448:240,1,75
104,216,54132,5,0,0:0:0:0:
136,184,54368,1,0,0:0:0:0:
176,160,54604,1,0,0:0:0:0:
224,144,54840,1,0,0:0:0:0:
344,200,55313,6,0,P|366:162|366:122,1,75
368,336,55785,2,0,P|288:328|240:280,1,150
244,192,56494,2,0,P|228:160|196:136,1,75
156,216,56966,1,0,0:0:0:0:
116,296,57202,2,0,P|84:272|68:240,1,75
64,148,57675,2,0,P|39:152|-5:185,1,75
128,244,58147,2,0,P|164:256|200:248,1,75
156,96,58620,2,0,P|172:132|168:176,1,75
112,232,59092,6,0,P|97:262|56:293,2,75
128,144,59801,2,0,P|151:82|229:68,1,150
352,136,60510,2,0,P|327:109|288:88,1,75
272,176,60982,1,0,0:0:0:0:
176,328,61454,2,0,L|144:352,2,37.5
144,240,61927,5,0,0:0:0:0:
96,144,62163,1,0,0:0:0:0:
64,224,62399,2,0,P|104:160|176:168,1,150
256,200,63108,1,0,0:0:0:0:
256,200,63344,2,0,P|256:120|197:69,1,150
176,156,64053,1,0,0:0:0:0:
176,156,64289,2,0,P|166:234|221:283,1,150
256,200,64998,1,0,0:0:0:0:
324,256,65234,1,0,0:0:0:0:
324,256,65470,2,0,P|356:240|380:208,1,75
280,60,66179,6,0,P|200:44|136:84,1,150
96,152,66887,2,0,P|72:120|72:80,2,75
176,192,67596,2,0,P|152:224|104:240,2,75
320,296,68541,5,0,0:0:0:0:
416,144,69013,1,0,0:0:0:0:
320,88,69250,1,0,0:0:0:0:
216,80,69486,2,0,L|216:40,2,37.5
120,120,69958,2,0,L|104:80,2,37.5
152,224,70431,5,4,0:0:0:0:
64,232,70667,2,0,P|72:272|104:296,1,75
152,224,71139,2,0,P|184:200|200:168,1,75
240,264,71612,1,0,0:0:0:0:
240,264,71730,1,0,0:0:0:0:
240,264,71848,2,0,P|272:291|305:301,1,75
251,171,72321,6,0,P|220:150|184:144,1,75
280,56,72793,1,0,0:0:0:0:
360,120,73029,2,0,P|384:88|384:48,1,75
416,176,73502,2,0,P|456:180|484:197,1,75
416,280,73974,1,0,0:0:0:0:
352,344,74210,6,0,P|328:312|328:272,1,75
344,184,74683,2,0,P|304:184|272:208,1,75
168,56,75392,1,0,0:0:0:0:
168,56,75628,2,0,L|112:120,1,75
160,200,76100,5,0,0:0:0:0:
160,200,76336,2,0,L|216:136,1,75
72,240,76809,2,0,L|136:296,1,75
216,304,77281,2,0,P|192:344|168:368,2,75
320,280,77990,5,4,0:0:0:0:
320,280,78108,1,0,0:0:0:0:
320,280,78226,2,0,P|344:248|376:240,1,75
448,184,78698,2,0,P|472:208|480:248,1,75
384,136,79171,1,0,0:0:0:0:
384,136,79407,2,0,P|363:100|350:62,1,75
288,136,79880,1,0,0:0:0:0:
312,248,80116,2,0,B|272:248|272:248|232:240,1,75
136,176,80588,2,0,B|120:216|120:216|120:264,1,75
256,280,81061,5,0,0:0:0:0:
136,176,81297,1,0,0:0:0:0:
256,136,81533,1,0,0:0:0:0:
184,224,81769,2,0,P|256:248|328:224,1,150
272,152,82478,2,0,P|304:136|344:136,1,75
328,224,82950,5,0,0:0:0:0:
352,312,83187,2,0,P|312:312|272:296,1,75
200,240,83659,2,0,P|168:216|128:208,1,75
72,128,84132,2,0,L|32:112,2,37.5
168,128,84604,1,0,0:0:0:0:
228,60,84840,1,0,0:0:0:0:
228,60,84958,1,0,0:0:0:0:
228,60,85076,2,0,L|260:36,2,37.5
256,192,85431,12,0,86966,0:0:0:0:
