osu file format v14

[General]
AudioFilename: SawanoHiroyuki[nZk] Gemie - X.U. (TV size).mp3
AudioLeadIn: 2000
PreviewTime: 53895
Countdown: 0
SampleSet: Soft
StackLeniency: 0.7
Mode: 0
LetterboxInBreaks: 1
WidescreenStoryboard: 0

[Editor]
Bookmarks: 85076,86966
DistanceSpacing: 0.9
BeatDivisor: 4
GridSize: 4
TimelineZoom: 1.2

[Metadata]
Title:X.U. (TV size)
TitleUnicode:X.U. (TV size)
Artist:SawanoHiroyuki[nZk]:Gemie
ArtistUnicode:SawanoHiroyuki[nZk]:Gemie
Creator:Rina-desu
Version:Easy
Source:終わりのセラフ
Tags:owari no seraph opening seraph of the end wit studio shinoa hiiragi mikaela yuuichirou hyakuya
BeatmapID:679027
BeatmapSetID:302984

[Difficulty]
HPDrainRate:2
CircleSize:3
OverallDifficulty:2
ApproachRate:2
SliderMultiplier:1.1
SliderTickRate:1

[Events]
//Background and Video events
0,0,"bg.png",0,0
//Break Periods
2,7914,8871
//Storyboard Layer 0 (Background)
//Storyboard Layer 1 (Fail)
//Storyboard Layer 2 (Pass)
//Storyboard Layer 3 (Foreground)
//Storyboard Sound Samples

[TimingPoints]
510,472.44094488189,4,2,0,40,1,0
9958,-100,4,2,0,40,0,0
17517,-100,4,2,0,40,0,0
21297,-100,4,2,0,40,0,0
24132,-100,4,2,0,40,0,0
32635,-100,4,2,0,40,0,0
40667,-100,4,2,0,40,0,0
55313,-100,4,2,0,30,0,1
61927,-100,4,2,0,30,0,0
70313,-100,4,2,0,50,0,0
70549,-100,4,2,0,30,0,1
77872,-100,4,2,0,50,0,0
78108,-100,4,2,0,30,0,0
86966,-100,4,2,0,5,0,0

[Colours]
Combo1 : 163,99,241
Combo2 : 0,155,230
Combo3 : 249,6,109
Combo4 : 0,185,0
Combo5 : 221,132,251
Combo6 : 26,0,168
Combo7 : 157,202,208

[HitObjects]
80,176,510,6,0,P|128:96|248:64,1,220,0|0,3:3|3:3,3:3:0:0:
248,164,1927,1,0,0:0:0:0:
248,264,2399,2,0,P|352:256|416:168,2,220,0|0|0,3:2|3:2|3:2,3:2:0:0:
280,68,5234,5,0,0:0:0:0:
196,20,5706,2,0,P|180:76|207:129,1,110
264,196,6651,1,0,0:0:0:0:
336,128,7124,2,0,P|364:184|339:258,1,137.5
216,128,10431,6,0,P|256:112|320:128,2,110
272,208,11848,2,0,P|312:224|376:208,1,110
392,112,12793,2,0,P|472:192|448:288,1,220
376,216,14210,5,0,0:0:0:0:
288,176,14683,2,0,P|264:128|208:96,1,110
192,192,15628,1,0,0:0:0:0:
96,208,16100,2,0,P|120:256|176:288,1,110
264,264,17045,1,0,0:0:0:0:
352,216,17517,5,0,0:0:0:0:
300,132,17990,2,0,P|260:100|186:99,1,110
220,192,18935,2,0,P|108:168|76:72,1,220
168,44,20352,2,0,P|232:44|272:76,1,110
364,88,21297,6,0,P|340:144|300:168,1,110
140,52,22714,1,0,0:0:0:0:
64,116,23187,2,0,P|32:172|48:220,1,110
128,264,24132,2,0,P|187:239|233:260,1,110
316,300,25076,5,0,0:0:0:0:
364,212,25549,2,0,P|348:164|300:123,2,110
264,216,26966,2,0,P|200:224|152:192,1,110
224,128,27911,1,0,0:0:0:0:
128,100,28384,1,0,0:1:0:0:
32,120,28856,6,0,P|56:232|150:246,1,220
124,152,30273,1,0,0:0:0:0:
212,108,30746,2,0,P|260:76|316:76,2,110
288,172,32163,1,0,0:0:0:0:
316,268,32635,6,0,P|396:228|388:108,1,220
400,12,34053,2,0,P|344:16|306:64,1,110
220,96,34998,2,0,P|156:96|124:56,2,110
312,136,36415,2,0,P|345:192|347:236,1,110
248,216,37360,6,0,P|200:240|136:240,1,110
176,148,38305,2,0,P|160:92|102:65,1,110
80,156,39250,2,0,P|56:212|72:268,1,110
264,240,40667,6,0,P|296:344|400:368,1,220
368,172,42557,2,0,P|288:92|184:140,1,220
100,124,43974,2,0,P|44:100|28:36,2,110
300,116,45864,5,0,0:0:0:0:
356,200,46336,2,0,P|300:216|244:200,1,110
184,132,47281,2,0,P|152:84|96:76,1,110
96,172,48226,6,0,P|128:276|232:292,1,220
292,220,49643,2,0,P|324:164|364:148,2,110
344,304,51061,1,0,0:0:0:0:
244,308,51533,2,0,P|180:324|124:308,1,110
52,264,52478,2,0,P|20:224|23:159,1,110
116,188,53423,1,0,0:0:0:0:
152,120,55313,5,0,0:0:0:0:
64,164,55785,2,0,P|40:212|72:276,2,110
148,220,57202,2,0,P|204:228|236:284,1,110
252,368,58147,2,0,P|308:344|330:286,1,110
348,204,59092,6,0,P|348:148|316:99,2,110
252,176,60510,1,0,0:0:0:0:
156,200,60982,1,0,0:0:0:0:
60,184,61454,2,0,P|60:240|108:280,1,110
188,312,62399,5,0,0:0:0:0:
284,332,62872,2,0,P|396:316|412:212,1,220
356,148,64289,2,0,P|404:128|461:137,2,110
272,200,65706,1,0,0:0:0:0:
216,284,66179,2,0,P|176:252|173:192,1,110
272,200,67124,5,0,0:0:0:0:
220,116,67596,2,0,P|276:100|333:123,1,110
400,180,68541,1,0,0:0:0:0:
468,252,69013,1,0,0:0:0:0:
304,304,70431,5,4,0:0:0:0:
240,228,70903,1,0,0:0:0:0:
192,140,71376,2,0,P|142:229|208:324,1,220
296,304,72793,1,0,0:0:0:0:
240,228,73265,2,0,P|288:204|350:230,1,110
428,268,74210,6,0,P|428:316|388:364,2,110
336,228,75628,1,0,0:0:0:0:
240,208,76100,1,0,0:0:0:0:
144,224,76572,1,0,0:0:0:0:
72,152,77045,2,0,P|120:120|176:128,1,110
256,176,77990,5,4,0:0:0:0:
268,276,78462,2,0,P|324:260|348:204,1,110
352,120,79407,2,0,B|352:64|352:64|304:32,1,110
208,32,80352,1,0,0:0:0:0:
108,28,80824,2,0,B|108:84|108:84|156:116,1,110
232,176,81769,6,0,L|168:272,2,110
328,152,83187,1,0,0:0:0:0:
320,52,83659,2,0,P|408:92|410:206,1,220
256,192,85076,12,0,86966,0:0:0:0:
