osu file format v14

[General]
AudioFilename: X.U. (TV size).mp3
AudioLeadIn: 0
PreviewTime: 54222
Countdown: 0
SampleSet: Soft
StackLeniency: 0.7
Mode: 0
LetterboxInBreaks: 0
WidescreenStoryboard: 0

[Editor]
Bookmarks: 40285
DistanceSpacing: 1.1
BeatDivisor: 4
GridSize: 4
TimelineZoom: 1.7

[Metadata]
Title:X.U. (TV size)
TitleUnicode:X.U. (TV size)
Artist:SawanoHiroyuki[nZk]:Gemie
ArtistUnicode:SawanoHiroyuki[nZk]:Gemie
Creator:Kawaiwkyik
Version:Normal
Source:終わりのセラフ
Tags:Owari no Seraph Seraph of the End opening Karen Kagamine Ren ZZHBOY yf_bmp Mackenzie Alex Li
BeatmapID:724287
BeatmapSetID:326147

[Difficulty]
HPDrainRate:2
CircleSize:3
OverallDifficulty:2
ApproachRate:3
SliderMultiplier:1.19999990463257
SliderTickRate:1

[Events]
//Background and Video events
0,0,"1366.jpg",0,0
//Break Periods
//Storyboard Layer 0 (Background)
//Storyboard Layer 1 (Fail)
//Storyboard Layer 2 (Pass)
//Storyboard Layer 3 (Foreground)
//Storyboard Sound Samples

[TimingPoints]
600,472.44094488189,4,2,1,60,1,0
55403,-100,4,2,1,90,0,1
85639,-100,4,2,1,50,0,0

[Colours]
Combo1 : 128,64,64
Combo2 : 0,128,192
Combo3 : 0,128,0
Combo4 : 99,0,198

[HitObjects]
72,120,600,6,0,P|116:96|208:108,1,119.999990463257,4|0,0:0|0:0,0:0:0:0:
268,200,1544,2,0,P|224:224|132:212,2,119.999990463257,0|0|0,0:0|0:0|0:0,0:0:0:0:
368,112,2962,1,0,0:0:0:0:
472,192,3434,2,0,L|456:336,1,119.999990463257
396,328,4143,1,0,0:0:0:0:
344,288,4379,6,0,P|296:276|236:276,2,89.9999928474428
392,164,5560,2,0,L|480:152,2,59.9999952316285
328,176,6269,2,0,P|300:164|208:160,1,119.999990463257,0|0,0:0|0:0,0:0:0:0:
148,180,6977,1,0,0:0:0:0:
104,228,7214,2,0,P|112:292|112:344,2,89.9999928474428,0|0|0,0:0|0:0|0:0,0:0:0:0:
256,192,8159,12,0,10048,0:0:0:0:
76,148,10993,6,0,L|208:136,1,119.999990463257,0|0,0:0|0:0,0:0:0:0:
268,248,11938,2,0,L|136:260,2,119.999990463257,0|0|0,0:0|0:0|0:0,0:0:0:0:
348,144,13355,1,0,0:0:0:0:
456,220,13828,5,0,0:0:0:0:
340,280,14300,2,0,P|333:316|353:383,2,89.9999928474428
368,220,15245,2,0,L|232:208,1,119.999990463257
128,260,16190,2,0,P|116:308|124:364,2,89.9999928474428
156,200,17135,1,0,0:0:0:0:
28,164,17607,6,0,P|16:112|36:36,1,119.999990463257
148,108,18552,1,0,0:0:0:0:
256,32,19025,1,0,0:0:0:0:
364,108,19497,1,0,0:0:0:0:
484,163,19970,2,0,P|496:105|482:47,2,119.999990463257,0|0|0,0:0|0:0|0:0,0:0:0:0:
428,200,21151,1,0,0:0:0:0:
364,220,21387,6,0,L|224:212,1,119.999990463257
176,328,22332,2,0,L|316:336,2,119.999990463257,0|0|0,0:0|0:0|0:0,0:0:0:0:
44,320,23749,1,0,0:0:0:0:
24,188,24222,1,0,0:0:0:0:
24,188,24458,2,0,P|24:140|48:68,1,119.999990463257,0|0,0:0|0:0,0:0:0:0:
108,48,25166,6,0,P|144:64|232:24,1,119.999990463257,0|0,0:0|0:0,0:0:0:0:
300,144,26111,2,0,L|440:124,1,119.999990463257,0|0,0:0|0:0,0:0:0:0:
424,260,27056,2,0,L|494:250,2,59.9999952316285,0|0|0,0:0|0:0|0:0,0:0:0:0:
328,352,28001,2,0,L|387:360,2,59.9999952316285,0|0|0,0:0|0:0|0:0,0:0:0:0:
208,292,28946,6,0,P|176:284|92:316,2,119.999990463257,0|0|0,0:0|0:0|0:0,0:0:0:0:
284,184,30363,1,0,0:0:0:0:
168,120,30836,2,0,P|160:68|176:4,2,119.999990463257,0|0|0,0:0|0:0|0:0,0:0:0:0:
284,184,32253,2,0,L|420:172,1,119.999990463257,0|0,0:0|0:0,0:0:0:0:
500,264,33198,1,0,0:0:0:0:
428,372,33670,2,0,L|292:384,1,119.999990463257,0|0,0:0|0:0,0:0:0:0:
228,280,34615,6,0,P|276:256|356:264,2,119.999990463257,0|0|0,0:0|0:0|0:0,0:0:0:0:
120,356,36033,1,0,0:0:0:0:
20,272,36505,2,0,L|32:132,1,119.999990463257,0|0,0:0|0:0,0:0:0:0:
136,72,37450,1,0,0:0:0:0:
136,72,37686,2,0,L|224:60,2,59.9999952316285,0|0|0,0:0|0:0|0:0,0:0:0:0:
144,136,38395,6,0,L|156:224,2,59.9999952316285,0|0|0,0:0|0:0|0:0,0:0:0:0:
276,116,39340,1,0,0:0:0:0:
380,200,39812,2,0,L|504:188,1,119.999990463257,0|4,0:0|0:0,0:0:0:0:
295,355,41229,2,0,P|217:314|128:320,1,179.999985694886,0|0,0:0|0:0,0:0:0:0:
8,372,42411,1,0,0:0:0:0:
24,176,43119,6,0,P|64:140|152:148,1,119.999990463257,0|0,0:0|0:0,0:0:0:0:
180,180,43828,2,0,L|304:172,1,119.999990463257,0|0,0:0|0:0,0:0:0:0:
360,196,44537,2,0,P|380:156|352:68,1,119.999990463257,0|0,0:0|0:0,0:0:0:0:
88,260,46190,2,0,P|156:236|256:312,1,179.999985694886,0|0,0:0|0:0,0:0:0:0:
368,340,47371,2,0,L|436:336,2,59.9999952316285,0|0|0,0:0|0:0|0:0,0:0:0:0:
236,348,48316,6,0,P|240:280|240:200,2,119.999990463257,0|0|0,0:0|0:0|0:0,0:0:0:0:
116,292,49733,2,0,P|116:232|120:172,1,119.999990463257,0|0,0:0|0:0,0:0:0:0:
224,88,50678,2,0,P|280:80|348:100,1,119.999990463257,0|0,0:0|0:0,0:0:0:0:
256,192,51623,12,0,53985,0:0:0:0:
424,96,55403,6,0,P|372:112|296:96,1,119.999990463257,4|8,0:0|0:0,0:0:0:0:
252,220,56348,2,0,P|304:204|380:220,1,119.999990463257,0|8,0:0|0:0,0:0:0:0:
424,248,57056,1,0,0:0:0:0:
464,300,57292,1,0,0:0:0:0:
348,364,57765,1,8,0:0:0:0:
232,300,58237,2,0,B|180:296|180:296|112:316,1,119.999990463257,0|8,0:0|0:0,0:0:0:0:
76,260,58946,1,0,0:0:0:0:
44,204,59182,6,0,B|96:208|96:208|164:188,1,119.999990463257,6|8,0:0|0:0,0:0:0:0:
256,96,60127,1,0,0:0:0:0:
128,56,60600,1,8,0:0:0:0:
161,188,61072,2,0,P|181:244|173:328,1,119.999990463257,0|8,0:0|0:0,0:0:0:0:
300,360,62017,2,0,L|432:340,1,119.999990463257,0|8,0:0|0:0,0:0:0:0:
460,292,62725,1,8,0:0:0:0:
448,228,62962,6,0,P|412:208|328:216,1,119.999990463257,4|8,0:0|0:0,0:0:0:0:
212,256,63907,2,0,P|153:264|99:240,1,119.999990463257,0|8,0:0|0:0,0:0:0:0:
32,240,64615,2,0,L|24:116,1,119.999990463257,0|0,0:0|0:0,0:0:0:0:
76,80,65324,2,0,L|148:68,2,59.9999952316285,8|0|0,0:0|0:0|0:0,0:0:0:0:
168,176,66269,1,8,0:0:0:0:
168,176,66505,6,0,P|224:152|300:164,1,119.999990463257,8|0,0:0|0:0,0:0:0:0:
340,188,67214,1,8,0:0:0:0:
384,312,67686,2,0,L|444:304,2,59.9999952316285,0|0|8,0:0|0:0|0:0,0:0:0:0:
252,332,68631,1,0,0:0:0:0:
124,292,69103,2,0,P|76:288|20:316,2,89.9999928474428,8|8|8,0:0|0:0|0:0,0:0:0:0:
172,244,70048,2,0,L|160:164,1,59.9999952316285,8|8,0:0|0:0,0:0:0:0:
148,120,70521,6,0,P|184:88|280:88,1,119.999990463257,4|8,0:0|0:0,0:0:0:0:
348,172,71466,2,0,L|480:160,2,119.999990463257,0|8|4,0:0|0:0|0:0,0:0:0:0:
272,280,72883,2,0,L|140:268,2,119.999990463257,8|0|8,0:0|0:0|0:0,0:0:0:0:
336,292,74064,1,0,0:0:0:0:
380,340,74300,5,4,0:0:0:0:
468,240,74773,2,0,P|480:184|452:108,1,119.999990463257,8|0,0:0|0:0,0:0:0:0:
344,72,75718,2,0,P|332:128|360:204,1,119.999990463257,8|0,0:0|0:0,0:0:0:0:
300,312,76662,2,0,L|164:296,1,119.999990463257,8|0,0:0|0:0,0:0:0:0:
116,288,77371,1,0,0:0:0:0:
56,316,77607,2,0,L|44:248,1,59.9999952316285,8|8,0:0|0:3,0:0:0:0:
72,196,78080,6,0,L|84:64,1,119.999990463257,4|8,0:0|0:0,0:0:0:0:
212,56,79025,2,0,L|200:188,1,119.999990463257,0|8,0:0|0:0,0:0:0:0:
268,288,79970,2,0,P|324:280|412:276,2,119.999990463257,0|8|0,0:0|0:0|0:0,0:0:0:0:
332,172,81387,2,0,L|344:92,1,59.9999952316285,8|0,0:0|0:0,0:0:0:0:
388,64,81859,6,0,P|340:40|264:48,1,119.999990463257,0|8,0:0|0:0,0:0:0:0:
172,124,82804,2,0,P|148:172|156:248,1,119.999990463257,0|8,0:0|0:0,0:0:0:0:
240,336,83749,6,0,L|316:328,1,59.9999952316285,0|8,0:0|0:0,0:0:0:0:
360,360,84222,2,0,P|396:344|452:332,2,89.9999928474428,8|8|8,0:0|0:0|0:0,0:0:0:0:
348,296,85166,2,0,L|364:224,1,59.9999952316285,8|8,0:0|0:0,0:0:0:0:
376,172,85639,1,2,0:0:0:0:
