osu file format v14

[General]
AudioFilename: X.U. (TV size).mp3
AudioLeadIn: 0
PreviewTime: 54222
Countdown: 0
SampleSet: Soft
StackLeniency: 0.7
Mode: 0
LetterboxInBreaks: 0
WidescreenStoryboard: 0

[Editor]
Bookmarks: 40285
DistanceSpacing: 2
BeatDivisor: 8
GridSize: 32
TimelineZoom: 1.7

[Metadata]
Title:X.U. (TV size)
TitleUnicode:X.U. (TV size)
Artist:SawanoHiroyuki[nZk]:Gemie
ArtistUnicode:SawanoHiroyuki[nZk]:Gemie
Creator:Kawaiwkyik
Version:End
Source:終わりのセラフ
Tags:Owari no Seraph Seraph of the End opening Karen Kagamine Ren ZZHBOY yf_bmp Mackenzie Alex Li
BeatmapID:724286
BeatmapSetID:326147

[Difficulty]
HPDrainRate:7
CircleSize:4.2
OverallDifficulty:8
ApproachRate:9.3
SliderMultiplier:3.59999990463257
SliderTickRate:1

[Events]
//Background and Video events
0,0,"1366.jpg",0,0
//Break Periods
//Storyboard Layer 0 (Background)
//Storyboard Layer 1 (Fail)
//Storyboard Layer 2 (Pass)
//Storyboard Layer 3 (Foreground)
//Storyboard Sound Samples

[TimingPoints]
600,472.44094488189,4,2,1,40,1,0
600,-142.857142857143,4,2,1,40,0,0
1190,-108.695652173913,4,2,1,40,0,0
1544,-142.857142857143,4,2,1,40,0,0
5088,-166.666666666667,4,2,1,40,0,0
5560,-142.857142857143,4,2,1,40,0,0
6033,-100,4,2,1,40,0,0
6505,-142.857142857143,4,2,1,40,0,0
7214,-100,4,2,1,40,0,0
7804,-200,4,2,1,40,0,0
9694,-200,4,2,1,5,0,0
9812,-200,4,2,1,40,0,0
17607,-142.857142857143,4,2,1,40,0,0
17962,-200,4,2,1,40,0,0
19497,-100,4,2,1,40,0,0
19970,-125,4,2,1,40,0,0
22096,-166.666666666667,4,2,1,40,0,0
22568,-125,4,2,1,40,0,0
23277,-166.666666666667,4,2,1,40,0,0
24222,-200,4,2,1,40,0,0
25166,-111.111111111111,4,2,1,40,0,0
25639,-142.857142857143,4,2,1,40,0,0
27056,-111.111111111111,4,2,1,40,0,0
28001,-125,4,2,1,40,0,0
30836,-111.111111111111,4,2,1,40,0,0
31781,-142.857142857143,4,2,1,40,0,0
32725,-125,4,2,1,40,0,0
40285,-200,4,2,1,40,0,0
53985,-200,4,2,2,40,0,0
55403,-83.3333333333333,4,2,1,90,0,1
55757,-100,4,2,1,90,0,1
62017,-83.3333333333333,4,2,1,90,0,1
62253,-100,4,2,1,90,0,1
85639,-100,4,2,1,50,0,0

[Colours]
Combo1 : 128,64,64
Combo2 : 0,128,192
Combo3 : 0,128,0
Combo4 : 99,0,198

[HitObjects]
80,144,363,5,2,0:0:0:0:
80,144,600,2,0,L|68:260,2,62.9999964084627,4|0|0,0:0|0:0|0:0,0:0:0:0:
260,108,1072,1,0,0:0:0:0:
268,140,1190,2,0,B|360:184|336:96|456:164,1,165.599990054017,2|0,0:0|0:0,0:0:0:0:
404,248,1544,5,2,0:0:0:0:
428,244,1662,1,0,0:0:0:0:
452,240,1781,1,0,0:0:0:0:
360,364,2017,1,0,0:0:0:0:
336,360,2135,1,2,0:0:0:0:
236,240,2371,1,2,0:0:0:0:
260,236,2489,6,0,L|252:304,1,62.9999964084627
144,340,2725,2,0,L|129:214,1,125.999992816925,2|0,0:0|0:0,0:0:0:0:
124,188,3080,5,2,0:0:0:0:
352,120,3316,2,0,P|316:72|228:104,1,125.999992816925,2|2,0:0|0:0,0:0:0:0:
228,100,3670,2,0,L|236:200,1,62.9999964084627
300,232,3907,5,2,0:0:0:0:
292,240,4025,1,0,0:0:0:0:
284,248,4143,2,0,L|276:348,1,62.9999964084627
428,360,4379,6,0,P|400:324|240:360,1,188.999989225388,2|0,0:0|0:0,0:0:0:0:
304,340,4851,2,0,L|292:260,1,62.9999964084627
152,140,5088,6,0,P|112:172|140:288,1,161.999990764618,2|0,0:0|0:0,0:0:0:0:
224,364,5560,6,0,L|286:371,1,62.9999964084627
246,213,5796,2,0,L|183:220,1,62.9999964084627,2|0,0:0|0:0,0:0:0:0:
384,288,6033,6,0,P|420:232|380:96,1,179.999995231629
152,140,6505,1,0,0:0:0:0:
152,140,6623,1,0,0:0:0:0:
152,140,6741,2,0,B|184:156|184:156|296:140,1,125.999992816925
472,88,7214,6,0,P|432:44|312:72,1,179.999995231629,2|0,0:0|0:0,0:0:0:0:
248,104,7568,2,0,B|337:91,1,89.9999976158143
468,279,7804,6,0,P|436:295|376:283,1,89.9999976158143,2|0,0:0|0:0,0:0:0:0:
256,192,8159,12,0,9694,0:0:0:0:
176,112,9812,5,0,0:0:0:0:
176,112,9930,1,0,0:0:0:0:
176,112,10048,2,0,L|156:240,1,89.9999976158143
276,168,10521,2,0,L|256:296,1,89.9999976158143
296,248,10875,1,0,0:0:0:0:
332,248,10993,1,0,0:0:0:0:
368,260,11111,1,0,0:0:0:0:
396,284,11229,1,0,0:0:0:0:
216,352,11466,2,0,L|208:296,1,44.9999988079071
140,344,11702,2,0,L|132:288,1,44.9999988079071
64,336,11938,6,0,L|56:280,1,44.9999988079071
48,208,12174,1,0,0:0:0:0:
208,180,12411,1,0,0:0:0:0:
208,180,12529,1,0,0:0:0:0:
208,180,12647,2,0,L|200:264,1,44.9999988079071
88,120,12883,6,0,L|132:115,1,44.9999988079071
296,204,13119,2,0,L|340:208,1,44.9999988079071
252,68,13355,2,0,L|244:152,1,44.9999988079071
228,276,13592,1,0,0:0:0:0:
256,44,13828,5,0,0:0:0:0:
316,100,13946,1,2,0:0:0:0:
344,96,14064,1,0,0:0:0:0:
296,204,14300,1,0,0:0:0:0:
308,229,14418,1,2,0:0:0:0:
352,332,14655,5,0,0:0:0:0:
176,216,14891,1,2,0:0:0:0:
155,235,15009,1,0,0:0:0:0:
128,116,15245,1,0,0:0:0:0:
103,101,15363,1,2,0:0:0:0:
220,32,15600,5,0,0:0:0:0:
232,256,15836,2,0,L|228:312,1,44.9999988079071,2|0,0:0|0:0,0:0:0:0:
115,356,16190,2,0,L|112:312,1,44.9999988079071,0|2,0:0|0:0,0:0:0:0:
352,332,16544,5,0,0:0:0:0:
420,248,16781,1,2,0:0:0:0:
420,248,16899,1,0,0:0:0:0:
336,180,17135,1,2,0:0:0:0:
336,180,17253,1,2,0:0:0:0:
336,180,17371,2,0,L|408:168,1,44.9999988079071
232,256,17607,6,0,L|96:240,1,125.999992816925
152,76,17962,1,0,0:0:0:0:
160,156,18080,2,0,L|168:240,1,44.9999988079071
136,320,18316,2,0,L|180:325,1,44.9999988079071
308,336,18552,5,0,0:0:0:0:
106,241,18788,1,0,0:0:0:0:
336,180,19025,1,0,0:0:0:0:
156,31,19261,2,0,L|148:103,1,44.9999988079071
200,218,19497,6,0,P|267:184|159:168,1,269.999992847443
64,152,19970,2,0,B|53:110|53:110|65:62,1,71.9999980926514
106,241,20206,2,0,B|117:283|117:283|105:331,1,71.9999980926514
56,360,20442,6,0,P|100:320|220:364,1,143.999996185303
252,368,20796,1,0,0:0:0:0:
280,384,20914,2,0,L|364:372,1,71.9999980926514
512,344,21151,2,0,L|440:333,1,71.9999980926514
200,260,21387,6,0,B|268:236|268:236|356:252,1,143.999996185303
338,248,21741,1,0,0:0:0:0:
338,248,21859,1,0,0:0:0:0:
128,332,22096,6,0,P|92:276|120:184,1,161.999990764618
140,216,22568,2,0,L|68:228,1,71.9999980926514
284,236,22804,2,0,L|268:332,1,71.9999980926514
216,140,23040,2,0,L|204:68,1,71.9999980926514
240,0,23277,6,0,L|224:156,1,107.999993843079
296,164,23631,2,0,L|312:320,1,107.999993843079
276,352,23985,1,0,0:0:0:0:
54,233,24222,6,0,P|94:214|139:215,2,89.9999976158143
104,376,24930,1,0,0:0:0:0:
104,376,25048,1,0,0:0:0:0:
104,376,25166,6,0,L|116:264,1,80.9999953823091
128,140,25403,2,0,L|140:28,1,80.9999953823091
312,240,25639,2,0,L|186:226,1,125.999992816925
186,226,25993,1,0,0:0:0:0:
186,226,26111,6,0,L|196:308,1,62.9999964084627
328,384,26348,2,0,L|342:258,1,125.999992816925
256,72,26820,1,0,0:0:0:0:
260,96,26938,1,0,0:0:0:0:
263,119,27056,6,0,B|304:136|304:136|344:128,1,80.9999953823091
472,48,27292,2,0,B|438:74|438:74|425:113,1,80.9999953823091
440,264,27529,2,0,B|433:221|433:221|406:190,1,80.9999953823091
296,312,27765,2,0,B|302:354|302:354|329:385,1,80.9999953823091
132,336,28001,6,0,P|98:330|53:295,1,71.9999980926514
131,248,28237,2,0,P|152:221|205:200,1,71.9999980926514
210,288,28474,2,0,P|222:320|214:376,1,71.9999980926514
36,384,28710,6,0,L|20:208,1,143.999996185303
22,240,29064,1,0,0:0:0:0:
22,240,29182,1,0,0:0:0:0:
220,56,29418,2,0,L|206:199,1,143.999996185303
240,180,29773,1,0,0:0:0:0:
240,180,29891,6,0,L|332:172,1,71.9999980926514
488,248,30127,2,0,L|416:241,1,71.9999980926514
288,332,30363,2,0,L|144:344,1,143.999996185303
128,360,30718,1,0,0:0:0:0:
128,360,30836,6,0,L|115:271,1,80.9999953823091
240,180,31072,2,0,L|273:97,1,80.9999953823091
424,188,31308,2,0,B|488:172|488:172|464:264,1,161.999990764618
463,264,31662,1,0,0:0:0:0:
463,264,31781,1,0,0:0:0:0:
348,308,32017,1,0,0:0:0:0:
392,108,32253,1,0,0:0:0:0:
240,180,32489,2,0,L|256:272,1,62.9999964084627
300,364,32725,6,0,P|368:380|420:292,1,143.999996185303
216,316,33198,2,0,P|180:328|84:276,1,143.999996185303
88,60,33670,1,0,0:0:0:0:
92,88,33788,1,0,0:0:0:0:
96,116,33907,1,0,0:0:0:0:
249,108,34143,2,0,L|237:200,1,71.9999980926514
168,236,34379,2,0,L|158:164,1,71.9999980926514
344,72,34615,5,0,0:0:0:0:
331,167,34851,1,0,0:0:0:0:
316,268,35088,1,0,0:0:0:0:
432,152,35324,1,0,0:0:0:0:
432,152,35442,1,0,0:0:0:0:
432,152,35560,2,0,L|528:132,1,71.9999980926514
386,282,35796,2,0,L|290:262,1,71.9999980926514
249,108,36033,1,0,0:0:0:0:
112,308,36269,1,0,0:0:0:0:
156,284,36387,1,0,0:0:0:0:
204,292,36505,6,0,L|212:368,1,71.9999980926514
64,292,36741,2,0,L|71:220,1,71.9999980926514
284,332,36977,2,0,P|340:304|452:336,1,143.999996185303
368,100,37450,2,0,L|448:80,1,71.9999980926514
356,184,37686,2,0,L|436:164,1,71.9999980926514
288,132,37922,1,0,0:0:0:0:
272,280,38159,1,0,0:0:0:0:
104,144,38395,5,0,0:0:0:0:
260,224,38631,1,0,0:0:0:0:
168,36,38867,1,0,0:0:0:0:
80,176,39103,1,0,0:0:0:0:
108,168,39222,1,0,0:0:0:0:
136,160,39340,2,0,L|128:248,1,71.9999980926514
120,324,39576,1,0,0:0:0:0:
312,284,39812,1,0,0:0:0:0:
324,280,39930,1,0,0:0:0:0:
336,276,40048,1,0,0:0:0:0:
348,272,40166,1,0,0:0:0:0:
364,268,40285,5,4,0:0:0:0:
424,80,40757,1,0,0:0:0:0:
424,80,41229,2,0,P|356:100|248:16,1,179.999995231629
100,132,41938,2,0,P|168:112|276:196,1,179.999995231629
396,280,43119,6,0,B|272:296|272:296|216:264,1,179.999995231629
292,192,43828,2,0,B|416:176|416:176|472:208,1,179.999995231629
228,292,44537,2,0,B|200:81,1,179.999995231629
360,204,46190,6,0,B|386:167|424:144|424:144|380:155|328:156,1,179.999995231629
292,208,46899,1,0,0:0:0:0:
292,208,47371,2,0,L|300:88,2,89.9999976158143
124,144,48316,5,0,0:0:0:0:
68,316,48788,1,0,0:0:0:0:
244,356,49261,2,0,B|252:312|252:312|240:268,1,89.9999976158143
68,56,49733,2,0,P|28:104|64:232,1,179.999995231629
244,356,50678,2,0,P|284:308|248:180,1,179.999995231629
267,198,51387,5,0,0:0:0:0:
180,220,51623,1,0,0:0:0:0:
256,192,52332,12,0,53985,0:0:0:0:
328,268,54222,5,0,0:0:0:0:
460,208,54694,1,0,0:0:0:0:
344,124,55166,1,0,0:0:0:0:
328,268,55403,6,0,P|284:216|120:252,1,215.999987686158,4|0,0:0|0:0,0:0:0:0:
200,72,55757,5,0,0:0:0:0:
200,72,55875,2,0,L|328:56,1,89.9999976158143,8|0,0:0|0:0,0:0:0:0:
460,208,56111,2,0,L|216:177,1,179.999995231629
188,240,56466,1,0,0:0:0:0:
84,204,56584,1,0,0:0:0:0:
116,100,56702,1,0,0:0:0:0:
220,136,56820,6,0,P|240:88|224:20,1,89.9999976158143,8|0,0:0|0:0,0:0:0:0:
84,204,57056,2,0,P|83:248|101:289,1,89.9999976158143
192,352,57292,6,0,B|244:336|244:336|316:360|316:360|392:336,1,179.999995231629
408,132,57647,1,0,0:0:0:0:
460,208,57765,2,0,B|408:224|408:224|336:200|336:200|260:224,1,179.999995231629,8|0,0:0|0:0,0:0:0:0:
220,136,58119,1,0,0:0:0:0:
296,60,58237,6,0,L|408:48,1,89.9999976158143
492,180,58474,2,0,P|428:152|332:216,1,179.999995231629,0|8,0:0|0:0,0:0:0:0:
192,352,58946,2,0,P|203:308|194:265,1,89.9999976158143
168,240,59123,1,0,0:0:0:0:
168,240,59182,6,0,B|228:268|256:236|280:212|360:244,1,179.999995231629,6|0,0:0|0:0,0:0:0:0:
420,300,59537,1,0,0:0:0:0:
328,336,59655,2,0,P|288:328|228:356,1,89.9999976158143,8|0,0:0|0:0,0:0:0:0:
38,327,59891,2,0,P|82:335|124:320,1,89.9999976158143
344,232,60127,5,0,0:0:0:0:
372,128,60245,1,0,0:0:0:0:
268,160,60363,2,0,L|460:144,1,179.999995231629,0|8,0:0|0:0,0:0:0:0:
184,120,60718,1,0,0:0:0:0:
184,120,60836,2,0,P|176:160|212:236,1,89.9999976158143
328,336,61072,5,0,0:0:0:0:
344,232,61190,1,0,0:0:0:0:
244,272,61308,1,0,0:0:0:0:
436,304,61426,1,0,0:0:0:0:
436,304,61544,2,0,L|456:200,1,89.9999976158143,8|0,0:0|0:0,0:0:0:0:
251,71,61781,2,0,L|267:159,1,89.9999976158143
164,324,62017,6,0,B|20:304|20:304|48:384,1,215.999987686158
244,272,62371,5,0,0:0:0:0:
244,272,62489,2,0,P|260:224|248:168,1,89.9999976158143,8|0,0:0|0:0,0:0:0:0:
40,28,62725,1,8,0:0:0:0:
48,120,62844,1,8,0:0:0:0:
56,208,62962,6,0,B|160:196|160:196|224:208|224:208|336:192,1,269.999992847443,4|0,0:0|0:0,0:0:0:0:
424,248,63434,2,0,L|228:224,1,179.999995231629,8|0,0:0|0:0,0:0:0:0:
112,316,63788,1,0,0:0:0:0:
184,372,63907,2,0,P|204:324|184:264,1,89.9999976158143
88,184,64143,2,0,P|83:139|102:99,1,89.9999976158143
192,40,64379,1,8,0:0:0:0:
372,176,64615,2,0,L|268:160,1,89.9999976158143
208,188,64851,6,0,L|385:215,1,179.999995231629
400,100,65206,1,0,0:0:0:0:
284,84,65324,2,0,L|300:196,1,89.9999976158143,8|0,0:0|0:0,0:0:0:0:
260,361,65560,2,0,L|248:272,1,89.9999976158143
59,236,65796,2,0,P|91:192|227:204,1,179.999995231629
504,328,66269,2,0,L|304:308,1,179.999995231629,8|8,0:0|0:0,0:0:0:0:
216,296,66623,1,8,0:0:0:0:
120,344,66741,6,0,B|108:280|108:280|124:224|124:224|104:136,1,179.999995231629,4|0,0:0|0:0,0:0:0:0:
180,84,67096,1,0,0:0:0:0:
180,84,67214,2,0,P|192:36|188:-12,1,89.9999976158143,8|0,0:0|0:0,0:0:0:0:
220,184,67450,2,0,P|268:196|316:192,1,89.9999976158143
468,153,67686,5,0,0:0:0:0:
372,105,67804,1,0,0:0:0:0:
308,193,67922,2,0,L|328:381,1,179.999995231629,0|8,0:0|0:0,0:0:0:0:
420,288,68277,1,0,0:0:0:0:
420,288,68395,2,0,L|512:300,1,89.9999976158143
232,352,68631,6,0,L|140:364,1,89.9999976158143
76,256,68867,2,0,L|168:244,1,89.9999976158143
388,240,69103,2,0,P|400:192|376:124,1,89.9999976158143,8|0,0:0|0:0,0:0:0:0:
168,72,69340,2,0,P|160:116|172:159,1,89.9999976158143,0|8,0:0|0:0,0:0:0:0:
252,220,69576,5,0,0:0:0:0:
336,148,69694,1,0,0:0:0:0:
336,148,69753,1,0,0:0:0:0:
336,148,69812,1,8,0:0:0:0:
352,308,69930,1,8,0:0:0:0:
236,208,70048,1,8,0:0:0:0:
432,172,70166,1,8,0:0:0:0:
272,312,70285,1,8,0:0:0:0:
192,108,70403,1,8,0:0:0:0:
460,144,70521,6,0,L|432:344,1,179.999995231629,4|0,0:0|0:0,0:0:0:0:
328,224,70875,1,0,0:0:0:0:
272,312,70993,2,0,P|236:332|168:320,1,89.9999976158143,8|0,0:0|0:0,0:0:0:0:
60,204,71229,2,0,P|96:184|164:196,1,89.9999976158143
328,224,71466,5,0,0:0:0:0:
360,128,71584,1,0,0:0:0:0:
191,107,71702,2,0,L|213:241,1,134.999996423721
216,256,71938,2,0,P|268:240|328:232,1,89.9999976158143,8|0,0:0|0:0,0:0:0:0:
435,322,72174,2,0,P|383:338|323:346,1,89.9999976158143
88,336,72411,6,0,P|140:304|264:308,1,179.999995231629,4|0,0:0|0:0,0:0:0:0:
440,300,72765,1,0,0:0:0:0:
480,220,72883,2,0,P|428:188|304:192,1,179.999995231629,8|0,0:0|0:0,0:0:0:0:
123,164,73237,1,0,0:0:0:0:
191,107,73355,6,0,P|207:163|199:211,1,89.9999976158143
34,174,73592,2,0,L|124:164,1,89.9999976158143
292,216,73828,2,0,L|381:226,1,89.9999976158143,8|0,0:0|0:0,0:0:0:0:
224,376,74064,2,0,L|213:286,1,89.9999976158143
332,72,74300,6,0,L|310:250,1,179.999995231629,4|0,0:0|0:0,0:0:0:0:
304,340,74655,1,0,0:0:0:0:
304,340,74773,2,0,P|360:328|412:324,1,89.9999976158143,8|0,0:0|0:0,0:0:0:0:
208,280,75009,1,0,0:0:0:0:
124,360,75127,1,0,0:0:0:0:
20,312,75245,6,0,L|32:208,1,89.9999976158143
128,160,75481,1,0,0:0:0:0:
128,160,75600,1,0,0:0:0:0:
112,40,75718,2,0,L|4:56,1,89.9999976158143,8|0,0:0|0:0,0:0:0:0:
136,200,75954,2,0,L|244:184,1,89.9999976158143
464,212,76190,5,0,0:0:0:0:
440,96,76308,1,0,0:0:0:0:
328,124,76426,1,0,0:0:0:0:
352,240,76544,1,0,0:0:0:0:
464,212,76662,2,0,L|456:336,1,89.9999976158143,8|0,0:0|0:0,0:0:0:0:
288,384,76899,2,0,L|282:294,1,89.9999976158143
328,124,77135,5,0,0:0:0:0:
344,228,77253,1,0,0:0:0:0:
360,328,77371,2,0,P|400:320|472:312,1,89.9999976158143
192,268,77607,5,8,0:0:0:0:
168,372,77725,1,0,0:0:0:0:
280,284,77844,1,8,0:3:0:0:
144,176,77962,1,0,0:0:0:0:
40,307,78080,6,0,P|104:327|196:255,1,179.999995231629,4|0,0:0|0:0,0:0:0:0:
80,124,78434,1,0,0:0:0:0:
80,124,78552,2,0,P|66:183|95:234,1,89.9999976158143,8|0,0:0|0:0,0:0:0:0:
224,348,78788,2,0,L|320:336,1,89.9999976158143
344,228,79025,5,0,0:0:0:0:
364,124,79143,1,0,0:0:0:0:
264,160,79261,2,0,L|168:172,1,89.9999976158143
372,232,79497,2,0,L|468:244,1,89.9999976158143,8|0,0:0|0:0,0:0:0:0:
375,34,79733,2,0,L|363:130,1,89.9999976158143
224,348,79970,6,0,L|201:169,1,179.999995231629
56,56,80324,1,0,0:0:0:0:
24,140,80442,2,0,L|132:128,1,89.9999976158143,8|0,0:0|0:0,0:0:0:0:
380,200,80678,2,0,L|290:190,1,89.9999976158143
56,320,80914,5,0,0:0:0:0:
132,268,81033,1,0,0:0:0:0:
220,280,81151,1,0,0:0:0:0:
272,356,81269,1,0,0:0:0:0:
360,368,81387,2,0,L|449:355,1,89.9999976158143,8|0,0:0|0:0,0:0:0:0:
455,231,81623,2,0,P|459:186|446:143,1,89.9999976158143
216,112,81859,6,0,P|276:136|364:36,1,179.999995231629
120,104,82214,1,0,0:0:0:0:
136,192,82332,2,0,L|46:185,1,89.9999976158143,8|0,0:0|0:0,0:0:0:0:
192,352,82568,1,0,0:0:0:0:
212,256,82686,1,0,0:0:0:0:
120,288,82804,5,0,0:0:0:0:
296,324,82922,1,0,0:0:0:0:
328,148,83040,2,0,L|320:48,1,89.9999976158143
204,166,83277,2,0,L|211:255,1,89.9999976158143,8|0,0:0|0:0,0:0:0:0:
408,364,83513,2,0,P|416:308|420:256,1,89.9999976158143
248,96,83749,5,0,0:0:0:0:
296,324,83985,2,0,L|492:304,1,179.999995231629,8|8,0:0|0:0,0:0:0:0:
204,164,84458,5,0,0:0:0:0:
364,136,84576,1,8,0:0:0:0:
224,80,84694,5,0,0:0:0:0:
276,248,84812,1,0,0:0:0:0:
392,136,84930,5,8,0:0:0:0:
180,176,85048,1,8,0:0:0:0:
332,296,85166,5,8,0:0:0:0:
304,88,85285,1,8,0:0:0:0:
172,280,85403,5,8,0:0:0:0:
428,320,85521,1,8,0:0:0:0:
316,48,85639,5,2,0:0:0:0:
