osu file format v12

[General]
AudioFilename: Blumenkranz.mp3
AudioLeadIn: 0
PreviewTime: 120418
Countdown: 2
SampleSet: Soft
StackLeniency: 0.7
Mode: 0
LetterboxInBreaks: 1
WidescreenStoryboard: 1

[Editor]
Bookmarks: 12418,34168,48418,72418,108418,120418,144418,160168,180418,204418,216418,240418
DistanceSpacing: 1
BeatDivisor: 2
GridSize: 8
TimelineZoom: 1

[Metadata]
Title:Blumenkranz
TitleUnicode:Blumenkranz
Artist:Sawano Hiroyuki
ArtistUnicode:澤野 弘之
Creator:Nukedboom
Version:Normal
Source:Kill la Kill
Tags:Kiryuin Kiryuuin Ragyou Satsuki German Official Soundtrack OST
BeatmapID:374211
BeatmapSetID:151935

[Difficulty]
HPDrainRate:4
CircleSize:3
OverallDifficulty:4
ApproachRate:3
SliderMultiplier:1.2
SliderTickRate:2

[Events]
//Background and Video events
0,0,"Kiryuin Satsuki.jpg",0,0
//Break Periods
2,23868,34978
2,96617,106978
2,166367,178978
//Storyboard Layer 0 (Background)
//Storyboard Layer 1 (Fail)
//Storyboard Layer 2 (Pass)
//Storyboard Layer 3 (Foreground)
//Storyboard Sound Samples
//Background Colour Transformations
3,100,163,162,255

[TimingPoints]
12418.5663881023,375,4,1,1,100,1,0
14293,-100,4,3,0,100,0,0
14668,-100,4,1,1,100,0,0
17293,-100,4,3,0,100,0,0
17668,-100,4,1,1,100,0,0
20293,-100,4,3,0,100,0,0
20668,-100,4,1,1,100,0,0
23293,-100,4,3,0,100,0,0
23668,-100,4,1,1,100,0,0
37168,-100,4,1,2,100,0,0
37356,-100,4,1,1,100,0,0
38293,-100,4,3,0,100,0,0
38668,-100,4,1,1,100,0,0
41293,-100,4,3,0,100,0,0
41668,-100,4,1,1,100,0,0
44293,-100,4,3,0,100,0,0
44668,-100,4,1,1,100,0,0
47293,-100,4,3,0,100,0,0
47668,-100,4,1,1,100,0,0
72418,-100,4,1,1,100,0,1
96418,-100,4,1,1,100,0,0
110293,-100,4,3,0,100,0,0
110668,-100,4,1,1,100,0,0
113293,-100,4,3,0,100,0,0
113668,-100,4,1,1,100,0,0
116293,-100,4,3,0,100,0,0
116668,-100,4,1,1,100,0,0
119293,-100,4,3,0,100,0,0
119668,-100,4,1,1,100,0,0
120418,-100,4,1,1,100,0,1
144418,-100,4,2,0,100,0,0
186418,-100,4,1,1,100,0,0
187168,-100,4,2,0,100,0,0
188668,-100,4,1,1,100,0,0
216418,-100,4,1,1,100,0,1
240418,-100,4,1,1,100,0,0

[Colours]
Combo1 : 0,128,255
Combo2 : 255,0,0

[HitObjects]
256,192,12418,5,0,0:0:0:0:
144,152,12793,2,0,B|184:72|184:72|264:72,1,120,0|8,0:0|0:0,0:0:0:0:
256,184,13543,1,0,0:0:0:0:
312,208,13731,1,8,0:0:0:0:
368,232,13918,2,0,B|328:312|328:312|248:312,1,120,0|2,0:0|0:0,0:0:0:0:
176,312,14668,1,0,0:0:0:0:
256,88,15418,2,0,B|208:112|176:144|168:216,1,120,0|0,0:0|0:0,0:0:0:0:
296,192,16168,6,0,L|128:64,2,180,8|8|2,0:0|0:0|0:0,0:0:0:0:
392,264,17668,1,0,0:0:0:0:
144,288,18418,2,0,L|144:136,1,120
240,240,19168,2,0,L|240:88,1,120,8|0,0:0|0:0,0:0:0:0:
288,152,19731,1,8,0:0:0:0:
336,192,19918,2,0,L|336:336,2,120,0|2|0,0:0|0:0|0:0,0:0:0:0:
96,192,21418,5,0,0:0:0:0:
200,256,21793,2,0,L|232:312,2,60,0|8|8,0:0|0:0|0:0,0:0:0:0:
200,136,22543,2,0,L|264:80,2,60,0|8|8,0:0|0:0|0:0,0:0:0:0:
304,192,23293,2,0,L|424:192,1,120,2|8,0:0|0:0,0:0:0:0:
168,176,36418,5,0,0:0:0:0:
216,64,36793,2,0,B|96:80|96:80|48:200,1,240,0|0,0:0|0:0,0:0:0:0:
80,240,37731,1,8,0:0:0:0:
112,296,37918,1,0,0:0:0:0:
216,352,38293,2,0,B|264:360|304:352|352:304,1,120,2|0,0:0|0:0,0:0:0:0:
248,96,39418,5,0,0:0:0:0:
136,136,39793,2,0,P|192:184|248:200,1,120,0|8,0:0|0:0,0:0:0:0:
352,200,40543,2,0,L|312:256,1,60,0|8,0:0|0:0,0:0:0:0:
272,288,40918,2,0,P|216:328|152:344,1,120,0|2,0:0|0:0,0:0:0:0:
48,344,41668,1,0,0:0:0:0:
192,152,42418,2,0,P|240:88|288:64,1,120
312,184,43168,1,8,0:0:0:0:
416,264,43543,6,0,P|384:312|368:328,1,60,0|8,0:0|0:0,0:0:0:0:
336,344,43918,1,0,0:0:0:0:
304,232,44293,1,2,0:0:0:0:
384,144,44668,1,0,0:0:0:0:
152,208,45418,1,0,0:0:0:0:
56,144,45793,1,0,0:0:0:0:
72,200,45981,2,8,L|88:264,1,60
200,288,46543,2,0,L|224:360,2,60,0|8|8,0:0|0:0|0:0,0:0:0:0:
320,232,47293,6,0,B|296:161|245:143,1,120,2|0,0:0|0:0,0:0:0:0:
128,128,48043,2,0,P|140:87|168:56,1,60,0|8,0:0|0:0,0:0:0:0:
208,56,48418,2,0,B|272:32|329:27|384:32|448:64,1,240
440,184,49543,1,0,0:0:0:0:
440,304,49918,2,0,B|376:328|318:332|264:328|200:296,1,240
208,176,51043,5,0,0:0:0:0:
216,56,51418,2,0,B|152:56|104:88|80:152|88:216|120:256,1,240
208,176,52543,1,0,0:0:0:0:
208,296,52918,2,0,B|272:296|320:264|344:200|336:136|304:96,2,240
88,296,54793,6,0,B|72:240|120:200|184:200,1,120
368,120,55918,1,0,0:0:0:0:
496,120,56293,2,0,B|488:80|480:56|456:32|416:8,1,120
200,56,57418,2,0,L|104:136,1,120
16,208,58168,1,0,0:0:0:0:
240,304,58918,6,0,L|368:304,1,120
480,296,59668,2,0,B|432:168|432:168|280:168,1,240
208,168,60793,1,0,0:0:0:0:
88,168,61168,2,0,B|136:288|136:288|296:288,1,240
256,168,62293,5,0,0:0:0:0:
256,48,62668,2,0,B|336:48|336:48|392:104|392:104|392:192,1,240
272,168,63793,1,0,0:0:0:0:
272,288,64168,2,0,B|192:288|192:288|136:232|136:232|136:144,2,240
256,48,66418,5,0,0:0:0:0:
256,168,66793,2,0,L|392:168,2,120
136,168,67918,1,0,0:0:0:0:
136,288,68293,2,0,L|8:288,2,120
256,192,72418,1,4,0:0:0:0:
304,304,72793,6,0,P|360:264|376:216,2,120,0|8|0,0:0|0:0|0:0,0:0:0:0:
184,296,73918,1,8,0:0:0:0:
96,216,74293,2,0,P|56:152|72:96,1,120,0|8,0:0|0:0,0:0:0:0:
184,136,75043,1,0,0:0:0:0:
416,88,75793,2,0,P|440:152|440:208,1,120,0|8,0:0|0:0,0:0:0:0:
328,160,76543,2,0,P|313:93|282:46,1,120,0|8,0:0|0:0,0:0:0:0:
208,144,77293,6,0,P|232:208|232:264,1,120,0|8,0:0|0:0,0:0:0:0:
120,216,78043,2,0,P|105:149|74:102,1,120,0|8,0:0|0:0,0:0:0:0:
264,256,79168,2,0,B|384:288|384:288|448:192,1,240,8|8,0:0|0:0,0:0:0:0:
336,160,80293,1,0,0:0:0:0:
224,128,80668,2,8,B|104:96|104:96|40:192,1,240
256,304,82168,5,8,0:0:0:0:
376,304,82543,1,0,0:0:0:0:
376,184,82918,1,8,0:0:0:0:
256,192,83293,1,0,0:0:0:0:
136,184,83668,2,8,B|152:128|200:88|256:72|304:88|336:120,1,240
360,224,84793,6,0,P|416:184|432:136,2,120,0|8|0,0:0|0:0|0:0,0:0:0:0:
240,200,85918,1,8,0:0:0:0:
360,224,86293,2,0,P|400:288|384:344,1,120,0|8,0:0|0:0,0:0:0:0:
272,304,87043,1,0,0:0:0:0:
32,320,87793,2,0,P|8:256|8:200,1,120,0|8,0:0|0:0,0:0:0:0:
128,216,88543,2,0,P|142:282|173:329,1,120,0|8,0:0|0:0,0:0:0:0:
272,264,89293,6,0,P|248:200|248:144,1,120,0|8,0:0|0:0,0:0:0:0:
368,168,90043,2,0,P|382:234|413:281,1,120,0|8,0:0|0:0,0:0:0:0:
232,120,91168,2,8,B|112:88|112:88|48:184,1,240
160,224,92293,1,0,0:0:0:0:
280,256,92668,2,8,B|400:288|400:288|464:192,1,240
256,80,94168,5,8,0:0:0:0:
136,80,94543,1,0,0:0:0:0:
136,200,94918,1,8,0:0:0:0:
256,192,95293,1,0,0:0:0:0:
376,200,95668,2,0,B|360:256|312:296|256:312|208:296|176:264,1,240,8|0,0:0|0:0,0:0:0:0:
256,192,108418,5,0,0:0:0:0:
368,232,108793,2,0,B|328:312|328:312|248:312,1,120,0|8,0:0|0:0,0:0:0:0:
256,200,109543,1,0,0:0:0:0:
200,176,109731,1,8,0:0:0:0:
144,152,109918,2,0,B|184:72|184:72|264:72,1,120,0|2,0:0|0:0,0:0:0:0:
336,72,110668,1,0,0:0:0:0:
256,296,111418,2,0,B|304:272|336:240|344:168,1,120
216,192,112168,6,0,L|384:320,2,180,8|8|2,0:0|0:0|0:0,0:0:0:0:
120,120,113668,1,0,0:0:0:0:
368,96,114418,2,0,L|368:248,1,120
272,144,115168,2,0,L|272:296,1,120
224,232,115731,1,8,0:0:0:0:
176,192,115918,2,0,L|176:48,2,120,0|2|0,0:0|0:0|0:0,0:0:0:0:
416,192,117418,5,0,0:0:0:0:
312,128,117793,2,0,L|280:72,2,60,0|8|8,0:0|0:0|0:0,0:0:0:0:
312,248,118543,2,0,L|248:304,2,60,0|8|8,0:0|0:0|0:0,0:0:0:0:
208,192,119293,2,0,L|88:192,1,120,2|0,0:0|0:0,0:0:0:0:
328,192,120418,1,4,0:0:0:0:
208,192,120793,6,0,P|224:112|248:80,1,120,0|8,0:0|0:0,0:0:0:0:
352,136,121543,2,0,P|424:88|464:80,2,120,0|8|0,0:0|0:0|0:0,0:0:0:0:
304,248,122668,2,8,B|256:328|192:344|120:328|64:304,1,240
160,216,123793,2,0,P|72:192|56:168,1,120,0|8,0:0|0:0,0:0:0:0:
168,112,124543,2,0,P|112:72|80:24,3,120,0|8|0|8,0:0|0:0|0:0|0:0,0:0:0:0:
280,168,126418,5,8,0:0:0:0:
368,248,126793,2,0,P|400:192|400:128,1,120,0|8,0:0|0:0,0:0:0:0:
288,168,127543,2,0,P|256:240|216:272,1,120,0|8,0:0|0:0,0:0:0:0:
120,320,128293,1,0,0:0:0:0:
144,200,128668,2,8,B|160:144|208:88|264:56|336:48,1,240
440,64,129793,5,0,0:0:0:0:
416,184,130168,1,8,0:0:0:0:
296,160,130543,2,0,L|264:280,2,120,0|8|0,0:0|0:0|0:0,0:0:0:0:
320,40,131668,1,8,0:0:0:0:
136,192,132418,2,8,B|120:256|144:320|208:344|280:352,1,240,4|0,0:0|0:0,0:0:0:0:
368,288,133543,6,0,P|288:256|256:224,2,120,0|8|0,0:0|0:0|0:0,0:0:0:0:
320,176,134668,2,0,P|408:216|448:216,2,120,8|0|8,0:0|0:0|0:0,0:0:0:0:
216,120,135793,1,0,0:0:0:0:
104,80,136168,1,8,0:0:0:0:
56,192,136543,1,0,0:0:0:0:
168,232,136918,5,8,0:0:0:0:
128,344,137293,2,0,L|272:344,1,120,0|8,0:0|0:0,0:0:0:0:
384,144,138418,1,4,0:0:0:0:
296,224,138793,2,0,P|280:144|256:112,1,120,0|8,0:0|0:0,0:0:0:0:
144,152,139543,2,0,P|72:104|32:96,2,120,0|8|0,0:0|0:0|0:0,0:0:0:0:
216,248,140668,6,8,B|264:328|328:344|400:328|456:304,1,240
352,216,141793,2,0,P|416:200|464:160,1,120,0|8,0:0|0:0,0:0:0:0:
344,112,142543,2,0,P|400:72|432:24,3,120,0|8|0|8,0:0|0:0|0:0|0:0,0:0:0:0:
200,104,144418,5,2,0:0:0:0:
96,168,144793,1,0,0:0:0:0:
136,280,145168,1,2,0:0:0:0:
376,256,145918,1,2,0:0:0:0:
480,192,146293,1,0,0:0:0:0:
440,80,146668,1,2,0:0:0:0:
208,152,147418,6,0,P|160:128|120:72,1,120,2|0,0:0|0:0,0:0:0:0:
120,72,148168,1,2,0:0:0:0:
296,232,148918,2,0,P|344:256|384:312,1,120,2|0,0:0|0:0,0:0:0:0:
384,304,149668,1,2,0:0:0:0:
152,272,150418,6,0,L|16:272,2,120,2|0|2,0:0|0:0|0:0,0:0:0:0:
328,112,151918,2,0,L|448:112,2,120,2|0|2,0:0|0:0|0:0,0:0:0:0:
88,104,153418,5,2,0:0:0:0:
328,112,154168,1,2,0:0:0:0:
208,320,154918,1,2,0:0:0:0:
328,320,155293,1,0,0:0:0:0:
448,320,155668,1,2,0:0:0:0:
256,184,156418,5,2,0:0:0:0:
152,120,156793,2,0,P|96:72|72:32,2,120,0|2|0,0:0|0:0|0:0,0:0:0:0:
256,184,157918,1,2,0:0:0:0:
360,120,158293,2,0,P|416:72|440:32,2,120,0|2|0,0:0|0:0|0:0,0:0:0:0:
160,256,159793,6,0,P|104:304|80:344,2,120,0|2|0,0:0|0:0|0:0,0:0:0:0:
256,184,160918,1,2,0:0:0:0:
352,256,161293,2,0,P|408:304|432:344,2,120,0|2|0,0:0|0:0|0:0,0:0:0:0:
320,144,162418,6,0,B|256:184|240:240|256:304|304:352,2,240,2|2|2,0:0|0:0|0:0,0:0:0:0:
376,248,164293,1,0,0:0:0:0:
376,248,164668,2,0,B|304:288|208:216|128:256,2,240,2|2|2,0:0|0:0|0:0,0:0:0:0:
256,192,180418,5,2,0:0:0:0:
144,152,180793,2,0,P|200:96|256:80,1,120,0|2,0:0|0:0,0:0:0:0:
256,192,181543,2,0,P|208:240|144:256,2,120,0|2|0,0:0|0:0|0:0,0:0:0:0:
360,128,182668,1,2,0:0:0:0:
360,128,183043,2,0,P|400:72|448:40,2,120,0|2|0,0:0|0:0|0:0,0:0:0:0:
392,248,184168,5,2,0:0:0:0:
448,344,184543,2,0,B|384:360|384:360|296:328,1,120,0|2,0:0|0:0,0:0:0:0:
128,224,185668,2,0,B|112:160|112:160|152:96,1,120,2|0,0:0|0:0,0:0:0:0:
248,168,186418,2,0,B|272:112|272:112|240:40,2,120,0|0|2,0:0|0:0|0:0,0:0:0:0:
184,272,187543,1,0,0:0:0:0:
296,312,187918,5,2,0:0:0:0:
360,208,188293,1,0,0:0:0:0:
400,96,188668,2,0,B|328:48|256:40|184:48|128:72,1,240
56,96,189793,1,0,0:0:0:0:
288,144,190543,2,0,P|368:168|488:128,2,180
248,48,192043,1,0,0:0:0:0:
144,104,192418,5,4,0:0:0:0:
200,208,192793,2,0,P|207:267|238:317,1,120,0|8,0:0|0:0,0:0:0:0:
344,256,193543,2,0,P|390:293|447:311,2,120,0|8|0,0:0|0:0|0:0,0:0:0:0:
296,144,194667,2,8,B|248:64|184:48|136:56|88:72,1,240
159,167,195793,2,0,P|101:171|58:211,1,120,0|8,0:0|0:0,0:0:0:0:
167,272,196543,2,0,P|118:305|83:353,3,120,0|8|0|8,0:0|0:0|0:0|0:0,0:0:0:0:
280,216,198418,5,8,0:0:0:0:
368,136,198794,2,0,P|398:186|402:246,1,120,0|8,0:0|0:0,0:0:0:0:
287,215,199543,2,0,P|267:159|225:117,1,120,0|8,0:0|0:0,0:0:0:0:
120,64,200293,1,0,0:0:0:0:
144,184,200668,2,8,B|160:240|208:296|264:328|317:333,1,240
440,320,201793,5,0,0:0:0:0:
416,200,202168,1,8,0:0:0:0:
296,224,202543,2,0,L|265:108,2,120,0|8|0,0:0|0:0|0:0,0:0:0:0:
320,344,203668,1,8,0:0:0:0:
136,192,204417,2,0,B|120:128|144:64|208:40|269:33,1,240,0|8,0:0|0:0,0:0:0:0:
367,96,205544,6,0,P|310:113|263:150,2,120,0|8|0,0:0|0:0|0:0,0:0:0:0:
320,207,206668,2,0,P|371:177|429:166,2,120,8|0|8,0:0|0:0|0:0,0:0:0:0:
216,264,207793,1,0,0:0:0:0:
104,304,208168,1,8,0:0:0:0:
56,192,208543,1,0,0:0:0:0:
168,152,208918,5,8,0:0:0:0:
128,40,209293,2,0,L|248:40,1,120,0|8,0:0|0:0,0:0:0:0:
384,240,210418,1,8,0:0:0:0:
296,160,210793,2,0,P|289:219|258:269,1,120,0|8,0:0|0:0,0:0:0:0:
143,232,211544,2,0,P|97:269|40:287,2,120,0|8|0,0:0|0:0|0:0,0:0:0:0:
216,136,212668,6,8,B|264:56|328:40|400:56|424:68,1,240
352,167,213793,2,0,P|410:181|457:216,1,120,0|8,0:0|0:0,0:0:0:0:
344,272,214543,2,0,P|393:305|428:353,2,120,0|8|0,0:0|0:0|0:0,0:0:0:0:
232,320,215668,1,8,0:0:0:0:
336,104,216418,6,0,B|304:88|256:80|208:88|152:128|136:184,1,240,4|8,0:0|0:0,0:0:0:0:
256,192,217543,1,0,0:0:0:0:
376,184,217918,1,8,0:0:0:0:
376,304,218293,1,0,0:0:0:0:
256,304,218668,1,8,0:0:0:0:
48,192,219418,6,8,B|112:96|112:96|232:128,1,240
352,160,220543,1,0,0:0:0:0:
464,200,220918,2,8,B|400:296|400:296|280:264,1,240
102,106,222418,6,0,P|132:157|144:216,1,120,8|0,0:0|0:0,0:0:0:0:
264,235,223169,2,0,P|262:175|240:120,1,120,8|0,0:0|0:0,0:0:0:0:
342,58,223919,2,0,P|372:109|384:168,1,120,8|0,0:0|0:0,0:0:0:0:
504,179,224669,2,0,P|502:119|480:64,1,120,8|0,0:0|0:0,0:0:0:0:
240,80,225793,5,0,0:0:0:0:
118,55,226169,2,0,P|115:113|152:160,1,120,8|0,0:0|0:0,0:0:0:0:
272,176,226918,1,0,0:0:0:0:
384,216,227293,2,0,P|424:280|424:336,2,120,8|0|8,0:0|0:0|0:0,0:0:0:0:
312,312,228418,2,0,B|240:312|208:256|208:256|152:296|80:264,1,240,4|8,0:0|0:0,0:0:0:0:
152,168,229543,5,0,0:0:0:0:
32,168,229918,1,8,0:0:0:0:
96,64,230293,1,0,0:0:0:0:
216,64,230668,1,8,0:0:0:0:
432,176,231419,2,8,B|368:272|368:272|248:240,1,240,0|8,0:0|0:0,0:0:0:0:
128,216,232543,1,0,0:0:0:0:
16,184,232919,6,8,B|80:88|80:88|200:120,1,240,8|8,0:0|0:0,0:0:0:0:
424,200,234418,2,0,P|393:148|382:90,1,120,8|0,0:0|0:0,0:0:0:0:
272,128,235168,2,0,P|274:187|296:243,1,120,8|0,0:0|0:0,0:0:0:0:
192,304,235918,2,0,P|161:252|150:194,1,120,8|0,0:0|0:0,0:0:0:0:
40,248,236669,2,0,P|42:307|64:363,1,120,8|0,0:0|0:0,0:0:0:0:
176,312,237418,5,8,0:0:0:0:
288,352,237793,2,0,P|336:304|352:240,1,120,0|8,0:0|0:0,0:0:0:0:
360,136,238543,1,0,0:0:0:0:
480,136,238918,2,0,B|456:56|456:56|360:17,2,180,8|0|8,0:0|0:0|0:0,0:0:0:0:
360,136,240418,1,0,0:0:0:0:
