osu file format v12

[General]
AudioFilename: Blumenkranz.mp3
AudioLeadIn: 0
PreviewTime: 120418
Countdown: 2
SampleSet: Normal
StackLeniency: 0.7
Mode: 0
LetterboxInBreaks: 1
WidescreenStoryboard: 1

[Editor]
Bookmarks: 12418,34168,48418,72418,108418,120418,144418,160168,180418,216418,240418
DistanceSpacing: 1
BeatDivisor: 1
GridSize: 8
TimelineZoom: 1

[Metadata]
Title:Blumenkranz
TitleUnicode:Blumenkranz
Artist:Sawano Hiroyuki
ArtistUnicode:澤野 弘之
Creator:Nukedboom
Version:Easy
Source:Kill la Kill
Tags:Kiryuin Kiryuuin Ragyou Satsuki German Official Soundtrack OST
BeatmapID:374210
BeatmapSetID:151935

[Difficulty]
HPDrainRate:2
CircleSize:2
OverallDifficulty:2
ApproachRate:1
SliderMultiplier:1
SliderTickRate:1

[Events]
//Background and Video events
0,0,"Kiryuin Satsuki.jpg",0,0
//Break Periods
2,23868,32488
2,96618,106738
//Storyboard Layer 0 (Background)
//Storyboard Layer 1 (Fail)
//Storyboard Layer 2 (Pass)
//Storyboard Layer 3 (Foreground)
//Storyboard Sound Samples
//Background Colour Transformations
3,100,163,162,255

[TimingPoints]
12418.5663881023,375,4,1,1,100,1,0
14293,-100,4,3,0,100,0,0
14668,-100,4,1,1,100,0,0
17293,-100,4,3,0,100,0,0
17668,-100,4,1,1,100,0,0
19918,-100,4,1,1,100,0,0
20293,-100,4,3,0,100,0,0
20668,-100,4,1,1,100,0,0
23293,-100,4,3,0,100,0,0
23668,-100,4,1,1,100,0,0
38293,-100,4,3,0,100,0,0
38668,-100,4,1,1,100,0,0
41293,-100,4,3,0,100,0,0
41668,-100,4,1,1,100,0,0
43168,-100,4,1,2,100,0,0
43543,-100,4,1,1,100,0,0
44293,-100,4,3,0,100,0,0
44668,-100,4,1,1,100,0,0
46168,-100,4,1,2,100,0,0
46543,-100,4,1,1,100,0,0
47293,-100,4,3,0,100,0,0
47668,-100,4,1,1,100,0,0
72418,-100,4,1,1,100,0,1
96418,-100,4,1,1,100,0,0
110293,-100,4,3,0,100,0,0
110668,-100,4,1,1,100,0,0
113293,-100,4,3,0,100,0,0
113668,-100,4,1,1,100,0,0
116293,-100,4,3,0,100,0,0
116668,-100,4,1,1,100,0,0
119293,-100,4,3,0,100,0,0
119668,-100,4,1,1,100,0,0
120418,-100,4,1,1,100,0,1
144418,-100,4,2,0,100,0,0
186418,-100,4,1,1,100,0,0
187168,-100,4,2,0,100,0,0
188668,-100,4,1,1,100,0,0
216418,-100,4,1,1,100,0,1
240418,-100,4,1,1,100,0,0

[Colours]
Combo1 : 0,128,255
Combo2 : 255,0,0

[HitObjects]
336,72,12418,5,0,0:0:0:0:
184,208,13168,2,0,P|112:224|40:200,2,150,8|8|2,0:0|0:0|0:0,0:0:0:0:
256,136,14668,2,0,B|192:120|136:96|80:32,2,200,8|0|8,0:0|0:0|0:0,0:0:0:0:
328,264,16731,2,0,P|376:200|400:120,1,150,8|2,0:0|0:0,0:0:0:0:
360,40,17668,1,8,0:0:0:0:
160,72,18418,5,0,0:0:0:0:
184,168,18793,1,0,0:0:0:0:
88,144,19168,2,0,B|32:232|32:232|120:296,1,200,8|0,0:0|0:0,0:0:0:0:
200,320,20293,1,2,0:0:0:0:
280,264,20668,1,8,0:0:0:0:
456,160,21418,6,0,P|488:112|496:8,2,150,0|8|8,0:0|0:0|0:0,0:0:0:0:
352,152,22918,1,0,0:0:0:0:
392,240,23293,1,2,0:0:0:0:
296,232,23668,1,8,0:0:0:0:
256,192,34168,12,0,35668,0:0:0:0:
408,120,36418,6,0,B|328:88|264:88|184:128,1,200,0|8,0:0|0:0,0:0:0:0:
256,200,37543,2,0,B|176:232|112:232|24:192,1,200,0|2,0:0|0:0,0:0:0:0:
80,112,38668,2,0,L|176:32,1,100
256,64,39418,6,0,B|336:32|400:32|480:72,1,200,0|8,0:0|0:0,0:0:0:0:
456,160,40543,2,0,B|376:192|312:192|224:152,1,200,0|2,0:0|0:0,0:0:0:0:
160,168,41668,1,0,0:0:0:0:
80,112,42043,1,0,0:0:0:0:
168,64,42418,1,0,0:0:0:0:
264,48,42793,6,0,B|329:28|392:48|424:112|408:176,1,200,0|0,0:0|0:0,0:0:0:0:
416,240,43918,2,0,B|464:296|528:328,2,100,0|2|0,0:0|0:0|0:0,0:0:0:0:
288,88,45418,1,0,0:0:0:0:
192,72,45793,2,0,B|112:96|80:152|72:240,1,200
144,288,46918,5,0,0:0:0:0:
240,264,47293,1,2,0:0:0:0:
320,208,47668,2,0,B|296:168|232:144|168:168|136:224,2,200
256,24,49918,6,0,B|280:64|344:88|408:72|440:24,2,200
72,104,52168,2,0,B|112:128|136:192|112:256|64:288,2,200
256,32,54418,6,0,B|208:64|192:120|216:192|288:216,2,200
432,128,56668,1,0,0:0:0:0:
440,328,57418,1,0,0:0:0:0:
240,328,58168,1,0,0:0:0:0:
248,128,58918,5,0,0:0:0:0:
48,120,59668,1,0,0:0:0:0:
48,320,60418,1,4,0:0:0:0:
144,280,60793,2,0,B|216:256|216:256|264:304|264:304|352:272,1,200
408,248,61918,1,4,0:0:0:0:
360,160,62293,6,0,B|304:112|304:112|240:135|240:135|171:71,1,200
120,32,63418,1,4,0:0:0:0:
112,128,63793,2,0,B|136:200|136:200|88:248|88:248|120:336,1,200
200,272,64918,2,4,B|254:219|254:219|235:154|235:154|304:92,1,200,4|4,0:0|0:0,0:0:0:0:
384,280,66418,6,0,L|456:352,2,100
184,272,67918,2,0,L|88:368,2,100
296,104,69418,1,0,0:0:0:0:
256,192,72418,5,4,0:0:0:0:
408,320,73168,1,8,0:0:0:0:
456,232,73543,2,0,P|480:168|456:96,1,100,0|8,0:0|0:0,0:0:0:0:
384,168,74293,2,0,P|384:80|424:40,2,100,0|8|0,0:0|0:0|0:0,0:0:0:0:
208,72,75793,5,0,0:0:0:0:
128,136,76168,2,0,P|104:200|128:272,1,100,8|0,0:0|0:0,0:0:0:0:
208,208,76918,2,0,P|208:296|168:336,2,100,8|0|8,0:0|0:0|0:0,0:0:0:0:
144,128,78043,1,0,0:0:0:0:
232,112,78418,6,0,B|288:152|368:152|432:112,1,200,8|0,0:0|0:0,0:0:0:0:
448,216,79543,2,0,B|381:233|329:294|319:369,1,200,8|0,0:0|0:0,0:0:0:0:
224,320,80668,2,0,B|264:264|264:184|224:120,1,200,8|0,0:0|0:0,0:0:0:0:
144,80,81793,1,0,0:0:0:0:
72,152,82168,1,8,0:0:0:0:
176,320,82918,5,0,0:0:0:0:
264,360,83293,1,0,0:0:0:0:
344,304,83668,2,0,B|424:232|424:232|392:128,2,200,8|4|8,0:0|0:0|0:0,0:0:0:0:
192,184,85918,2,0,L|104:280,1,100,8|0,0:0|0:0,0:0:0:0:
48,192,86668,2,0,L|120:112,1,100,8|0,0:0|0:0,0:0:0:0:
176,40,87418,1,8,0:0:0:0:
352,128,88168,6,0,L|416:40,1,100,8|0,0:0|0:0,0:0:0:0:
480,120,88918,2,0,L|408:208,1,100,8|0,0:0|0:0,0:0:0:0:
360,280,89668,1,8,0:0:0:0:
176,208,90418,2,0,B|136:152|128:104|144:48|184:0,1,200,8|8,0:0|0:0,0:0:0:0:
232,104,91543,1,0,0:0:0:0:
368,248,92293,5,0,0:0:0:0:
416,160,92668,1,8,0:0:0:0:
224,104,93418,2,0,B|168:144|88:144|24:104,1,200,0|8,0:0|0:0,0:0:0:0:
0,208,94543,2,0,B|66:225|118:286|128:361,1,200,0|0,0:0|0:0,0:0:0:0:
224,320,95668,2,0,B|184:264|184:184|224:120,1,200,8|0,0:0|0:0,0:0:0:0:
336,312,108418,5,0,0:0:0:0:
272,232,108793,1,0,0:0:0:0:
184,176,109168,2,0,P|112:160|40:184,2,150,8|8|2,0:0|0:0|0:0,0:0:0:0:
256,248,110668,2,8,B|192:264|136:288|80:352,2,200,0|0|8,0:0|0:0|0:0,0:0:0:0:
328,120,112731,2,0,P|376:184|400:264,1,150,8|2,0:0|0:0,0:0:0:0:
360,344,113668,1,0,0:0:0:0:
160,312,114418,5,0,0:0:0:0:
184,216,114793,1,0,0:0:0:0:
88,240,115168,2,8,B|32:152|32:152|120:88,1,200,8|0,0:0|0:0,0:0:0:0:
200,64,116293,1,2,0:0:0:0:
280,120,116668,1,0,0:0:0:0:
456,224,117418,6,8,P|488:272|496:376,2,150
352,232,118918,1,0,0:0:0:0:
392,144,119293,1,2,0:0:0:0:
296,152,119668,1,8,0:0:0:0:
112,80,120418,5,4,0:0:0:0:
136,280,121168,2,0,B|200:304|264:304|336:280,1,200,8|0,0:0|0:0,0:0:0:0:
424,328,122293,2,0,P|432:264|416:224,1,100,0|8,0:0|0:0,0:0:0:0:
304,72,123418,2,0,P|246:42|203:43,3,100,8|0|8|0,0:0|0:0|0:0|0:0,0:0:0:0:
120,56,124918,6,8,B|24:120|24:120|80:224,1,200,8|8,0:0|0:0,0:0:0:0:
152,152,126043,2,0,B|200:240,1,100,0|8,0:0|0:0,0:0:0:0:
400,248,127168,2,0,L|448:160,1,100,8|0,0:0|0:0,0:0:0:0:
360,112,127918,2,0,L|416:24,2,100,8|0|8,0:0|0:0|0:0,0:0:0:0:
312,304,129418,6,0,L|200:304,1,100,8|0,0:0|0:0,0:0:0:0:
208,208,130168,1,8,0:0:0:0:
304,208,130543,2,0,L|424:208,2,100,0|8|0,0:0|0:0|0:0,0:0:0:0:
248,288,131668,2,8,B|184:256|184:144|256:104,1,200,8|4,0:0|0:0,0:0:0:0:
296,200,132793,6,0,B|360:168|360:56|288:16,1,200,0|0,0:0|0:0,0:0:0:0:
216,64,133918,2,0,L|152:160,1,100,8|0,0:0|0:0,0:0:0:0:
104,224,134668,1,8,0:0:0:0:
200,224,135043,2,0,L|312:200,1,100,0|8,0:0|0:0,0:0:0:0:
304,104,135793,2,0,B|360:112|400:152|408:208|376:264,1,200
160,256,137293,5,0,0:0:0:0:
80,312,137668,1,8,0:0:0:0:
72,112,138418,2,0,L|152:48,1,100,8|0,0:0|0:0,0:0:0:0:
224,120,139168,1,8,0:0:0:0:
288,192,139543,2,0,L|368:288,2,100,0|8|0,0:0|0:0|0:0,0:0:0:0:
360,120,140668,1,8,0:0:0:0:
168,56,141418,6,0,P|112:104|96:160,1,100,8|0,0:0|0:0,0:0:0:0:
192,160,142168,2,0,P|160:208|104:224,1,100,8|0,0:0|0:0,0:0:0:0:
32,184,142918,2,0,P|24:232|48:288,3,100,8|0|8|0,0:0|0:0|0:0|0:0,0:0:0:0:
120,224,144418,5,2,0:0:0:0:
256,80,145168,2,0,B|312:56|400:56|464:88,2,200,2|2|2,0:0|0:0|0:0,0:0:0:0:
352,256,147418,2,0,B|296:288|208:288|136:232,1,200,2|2,0:0|0:0,0:0:0:0:
88,64,148918,1,2,0:0:0:0:
288,64,149668,2,0,B|400:64|400:64|400:160,1,200,2|2,0:0|0:0,0:0:0:0:
400,352,151168,5,2,0:0:0:0:
200,344,151918,2,0,B|96:344|96:344|96:232,1,200,2|2,0:0|0:0,0:0:0:0:
96,48,153418,2,0,B|208:48|208:48|208:176,1,200,2|2,0:0|0:0,0:0:0:0:
408,144,154918,1,2,0:0:0:0:
256,280,155668,1,2,0:0:0:0:
112,144,156418,1,2,0:0:0:0:
256,192,156793,12,2,159418,0:0:0:0:
456,88,160168,5,2,0:0:0:0:
448,288,160918,1,2,0:0:0:0:
248,288,161668,2,0,L|40:288,2,200,2|2|2,0:0|0:0|0:0,0:0:0:0:
448,320,163918,2,0,B|472:240|472:176|448:88,1,200,2|2,0:0|0:0,0:0:0:0:
360,296,165418,2,0,B|384:224|376:152|352:96,2,200,2|2|2,0:0|0:0|0:0,0:0:0:0:
48,48,168418,5,2,0:0:0:0:
416,192,169918,1,2,0:0:0:0:
48,344,171418,5,2,0:0:0:0:
448,336,172918,1,2,0:0:0:0:
56,264,174418,6,0,B|240:192|240:192|64:88,1,400,2|2,0:0|0:0,0:0:0:0:
424,264,177418,2,0,B|240:192|240:192|416:88,1,400,2|2,0:0|0:0,0:0:0:0:
256,192,180418,5,2,0:0:0:0:
160,176,180793,1,0,0:0:0:0:
72,136,181168,2,0,P|24:88|16:48,2,100
264,192,182668,2,0,P|336:232|360:264,1,100
176,352,183793,6,0,P|120:304|120:264,1,100
216,256,184543,1,0,0:0:0:0:
136,192,184918,1,0,0:0:0:0:
224,152,185293,1,0,0:0:0:0:
304,88,185668,2,0,B|368:24|368:24|416:24,1,100
424,104,186418,2,0,B|432:168|464:240,1,100
256,264,187543,6,0,L|168:192,1,100
168,104,188293,2,0,L|248:40,1,100
344,40,189043,2,0,L|408:120,1,100
408,216,189793,2,0,L|336:304,1,100
248,296,190543,2,0,L|128:296,1,100
88,216,191293,2,0,L|64:112,1,100
256,192,192418,5,4,0:0:0:0:
440,264,193168,2,0,P|472:168|432:72,1,200,8|8,0:0|0:0,0:0:0:0:
368,144,194293,2,0,P|304:144|256:176,1,100,0|8,0:0|0:0,0:0:0:0:
336,232,195043,1,0,0:0:0:0:
408,304,195418,6,0,B|357:346|307:333|248:306|232:245,1,200,8|8,0:0|0:0,0:0:0:0:
232,168,196543,1,0,0:0:0:0:
152,224,196918,1,8,0:0:0:0:
64,64,197668,6,0,L|160:16,1,100,8|0,0:0|0:0,0:0:0:0:
160,120,198418,2,0,B|210:77|260:90|319:117|335:178,1,200,8|8,0:0|0:0,0:0:0:0:
440,336,199918,1,8,0:0:0:0:
256,248,200668,1,8,0:0:0:0:
216,336,201043,2,0,P|168:288|160:240,1,100,0|8,0:0|0:0,0:0:0:0:
184,56,202168,6,0,P|232:104|240:152,1,100,8|0,0:0|0:0,0:0:0:0:
224,232,202918,2,0,L|328:200,2,100,8|0|8,0:0|0:0|0:0,0:0:0:0:
128,264,204043,1,0,0:0:0:0:
200,328,204418,1,4,0:0:0:0:
224,232,204793,1,0,0:0:0:0:
304,296,205168,6,0,L|320:184,1,100,8|0,0:0|0:0,0:0:0:0:
232,144,205918,2,0,L|248:24,2,100,8|0|8,0:0|0:0|0:0,0:0:0:0:
216,240,207043,6,0,L|312:288,1,100,0|8,0:0|0:0,0:0:0:0:
320,184,207793,2,0,B|368:216|424:216|479:186|495:125,1,200,0|0,0:0|0:0,0:0:0:0:
392,104,208918,1,8,0:0:0:0:
368,296,209668,6,0,L|272:344,1,100,8|0,0:0|0:0,0:0:0:0:
296,240,210418,2,0,L|184:288,1,100,8|0,0:0|0:0,0:0:0:0:
232,184,211168,2,0,B|184:216|128:216|72:186|56:125,1,200,8|8,0:0|0:0,0:0:0:0:
248,72,212668,1,8,0:0:0:0:
344,40,213043,2,0,P|346:108|304:152,1,100,0|8,0:0|0:0,0:0:0:0:
152,216,214168,6,0,P|200:264|208:312,1,100,8|0,0:0|0:0,0:0:0:0:
112,304,214918,2,0,L|24:368,2,100,8|0|8,0:0|0:0|0:0,0:0:0:0:
192,248,216043,1,0,0:0:0:0:
264,184,216418,5,4,0:0:0:0:
104,56,217168,1,8,0:0:0:0:
56,144,217543,2,0,P|32:208|56:280,1,100,0|8,0:0|0:0,0:0:0:0:
128,216,218293,2,0,P|128:304|88:344,2,100,0|8|0,0:0|0:0|0:0,0:0:0:0:
304,312,219793,5,0,0:0:0:0:
384,248,220168,2,0,P|408:184|384:112,1,100,8|0,0:0|0:0,0:0:0:0:
304,176,220918,2,0,P|304:88|344:48,2,100,8|0|8,0:0|0:0|0:0,0:0:0:0:
368,256,222043,1,0,0:0:0:0:
272,272,222418,6,8,B|216:232|136:232|72:272,1,200
64,168,223543,2,0,B|131:151|183:90|193:15,1,200
288,64,224668,2,8,B|248:120|248:200|288:264,1,200
368,304,225793,1,0,0:0:0:0:
440,232,226168,1,8,0:0:0:0:
336,64,226918,5,8,0:0:0:0:
248,24,227293,1,0,0:0:0:0:
168,80,227668,2,0,B|88:152|88:152|120:256,2,200,8|4|8,0:0|0:0|0:0,0:0:0:0:
320,208,229918,2,0,L|408:112,1,100,8|0,0:0|0:0,0:0:0:0:
464,200,230668,2,0,L|392:280,1,100,8|0,0:0|0:0,0:0:0:0:
336,344,231418,1,8,0:0:0:0:
160,256,232168,6,0,L|96:344,1,100,8|0,0:0|0:0,0:0:0:0:
32,264,232918,2,0,L|104:176,1,100,8|0,0:0|0:0,0:0:0:0:
152,104,233668,1,8,0:0:0:0:
336,176,234418,2,8,B|376:232|384:280|368:336|328:384,1,200
280,280,235543,1,0,0:0:0:0:
144,136,236293,5,0,0:0:0:0:
96,224,236668,1,8,0:0:0:0:
288,280,237418,6,0,B|344:240|424:240|488:280,1,200,8|8,0:0|0:0,0:0:0:0:
512,176,238543,2,0,B|446:159|394:98|384:23,1,200,8|0,0:0|0:0,0:0:0:0:
288,64,239668,2,0,B|328:120|328:200|288:264,1,200,8|0,0:0|0:0,0:0:0:0:
