osu file format v13

[General]
AudioFilename: nakimushi.mp3
AudioLeadIn: 1500
PreviewTime: 58981
Countdown: 0
SampleSet: Soft
StackLeniency: 0.7
Mode: 0
LetterboxInBreaks: 0
WidescreenStoryboard: 0

[Editor]
Bookmarks: 6481,19112,31744,44375,60165,72796
DistanceSpacing: 0.8
BeatDivisor: 4
GridSize: 4
TimelineZoom: 1

[Metadata]
Title:Nakimushi. (Anime ver.)
TitleUnicode:なきむし。(Anime ver.)
Artist:Sawai Miku
ArtistUnicode:沢井美空
Creator:mingmichael
Version:Hard
Source:Kimi to Boku.
Tags:ending ed 君と僕。 Koichi Azuma Kaname Tsukahara
BeatmapID:427401
BeatmapSetID:177570

[Difficulty]
HPDrainRate:6
CircleSize:4
OverallDifficulty:6
ApproachRate:7
SliderMultiplier:2.8
SliderTickRate:1

[Events]
//Background and Video events
0,0,"kimi to boku osu 3 copy.jpg",0,0
Video,0,"kimi to boku_0.flv"
//Break Periods
//Storyboard Layer 0 (Background)
//Storyboard Layer 1 (Fail)
//Storyboard Layer 2 (Pass)
//Storyboard Layer 3 (Foreground)
//Storyboard Sound Samples
//Background Colour Transformations
3,100,163,162,255

[TimingPoints]
165.216336295284,789.473684210526,4,2,2,30,1,0
559,-125,4,2,2,30,0,0
26217,-125,4,2,2,35,0,0
27007,-125,4,2,2,40,0,0
28586,-125,4,2,2,45,0,0
29375,-125,4,2,2,50,0,0
29967,-100,4,2,1,60,0,0
57007,-100,4,2,1,50,0,0
57402,-100,4,2,1,52,0,0
57796,-100,4,2,1,54,0,0
58191,-100,4,2,1,56,0,0
58586,-100,4,2,1,58,0,0
58981,-100,4,2,1,60,0,0
60165,-100,4,2,1,60,0,1
71513,-100,4,2,1,40,0,1
71711,-100,4,2,1,60,0,1
78619,-100,4,2,1,40,0,1
78816,-100,4,2,1,60,0,1
82270,-100,4,2,1,60,0,0
85329,-100,4,2,1,50,0,0
86217,-100,4,2,1,40,0,0
87007,-100,4,2,1,30,0,0
87796,-100,4,2,1,20,0,0
88191,-100,4,2,1,10,0,0
88586,-100,4,2,1,5,0,0

[Colours]
Combo1 : 0,142,210
Combo2 : 101,199,252
Combo3 : 155,192,230
SliderBorder : 255,255,255

[HitObjects]
368,224,165,5,2,0:0:0:0:
448,188,559,2,0,P|460:236|428:288,2,112,0|2|0,0:0|0:0|0:0,0:0:0:0:
392,120,1744,1,2,0:0:0:0:
144,224,3323,5,2,0:0:0:0:
64,188,3717,2,0,P|52:236|84:288,2,112,0|2|0,0:0|0:0|0:0,0:0:0:0:
120,120,4902,1,2,0:0:0:0:
192,68,5296,2,0,P|248:60|312:72,1,112,0|0,0:0|0:0,0:0:0:0:
376,120,6086,1,0,0:0:0:0:
440,236,6481,6,0,P|456:284|428:340,1,112,2|0,0:0|0:0,0:0:0:0:
364,280,7270,1,2,0:0:0:0:
284,324,7665,1,0,0:0:0:0:
212,272,8059,1,2,0:0:0:0:
52,44,9638,6,0,P|100:28|156:56,1,112,2|0,0:0|0:0,0:0:0:0:
220,116,10428,1,2,0:0:0:0:
300,72,10823,1,0,0:0:0:0:
372,124,11217,1,2,0:0:0:0:
344,208,11612,2,0,P|332:248|352:316,2,112,0|0|0,0:0|0:0|0:0,0:0:0:0:
372,124,12796,6,0,L|260:92,1,112,2|0,0:0|0:0,0:0:0:0:
176,68,13586,1,2,0:0:0:0:
100,112,13981,1,0,0:0:0:0:
92,156,14178,1,0,0:0:0:0:
108,200,14375,2,0,L|156:324,2,112,2|0|0,0:0|0:0|0:0,0:0:0:0:
100,112,15559,2,0,L|156:80,1,56,0|0,0:0|0:0,0:0:0:0:
196,60,15954,6,0,P|243:47|308:64,1,112,2|0,0:0|0:0,0:0:0:0:
368,124,16744,1,2,0:0:0:0:
408,204,17138,1,0,0:0:0:0:
352,272,17533,1,2,0:0:0:0:
180,316,18323,1,2,0:0:0:0:
144,236,18717,1,0,0:0:0:0:
156,192,18915,1,0,0:0:0:0:
148,148,19112,6,0,P|136:101|80:64,2,112,2|0|2,0:0|0:0|0:0,0:0:0:0:
144,236,20296,1,0,0:0:0:0:
180,316,20691,1,2,0:0:0:0:
292,176,21481,1,0,0:0:0:0:
368,132,21875,2,0,L|420:101,1,56
456,84,22270,6,0,P|472:116|440:200,1,112,2|0,0:0|0:0,0:0:0:0:
428,224,22862,1,0,0:0:0:0:
388,248,23059,2,0,P|336:267|285:249,1,112,2|0,0:0|0:0,0:0:0:0:
264,208,23652,2,0,L|244:144,1,56,0|2,0:0|0:0,0:0:0:0:
220,68,24244,2,0,P|172:68|132:116,1,112,0|0,0:0|0:0,0:0:0:0:
124,204,25033,1,0,0:0:0:0:
76,280,25428,6,0,P|116:296|188:272,1,112,2|0,0:0|0:0,0:0:0:0:
256,228,26217,1,2,0:0:0:0:
328,284,26612,2,0,L|376:320,1,56
408,344,27007,6,0,P|424:316|400:240,1,112,2|0,0:0|0:0,0:0:0:0:
324,184,27796,2,0,P|308:212|332:288,1,112,2|0,0:0|0:0,0:0:0:0:
404,244,28586,6,0,P|420:212|396:140,1,112,2|0,0:0|0:0,0:0:0:0:
368,112,29178,1,0,0:0:0:0:
328,92,29375,2,0,P|264:80|212:140,1,112,2|2,0:0|0:0,0:0:0:0:
200,152,29967,1,2,0:0:0:0:
168,200,30165,6,0,P|100:220|48:156,1,140,2|8,0:0|3:0,0:0:0:0:
40,124,30757,2,0,L|28:52,1,70,0|2,0:0|0:0,0:0:0:0:
168,200,31349,2,0,L|179:269,1,70,2|0,0:0|0:0,0:0:0:0:
188,324,31744,6,0,P|228:340|320:312,1,140,4|0,0:0|0:0,0:0:0:0:
416,212,32533,1,8,0:0:0:0:
416,72,32928,1,0,0:0:0:0:
348,56,33125,1,2,0:0:0:0:
280,64,33323,2,0,P|210:67|150:101,1,140,2|2,0:0|0:0,2:0:0:0:
152,240,34112,2,0,P|221:236|281:202,1,140,8|0,0:0|0:0,2:0:0:0:
412,100,34902,6,0,P|344:64|276:64,1,140,2|0,0:0|0:0,2:0:0:0:
212,60,35494,1,0,0:0:0:0:
144,68,35691,1,8,0:0:0:0:
40,164,36086,2,0,L|24:232,1,70,0|2,0:0|0:0,0:0:0:0:
8,300,36481,2,0,P|56:320|144:284,1,140,2|2,0:0|0:0,0:0:0:0:
220,180,37270,1,8,0:0:0:0:
356,140,37665,1,0,0:0:0:0:
428,288,38059,6,0,L|288:332,1,140,2|0,0:0|0:0,0:0:0:0:
228,348,38652,1,0,0:0:0:0:
160,344,38849,2,0,P|112:332|60:252,1,140,8|0,0:0|0:0,0:0:0:0:
52,192,39441,1,2,0:0:0:0:
72,124,39638,1,2,0:0:0:0:
168,24,40033,1,2,0:0:0:0:
268,120,40428,1,8,0:0:0:0:
168,220,40823,1,0,0:0:0:0:
36,320,41217,6,0,P|108:348|168:324,1,140,2|0,0:0|0:0,0:0:0:0:
284,252,42007,1,8,0:0:0:0:
164,180,42402,1,0,0:0:0:0:
140,116,42599,1,2,0:0:0:0:
172,56,42796,2,0,P|244:28|304:52,1,140,2|2,0:0|0:0,0:0:0:0:
256,180,43586,1,8,0:0:0:0:
328,188,43783,1,2,0:0:0:0:
392,160,43981,1,8,0:0:0:0:
428,100,44178,1,8,0:0:0:0:
448,32,44375,6,0,P|488:64|452:168,1,140,4|0,0:0|0:0,0:0:0:0:
444,208,44967,1,0,0:0:0:0:
392,160,45165,2,0,P|328:140|276:184,1,140,8|0,0:0|0:0,0:0:0:0:
232,240,45757,1,2,0:0:0:0:
168,208,45954,2,0,P|140:184|148:68,1,140,2|2,0:0|0:0,0:0:0:0:
172,28,46546,1,0,0:0:0:0:
224,76,46744,2,0,P|292:100|364:60,1,140,8|0,0:0|0:0,0:0:0:0:
408,32,47336,1,0,0:0:0:0:
452,88,47533,6,0,P|476:140|436:240,1,140,2|0,0:0|0:0,0:0:0:0:
416,276,48125,1,0,0:0:0:0:
352,308,48323,1,8,0:0:0:0:
212,308,48717,1,0,0:0:0:0:
148,276,48915,1,2,0:0:0:0:
104,220,49112,2,0,P|80:168|124:76,1,140,2|2,0:0|0:0,0:0:0:0:
212,180,49902,2,0,P|236:232|192:324,1,140,8|0,0:0|0:0,0:0:0:0:
40,100,50691,6,0,P|80:72|176:108,1,140,4|0,0:0|0:0,0:0:0:0:
212,144,51283,1,0,0:0:0:0:
256,200,51481,2,0,P|296:228|400:204,1,140,8|0,0:0|0:0,0:0:0:0:
424,160,52073,1,2,0:0:0:0:
456,96,52270,2,0,P|492:132|460:220,1,140,2|2,0:0|0:0,0:0:0:0:
424,264,52862,1,0,0:0:0:0:
364,300,53059,2,0,P|301:324|228:300,1,140,8|0,0:0|0:0,0:0:0:0:
184,252,53652,1,0,0:0:0:0:
168,184,53849,6,0,P|178:117|236:66,1,140,6|0,0:0|0:0,0:0:0:0:
300,192,54638,2,0,P|367:203|414:253,1,140,8|0,0:0|0:0,0:0:0:0:
252,304,55428,2,0,P|201:256|190:189,1,140,2|2,0:0|0:0,0:0:0:0:
216,52,56217,2,0,L|116:28,2,70,8|2|2,0:0|0:0|0:0,0:0:0:0:
380,92,57007,6,0,P|440:136|424:220,1,140,6|2,0:0|0:0,0:0:0:0:
376,320,57796,2,0,P|304:336|240:288,1,140,8|2,0:0|0:0,0:0:0:0:
180,180,58586,1,2,0:0:0:0:
132,48,58981,1,2,0:0:0:0:
180,180,59375,1,8,0:0:0:0:
244,156,59573,1,0,0:0:0:0:
272,92,59770,1,2,0:0:0:0:
76,44,60165,22,0,B|40:64|40:64|8:112|48:160,1,140,4|0,0:0|0:0,0:0:0:0:
76,220,60757,1,0,0:0:0:0:
128,268,60954,2,0,P|180:288|272:260,1,140,8|0,0:0|0:0,0:0:0:0:
312,220,61546,1,2,0:0:0:0:
336,152,61744,2,0,P|284:132|192:160,1,140,2|2,0:0|0:0,0:0:0:0:
128,268,62533,1,8,0:0:0:0:
72,140,62928,1,0,0:0:0:0:
172,40,63323,6,0,P|240:24|308:44,1,140,2|0,0:0|0:0,0:0:0:0:
352,96,63915,1,0,0:0:0:0:
380,160,64112,2,0,P|372:248|328:296,1,140,8|0,0:0|0:0,0:0:0:0:
284,328,64704,1,2,0:0:0:0:
216,348,64902,2,0,P|146:349|83:315,2,140,2|2|8,0:0|0:0|0:0,0:0:0:0:
344,288,66086,1,0,0:0:0:0:
412,160,66481,6,0,B|432:124|408:68|408:68|340:56,1,140,2|0,0:0|0:0,0:0:0:0:
224,48,67270,1,8,0:0:0:0:
100,108,67665,1,0,0:0:0:0:
92,176,67862,1,2,0:0:0:0:
132,232,68059,2,0,L|184:368,1,140,2|2,0:0|0:0,0:0:0:0:
264,252,68849,2,0,P|332:240|400:276,1,140,8|0,0:0|0:0,0:0:0:0:
436,328,69441,1,0,0:0:0:0:
476,268,69638,6,0,P|488:220|444:144,1,140,2|0,0:0|0:0,0:0:0:0:
316,88,70428,2,0,P|248:72|180:92,1,140,8|0,0:0|0:0,0:0:0:0:
124,132,71020,1,2,0:0:0:0:
88,192,71217,2,0,L|32:328,2,140,2|4|8,0:0|0:0|0:0,0:0:0:0:
124,132,72204,2,0,L|164:36,2,70,8|2|2,0:0|0:0|0:0,0:0:0:0:
84,204,72796,6,0,P|72:272|116:328,1,140,4|0,0:0|0:0,0:0:0:0:
240,352,73586,1,8,0:0:0:0:
336,252,73981,1,0,0:0:0:0:
388,204,74178,1,2,0:0:0:0:
452,232,74375,2,0,P|476:288|416:356,1,140,2|2,0:0|0:0,0:0:0:0:
336,252,75165,2,0,P|276:232|196:256,1,140,8|0,0:0|0:0,0:0:0:0:
144,288,75757,1,0,0:0:0:0:
76,268,75954,6,0,P|52:214|88:140,1,140,2|0,0:0|0:0,0:0:0:0:
200,64,76744,1,8,0:0:0:0:
256,192,77138,1,0,0:0:0:0:
308,236,77336,1,2,0:0:0:0:
376,236,77533,2,0,P|416:212|420:120,1,140,2|2,0:0|0:0,0:0:0:0:
332,20,78323,1,8,0:0:0:0:
200,64,78717,2,8,L|108:100,1,70,4|0,0:0|0:0,0:0:0:0:
56,120,79112,6,0,B|20:140|20:140|-16:180|32:244|36:244,1,140,4|0,0:0|0:0,0:0:0:0:
56,296,79704,1,0,0:0:0:0:
112,340,79902,2,0,L|268:348,1,140,8|0,0:0|0:0,0:0:0:0:
360,260,80691,1,2,0:0:0:0:
264,160,81086,1,2,0:0:0:0:
348,48,81481,2,0,P|407:48|472:96,1,140,8|0,0:0|0:0,0:0:0:0:
470,289,82270,6,0,P|416:332|348:336,1,140,4|0,0:0|0:0,0:0:0:0:
280,316,82862,2,0,L|212:296,1,70,2|8,0:0|0:0,0:0:0:0:
108,204,83454,1,8,0:0:0:0:
112,136,83652,1,0,0:0:0:0:
152,76,83849,2,0,L|204:4,2,70,2|8|2,0:0|0:0|0:0,0:0:0:0:
112,136,84441,2,0,P|78:144|46:132,1,70,0|8,0:0|3:0,0:0:0:0:
156,272,85033,2,0,P|190:264|222:276,1,70,0|0,0:0|0:0,0:0:0:0:
280,316,85428,1,4,0:0:0:0:
256,192,85625,12,0,88586,0:0:0:0:
