osu file format v14

[General]
AudioFilename: nakimush1n1.mp3
AudioLeadIn: 2000
PreviewTime: 58981
Countdown: 0
SampleSet: Soft
StackLeniency: 0.7
Mode: 0
LetterboxInBreaks: 0
WidescreenStoryboard: 0

[Editor]
DistanceSpacing: 1.3
BeatDivisor: 4
GridSize: 4
TimelineZoom: 1

[Metadata]
Title:Nakimushi. (Anime ver.)
TitleUnicode:なきむし。(Anime ver.)
Artist:Sawai Miku
ArtistUnicode:沢井美空
Creator:-Sh1n1-
Version:Easy
Source:君と僕。
Tags:You and Me. Kimi to Boku Boku. ending Koichi Azuma Kaname Tsukahara
BeatmapID:690109
BeatmapSetID:308605

[Difficulty]
HPDrainRate:3
CircleSize:3
OverallDifficulty:2
ApproachRate:3
SliderMultiplier:1.2
SliderTickRate:1

[Events]
//Background and Video events
0,0,"BG.png",0,0
//Break Periods
//Storyboard Layer 0 (Background)
//Storyboard Layer 1 (Fail)
//Storyboard Layer 2 (Pass)
//Storyboard Layer 3 (Foreground)
//Storyboard Sound Samples

[TimingPoints]
13,789.473684210526,4,2,2,30,1,8
210.216336295284,757.097791798107,4,2,2,30,1,0
967,789.473684210526,4,2,2,30,1,8
3335,761.904761904762,4,2,2,30,1,0
4096,806.451612903226,4,2,2,30,1,8
4902,789.473684210526,4,2,2,30,1,8
5691,810.810810810811,4,2,2,30,1,8
6501,789.473684210526,4,2,2,30,1,0
14395,780.741704619388,4,2,2,30,1,8
15956,769.230769230769,4,2,2,30,1,0
16725,821.917808219178,4,2,2,30,1,8
17546,797.34219269103,4,2,2,30,1,8
18343,800,4,2,2,30,1,8
19143,779.220779220779,4,2,2,30,1,0
19922,786.369593709043,4,2,2,30,1,8
21494,784.313725490196,4,2,2,30,1,8
22278,779.220779220779,4,2,2,30,1,0
23057,789.473684210526,4,2,2,30,1,8
25425,789.473684210526,4,2,2,30,1,0
26214,-100,4,2,2,35,0,0
27003,-100,4,2,2,40,0,0
27793,793.653684210527,4,2,2,40,1,8
28586,789.473684210526,4,2,2,45,1,0
29375,-100,4,2,2,50,0,0
30164,804.289544235925,4,2,1,60,1,8
30968,779.220779220779,4,2,1,60,1,8
31747,784.313725490196,4,2,1,60,1,0
32531,789.473684210526,4,2,1,60,1,8
34899,795.755968169761,4,2,1,60,1,0
35694,779.220779220779,4,2,1,60,1,8
36473,805.369127516779,4,2,1,60,1,8
37278,784.313725490196,4,2,1,60,1,8
38062,792.602377807133,4,2,1,60,1,0
42817,786.885245901639,4,2,1,60,1,8
43603,779.220779220779,4,2,1,60,1,8
44382,789.473684210526,4,2,1,60,1,0
45171,792.079207920792,4,2,1,60,1,8
45963,782.268578878748,4,2,1,60,1,8
46745,796.811986754967,4,2,1,60,1,8
47541,794.701986754967,4,2,1,60,1,0
49130,784.313725490196,4,2,1,60,1,8
50698,796.812749003984,4,2,1,60,1,0
51494,793.650793650794,4,2,1,60,1,8
53081,786.885245901639,4,2,1,60,1,8
53867,789.473684210526,4,2,1,60,1,0
54656,769.230769230769,4,2,1,60,1,8
55425,799.467021985343,4,2,1,60,1,8
56224,771.704180064309,4,2,1,60,1,8
56995,795.751986754967,4,2,1,50,1,0
57392,-100,4,2,1,52,0,0
57790,-100,4,2,1,54,0,0
58188,-100,4,2,1,56,0,0
58586,791.55672823219,4,2,1,58,1,8
60169,793.650793650794,4,2,1,60,1,1
64137,769.230769230769,4,2,1,60,1,9
64906,800,4,2,1,60,1,9
65706,800,4,2,1,60,1,9
66506,789.473684210526,4,2,1,60,1,1
67295,769.230769230769,4,2,1,60,1,9
68064,797.34219269103,4,2,1,60,1,9
68861,774.193548387097,4,2,1,60,1,9
69635,792.079207920792,4,2,1,60,1,1
71516,-100,4,2,1,40,0,1
71714,-100,4,2,1,60,0,1
72011,797.34219269103,4,2,1,60,1,9
72808,787.40157480315,4,2,1,60,1,1
73595,792.079207920792,4,2,1,60,1,9
75179,775.193798449612,4,2,1,60,1,9
75954,797.34219269103,4,2,1,60,1,1
76751,784.313725490196,4,2,1,60,1,9
77535,794.701986754967,4,2,1,60,1,9
78627,-100,4,2,1,40,0,9
78826,-100,4,2,1,60,0,9
79124,798.934753661784,4,2,1,60,1,1
79922,779.220779220779,4,2,1,60,1,9
81480,774.193548387097,4,2,1,60,1,9
82254,805.369127516779,4,2,1,60,1,0
83059,768.245838668374,4,2,1,60,1,8
83827,784.313684210527,4,2,1,60,1,8
84611,779.220779220779,4,2,1,60,1,8
85390,789.473684210526,4,2,1,50,1,0
86179,-100,4,2,1,40,0,0
86968,-100,4,2,1,30,0,0
87758,-100,4,2,1,20,0,0
88153,-100,4,2,1,10,0,0
88547,-100,4,2,1,5,0,0

[Colours]
Combo1 : 255,255,128
Combo2 : 101,199,252
Combo3 : 128,0,255

[HitObjects]
152,264,210,5,2,0:0:0:0:
100,204,588,1,0,0:0:0:0:
52,144,967,2,0,L|60:80,1,60,2|0,0:0|0:0,0:0:0:0:
124,40,1756,1,0,0:0:0:0:
360,264,3335,6,0,B|371:237|396:216|396:216|418:199|441:155,1,120,2|2,0:0|0:0,0:0:0:0:
448,92,4499,1,0,0:0:0:0:
388,41,4902,1,2,0:0:0:0:
256,328,6501,6,0,B|248:296|256:268|256:268|264:236|256:204,1,120,2|2,0:0|0:0,0:0:0:0:
184,180,7685,1,0,0:0:0:0:
172,102,8079,1,2,0:0:0:0:
320,52,8869,1,0,0:0:0:0:
452,136,9658,6,0,B|438:158|438:194|438:194|438:226|422:250,1,120,2|2,0:0|0:0,0:0:0:0:
352,288,10843,1,0,0:0:0:0:
282,252,11237,1,2,0:0:0:0:
356,112,12027,1,0,0:0:0:0:
208,60,12816,6,0,P|192:117|208:174,1,120,2|2,0:0|0:0,0:0:0:0:
276,212,14000,1,0,0:0:0:0:
308,284,14395,1,2,0:0:0:0:
156,312,15175,1,0,0:0:0:0:
100,168,15956,6,0,P|155:148|211:165,1,120,2|2,0:0|0:0,0:0:0:0:
280,204,17135,1,0,0:0:0:0:
348,244,17546,2,0,P|403:264|459:247,1,120,2|2,0:0|0:0,0:0:0:0:
404,96,19143,1,2,0:0:0:0:
336,56,19532,6,0,B|312:52|300:56|300:56|288:60|252:56,1,60,0|2,0:0|0:0,0:0:0:0:
198,56,20315,1,0,0:0:0:0:
148,116,20708,1,2,0:0:0:0:
256,228,21494,1,0,0:0:0:0:
180,364,22278,6,0,B|148:360|121:364|121:364|92:368|60:364,1,120,2|2,0:0|0:0,0:0:0:0:
28,292,23451,1,0,0:0:0:0:
44,215,23846,1,2,0:0:0:0:
200,224,24635,1,2,0:0:0:0:
228,72,25425,6,0,B|256:64|288:72|288:72|320:80|352:72,1,120,2|2,0:0|0:0,0:0:0:0:
416,38,26609,1,0,0:0:0:0:
476,88,27003,2,0,B|484:148|484:148|476:212,1,120,2|2,0:0|0:0,0:0:0:0:
368,320,28586,6,0,B|308:312|308:312|248:320,1,120,2|2,0:0|0:0,0:0:0:0:
176,348,29770,1,0,0:0:0:0:
116,296,30164,2,0,B|108:268|116:236|116:236|124:204|116:176,1,120,2|2,0:0|0:0,0:0:0:0:
104,100,31357,1,2,0:0:0:0:
174,65,31747,6,0,P|229:84|284:64,1,120,4|8,0:0|0:0,0:0:0:0:
436,28,33320,1,2,0:0:0:0:
476,96,33715,1,2,0:0:0:0:
459,172,34109,2,0,P|404:191|349:171,1,120,8|2,0:0|0:0,0:0:0:0:
248,48,35694,5,8,0:0:0:0:
104,104,36473,2,0,B|86:101|66:105|66:105|46:109|22:105,2,60,2|2|8,0:0|0:0|0:0,0:0:0:0:
248,48,38062,6,0,B|268:104|246:169,1,120,2|8,0:0|0:0,0:0:0:0:
108,236,39647,2,0,L|48:236,2,60,2|2|8,0:0|0:0|0:0,0:0:0:0:
252,292,41232,6,0,P|308:308|376:284,1,120,2|8,0:0|0:0,0:0:0:0:
428,152,42817,2,0,P|368:136|304:156,1,120,2|8,0:0|0:0,0:0:0:0:
256,204,43992,1,8,0:0:0:0:
192,248,44382,6,0,P|123:262|64:237,1,120,4|8,0:0|0:0,0:0:0:0:
16,104,45963,2,0,P|84:89|143:114,1,120,2|8,0:0|0:0,0:0:0:0:
195,147,47143,1,0,0:0:0:0:
258,193,47541,6,0,P|315:209|372:193,1,120,2|8,0:0|0:0,0:0:0:0:
428,48,49130,2,0,P|372:32|308:52,1,120,2|8,0:0|0:0,0:0:0:0:
260,104,50306,1,0,0:0:0:0:
224,172,50698,6,0,B|216:200|224:232|224:232|232:264|224:292,1,120,4|8,0:0|0:0,0:0:0:0:
72,324,52287,1,2,0:0:0:0:
40,252,52684,1,2,0:0:0:0:
68,176,53081,2,0,B|76:148|68:116|68:116|60:84|68:56,1,120,8|6,0:0|0:0,0:0:0:0:
220,28,54656,5,8,0:0:0:0:
352,112,55425,1,2,0:0:0:0:
208,184,56224,1,8,0:0:0:0:
256,192,56995,12,8,58586,0:0:0:0:
316,80,60169,6,0,P|256:68|188:84,1,120,4|8,0:0|0:0,0:0:0:0:
120,214,61756,2,0,P|140:271|189:321,1,120,2|8,0:0|0:0,0:0:0:0:
256,336,62946,1,0,0:0:0:0:
332,316,63343,6,0,P|371:271|391:215,1,120,2|8,0:0|0:0,0:0:0:0:
456,72,64906,2,0,P|396:60|328:76,1,120,2|8,0:0|0:0,0:0:0:0:
276,120,66106,1,0,2:0:0:0:
212,168,66506,6,0,B|180:176|152:168|152:168|124:160|88:168,1,120,2|8,0:0|0:0,0:0:0:0:
92,324,68064,2,0,B|120:316|152:324|152:324|184:332|212:324,1,120,2|8,0:0|0:0,0:0:0:0:
256,260,69248,1,0,0:0:0:0:
324,220,69635,6,0,B|336:160|336:160|324:96,1,120,2|8,0:0|0:0,0:0:0:0:
180,160,71219,2,0,L|112:128,2,60,2|4|8,0:0|0:0|0:0,0:0:0:0:
256,184,72409,1,2,0:0:0:0:
332,160,72808,6,0,B|324:128|332:100|332:100|340:64|332:36,1,120,4|8,0:0|0:0,0:0:0:0:
176,36,74387,2,0,B|116:28|116:28|48:36,1,120,2|8,0:0|0:0,0:0:0:0:
48,112,75566,1,2,0:0:0:0:
116,148,75954,6,0,B|108:176|116:208|116:208|124:240|116:272,1,120,2|8,0:0|0:0,0:0:0:0:
271,267,77535,2,0,B|263:239|271:207|271:207|279:175|271:143,1,120,2|8,0:0|0:0,0:0:0:0:
200,117,78727,1,4,0:0:0:0:
215,39,79124,6,0,P|275:27|351:47,1,120,4|8,0:0|0:0,0:0:0:0:
460,124,80701,2,0,P|472:184|452:260,1,120,2|8,0:0|0:0,0:0:0:0:
388,272,81867,1,0,0:0:0:0:
332,328,82254,6,0,B|272:332|272:332|192:328,1,120,4|8,0:0|0:0,0:0:0:0:
136,352,83443,1,2,0:0:0:0:
88,288,83827,2,0,B|80:256|88:232|88:232|96:200|88:168,1,120,2|8,0:0|3:0,0:0:0:0:
56,96,85000,1,2,0:0:0:0:
256,192,85390,12,0,88547,0:0:0:0:
