osu file format v13

[General]
AudioFilename: Konna Sekai Shiritakunakatta.mp3
AudioLeadIn: 1500
PreviewTime: 55233
Countdown: 0
SampleSet: Soft
StackLeniency: 0.7
Mode: 0
LetterboxInBreaks: 0
WidescreenStoryboard: 0

[Editor]
Bookmarks: 347,10915,22165,33074,43813,55403,56255,67164,83527
DistanceSpacing: 1.7
BeatDivisor: 4
GridSize: 32
TimelineZoom: 1.5

[Metadata]
Title:Konna Sekai, Shiritakunakatta. (Anime Ver.)
TitleUnicode:こんな世界、知りたくなかった。 (Anime Ver.)
Artist:Sawai Miku
ArtistUnicode:沢井美空
Creator:smallboat
Version:Insane
Source:アカメが斬る!
Tags:Akame ga Kill! tv size ending takahiro tetsuya square enix white fox gangan comic joker black red eye girl anigi king blood ice zan slash sword cut head kill death die night raid minakami yuki amamiya yuko skystar
BeatmapID:477090
BeatmapSetID:201502

[Difficulty]
HPDrainRate:6.5
CircleSize:4
OverallDifficulty:7
ApproachRate:8.5
SliderMultiplier:2.4
SliderTickRate:2

[Events]
//Background and Video events
Video,-210,"video.avi"
0,0,"bg.jpg",0,0
//Break Periods
//Storyboard Layer 0 (Background)
//Storyboard Layer 1 (Fail)
//Storyboard Layer 2 (Pass)
//Storyboard Layer 3 (Foreground)
//Storyboard Sound Samples
//Background Colour Transformations
3,100,163,162,255

[TimingPoints]
347,681.818181818182,4,2,1,35,1,0
347,-125,4,2,1,35,0,0
4437,-200,4,2,1,30,0,0
5460,-125,4,2,1,25,0,0
5801,-125,4,2,1,35,0,0
10915,-125,4,2,1,40,0,0
17392,-125,4,2,1,25,0,0
17562,-125,4,2,1,40,0,0
22165,-125,4,2,1,40,0,0
33074,-111.111111111111,4,2,1,50,0,0
35460,-111.111111111111,4,2,3,50,0,0
35972,-111.111111111111,4,2,1,50,0,0
38528,-111.111111111111,4,2,3,60,0,0
38699,-111.111111111111,4,2,1,50,0,0
40915,-111.111111111111,4,2,3,45,0,0
41597,-111.111111111111,4,2,1,45,0,0
42960,-111.111111111111,4,3,1,20,0,0
43301,-111.111111111111,4,2,1,50,0,0
43983,-111.111111111111,4,2,1,55,0,0
46028,-111.111111111111,4,2,2,35,0,0
46199,-111.111111111111,4,2,1,45,0,0
46710,-111.111111111111,4,2,3,45,0,0
46881,-111.111111111111,4,2,1,45,0,0
48756,-111.111111111111,4,2,2,35,0,0
49437,-111.111111111111,4,2,1,45,0,0
51483,-111.111111111111,4,2,2,35,0,0
52165,-111.111111111111,4,2,2,45,0,0
53528,-71.4285714285714,4,2,2,45,0,0
55403,-200,4,2,4,50,0,0
55743,-133.333333333333,4,3,1,50,0,0
56255,681.818181818182,4,2,2,65,1,0
56255,-83.3333333333333,4,2,2,65,0,1
58982,-83.3333333333333,4,2,3,65,0,1
59664,-83.3333333333333,4,2,2,65,0,1
60345,-83.3333333333333,4,2,3,65,0,1
60516,-83.3333333333333,4,2,2,65,0,1
61709,-83.3333333333333,4,2,3,65,0,1
61880,-83.3333333333333,4,2,2,65,0,1
63073,-83.3333333333333,4,2,3,65,0,1
63243,-83.3333333333333,4,2,2,65,0,1
64436,-83.3333333333333,4,2,3,65,0,1
64607,-83.3333333333333,4,2,2,65,0,1
66652,-83.3333333333333,4,3,1,65,0,1
67164,-83.3333333333333,4,2,2,55,0,1
76709,-76.9230769230769,4,2,2,40,0,1
77391,-83.3333333333333,4,2,2,65,0,1
77902,-83.3333333333333,4,2,2,65,0,1
78073,-83.3333333333333,4,2,2,55,0,1
80800,-83.3333333333333,4,2,2,40,0,1
82164,-166.666666666667,4,2,2,25,0,0
83016,-100,4,2,1,50,0,0
83527,-100,4,2,2,40,0,0
86255,-100,4,2,1,25,0,0

[Colours]
Combo1 : 132,0,0
Combo2 : 140,140,140
Combo3 : 0,57,115
Combo4 : 140,0,140

[HitObjects]
68,173,347,6,0,L|80:229,1,48
208,301,687,2,0,L|197:254,1,48,0|0,0:0|0:0,0:0:0:0:
56,188,1028,2,0,L|79:241,1,48,2|0,0:0|0:0,0:0:0:0:
219,285,1369,2,0,L|200:241,1,48,0|0,0:0|0:0,0:0:0:0:
47,206,1710,6,0,L|80:253,1,48
227,266,2051,2,0,L|199:226,1,48,0|0,0:0|0:0,0:0:0:0:
43,225,2392,2,0,L|85:264,1,48,2|0,0:0|0:0,0:0:0:0:
231,247,2733,2,0,L|195:214,1,48,0|0,0:0|0:0,0:0:0:0:
198,117,3074,5,2,0:0:0:0:
256,41,3244,1,0,0:0:0:0:
314,117,3415,1,0,0:0:0:0:
389,176,3585,1,0,0:0:0:0:
465,118,3756,1,2,0:0:0:0:
389,60,3926,1,0,0:0:0:0:
314,117,4097,1,0,0:0:0:0:
389,176,4267,1,0,0:0:0:0:
468,230,4437,6,0,P|485:174|466:119,1,120,2|0,0:0|0:0,0:0:0:0:
335,288,5460,6,0,L|344:324,1,24,0|0,0:0|0:0,0:0:0:0:
348,336,5687,1,0,0:0:0:0:
256,254,5801,5,6,0:0:0:0:
135,42,6824,1,0,0:0:0:0:
377,42,7165,1,2,0:0:0:0:
393,342,7847,1,0,0:0:0:0:
393,342,8528,5,0,0:0:0:0:
119,42,9892,5,0,0:0:0:0:
119,42,10915,5,0,0:0:0:0:
221,222,11256,2,0,P|254:255|301:262,2,96,0|0|2,0:0|0:0|0:0,0:0:0:0:
326,96,12278,1,0,0:0:0:0:
221,222,12619,2,0,P|174:215|140:181,1,96,0|0,0:0|0:0,0:0:0:0:
267,32,13301,1,2,0:0:0:0:
295,177,13642,1,0,0:0:0:0:
171,301,13983,6,0,P|136:269|126:222,1,96,0|0,0:0|0:0,0:0:0:0:
186,47,14665,1,2,0:0:0:0:
367,123,15006,1,0,0:0:0:0:
144,122,15347,2,0,P|110:91|99:44,1,96,0|0,0:0|0:0,0:0:0:0:
412,44,16028,2,0,P|401:91|367:122,1,96,2|0,0:0|0:0,0:0:0:0:
186,47,16710,5,0,0:0:0:0:
256,192,17051,1,0,0:0:0:0:
317,253,17222,1,0,0:0:0:0:
256,313,17392,1,2,0:0:0:0:
256,313,17733,1,0,0:0:0:0:
65,253,18074,1,0,0:0:0:0:
256,192,18415,1,0,0:0:0:0:
110,81,18756,1,2,0:0:0:0:
110,81,18926,2,0,P|157:74|208:31,1,96
280,21,19437,6,0,L|255:138,1,96
171,357,20119,2,0,L|265:309,1,96,2|0,0:0|0:0,0:0:0:0:
341,148,20801,1,0,0:0:0:0:
256,313,21142,1,0,0:0:0:0:
438,303,21483,1,2,0:0:0:0:
160,254,22165,6,0,P|154:207|172:163,1,96
257,63,22847,1,2,0:0:0:0:
317,2,23017,1,0,0:0:0:0:
377,62,23187,2,0,L|430:101,1,48
475,191,23528,2,0,P|427:197|383:179,1,96
37,191,24210,2,0,P|84:196|128:178,1,96,2|0,0:0|0:0,0:0:0:0:
257,63,24892,5,0,0:0:0:0:
257,321,25233,1,0,0:0:0:0:
314,378,25403,1,0,0:0:0:0:
371,320,25574,2,0,P|384:274|374:228,1,96,2|0,0:0|0:0,0:0:0:0:
182,106,26256,2,0,P|169:151|179:197,1,96
257,321,26937,1,2,0:0:0:0:
453,225,27278,2,0,L|446:157,1,48
440,96,27619,5,0,0:0:0:0:
271,24,27960,1,0,0:0:0:0:
372,210,28301,1,2,0:0:0:0:
380,16,28642,1,0,0:0:0:0:
171,52,28983,2,0,L|154:155,1,96
171,332,29665,2,0,L|155:237,1,96,2|0,0:0|0:0,0:0:0:0:
372,210,30347,5,6,0:0:0:0:
372,200,30687,1,0,0:0:0:0:
257,18,31369,1,2,0:0:0:0:
140,210,32051,1,0,0:0:0:0:
140,200,32392,2,0,L|29:182,1,96,2|0,0:0|0:0,0:0:0:0:
62,19,33074,5,4,0:0:0:0:
119,76,33244,1,0,0:0:0:0:
200,76,33415,1,0,0:0:0:0:
275,48,33585,1,0,0:0:0:0:
266,128,33756,1,8,0:0:0:0:
255,208,33926,1,0,0:0:0:0:
32,352,34437,6,0,L|17:191,1,161.999995056153,2|0,0:0|0:0,0:0:0:0:
42,97,35119,1,8,0:0:0:0:
304,138,35460,1,8,0:0:0:0:
393,95,35631,1,0,0:0:0:0:
398,1,35801,5,8,0:0:0:0:
473,148,35972,1,0,0:0:0:0:
313,44,36142,1,0,0:0:0:0:
478,56,36312,1,0,0:0:0:0:
304,138,36483,1,8,0:0:0:0:
227,82,36653,1,0,0:0:0:0:
29,13,37165,2,0,L|41:174,1,161.999995056153,2|0,0:0|0:0,0:0:0:0:
52,274,37847,1,8,0:0:0:0:
216,174,38187,5,0,0:0:0:0:
266,253,38358,1,0,0:0:0:0:
345,299,38528,2,0,P|356:247|337:198,1,107.999996704102,8|0,0:0|0:0,0:0:0:0:
205,85,39210,1,8,0:0:0:0:
266,253,39551,5,0,0:0:0:0:
216,332,39722,1,0,0:0:0:0:
136,378,39892,2,0,P|125:325|144:276,1,107.999996704102,2|0,0:0|0:0,0:0:0:0:
280,121,40574,1,8,0:0:0:0:
480,64,40915,1,8,0:0:0:0:
480,320,41256,5,8,0:0:0:0:
182,254,41597,1,0,0:0:0:0:
114,295,41767,1,0,0:0:0:0:
34,311,41937,1,8,0:0:0:0:
31,300,42278,1,0,0:0:0:0:
29,289,42619,2,0,L|13:182,1,107.999996704102,0|8,0:0|0:0,0:0:0:0:
160,32,43301,1,8,0:0:0:0:
352,32,43642,1,0,0:0:0:0:
480,258,43983,5,4,0:0:0:0:
436,177,44153,1,0,0:0:0:0:
351,141,44324,1,0,0:0:0:0:
265,173,44494,1,0,0:0:0:0:
201,239,44665,1,8,0:0:0:0:
124,289,44835,2,0,L|114:179,1,107.999996704102
18,66,45347,2,0,L|31:227,1,161.999995056153,2|0,0:0|0:0,0:0:0:0:
41,316,46028,1,8,0:0:0:0:
280,113,46369,5,0,0:0:0:0:
351,80,46540,1,0,0:0:0:0:
429,75,46710,2,0,P|436:129|416:178,1,107.999996704102,8|0,0:0|0:0,0:0:0:0:
293,249,47222,2,0,L|286:195,1,53.9999983520508,0|8,0:0|0:0,0:0:0:0:
204,142,47562,2,0,P|151:134|116:94,1,107.999996704102
285,33,48074,6,0,P|365:101|367:206,1,215.999993408203,2|8,0:0|0:0,0:0:0:0:
298,329,48926,2,0,P|277:344|246:350,2,53.9999983520508,0|0|0,0:0|0:0|0:0,0:0:0:0:
215,219,49437,6,0,P|161:209|129:169,1,107.999996704102,6|0,0:0|0:0,0:0:0:0:
92,25,50119,1,8,0:0:0:0:
420,25,50460,1,0,0:0:0:0:
433,285,50801,2,0,P|360:251|324:180,1,161.999995056153,2|0,0:0|0:0,0:0:0:0:
262,64,51483,2,0,P|232:137|164:178,1,161.999995056153,8|0,0:0|0:0,0:0:0:0:
79,99,52165,6,0,P|96:47|145:13,1,107.999996704102,4|0,0:0|0:0,0:0:0:0:
433,284,52847,2,0,P|415:335|373:367,1,107.999996704102,8|0,0:0|0:0,0:0:0:0:
257,378,53358,1,0,0:0:0:0:
256,236,53528,6,0,L|256:69,1,167.999994873047,8|10,0:0|0:0,0:0:0:0:
257,28,54892,5,2,0:0:0:0:
475,95,55403,6,0,L|453:87,3,15,8|8|8|8,0:0|0:0|0:0|0:0,0:0:0:0:
371,93,55744,6,0,B|391:149,2,45.0000017166138,8|8|8,0:0|0:0|0:0,0:0:0:0:
257,28,56256,5,6,0:0:0:0:
63,160,56595,1,0,0:0:0:0:
312,282,56936,2,0,P|337:216|315:148,1,143.999995605469,8|0,0:0|0:0,0:0:0:0:
256,105,57448,1,0,0:0:0:0:
196,149,57618,2,0,P|174:215|203:284,1,143.999995605469,2|0,0:0|0:0,0:0:0:0:
331,356,58300,1,8,0:0:0:0:
263,180,58641,1,0,0:0:0:0:
331,356,58982,6,0,P|403:328|432:265,1,143.999995605469,8|8,0:0|0:0,0:0:0:0:
152,100,59664,2,0,P|82:112|26:246,1,215.999993408203,8|0,0:0|0:0,0:0:0:0:
152,284,60345,2,0,P|176:260|187:225,2,71.9999978027344,8|8|0,0:0|0:0|0:0,0:0:0:0:
152,100,60857,1,0,0:0:0:0:
256,192,61027,1,8,0:0:0:0:
360,100,61198,1,0,0:0:0:0:
152,100,61709,5,8,0:0:0:0:
360,284,62050,1,2,0:0:0:0:
152,284,62391,1,8,0:0:0:0:
360,100,62732,1,2,0:0:0:0:
152,284,63073,2,0,P|101:236|97:166,1,143.999995605469,8|0,0:0|0:0,0:0:0:0:
256,31,63755,1,8,0:0:0:0:
192,193,64095,1,0,0:0:0:0:
337,316,64436,6,0,P|408:311|461:265,1,143.999995605469,10|0,0:0|0:0,0:0:0:0:
256,31,65118,2,0,P|185:36|132:82,1,143.999995605469,8|0,0:0|0:0,0:0:0:0:
368,215,65630,1,0,0:0:0:0:
285,157,65800,2,0,L|216:117,1,71.9999978027344,0|8,0:0|0:0,0:0:0:0:
40,237,66141,2,0,L|108:276,1,71.9999978027344,8|0,0:0|0:0,0:0:0:0:
195,308,66482,5,0,0:0:0:0:
288,264,66652,1,0,0:0:0:0:
366,330,66823,1,0,0:0:0:0:
275,372,66993,1,0,0:0:0:0:
195,308,67164,5,4,0:0:0:0:
350,150,67505,1,0,0:0:0:0:
157,195,67845,2,0,P|165:126|220:82,1,143.999995605469,10|0,0:0|0:0,0:0:0:0:
296,91,68357,1,0,0:0:0:0:
350,150,68527,2,0,P|343:218|277:266,1,143.999995605469,2|0,0:0|0:0,0:0:0:0:
65,140,69209,1,8,0:0:0:0:
447,140,69550,1,0,0:0:0:0:
65,244,69891,5,0,0:0:0:0:
447,244,70232,1,0,0:0:0:0:
187,293,70573,2,0,P|155:192|189:92,1,215.999993408203,8|0,0:0|0:0,0:0:0:0:
256,63,71255,1,2,0:0:0:0:
322,91,71425,2,0,P|356:191|325:293,1,215.999993408203,8|8,0:0|0:0,0:0:0:0:
257,320,72107,1,0,0:0:0:0:
187,293,72277,1,0,0:0:0:0:
159,225,72448,1,0,0:0:0:0:
256,193,72618,5,2,0:0:0:0:
46,195,72959,1,0,0:0:0:0:
466,195,73300,1,8,0:0:0:0:
257,64,73641,1,0,0:0:0:0:
83,71,73982,2,0,P|39:125|46:195,1,143.999995605469,2|0,0:0|0:0,0:0:0:0:
465,195,74664,2,0,P|472:125|428:71,1,143.999995605469,8|0,0:0|0:0,0:0:0:0:
256,280,75345,5,2,0:0:0:0:
184,314,75516,1,0,0:0:0:0:
105,323,75686,2,0,P|76:302|53:253,1,71.9999978027344,0|0,0:0|0:0,0:0:0:0:
81,119,76027,2,0,P|109:139|132:188,1,71.9999978027344,8|0,0:0|0:0,0:0:0:0:
256,280,76368,2,0,P|285:259|308:210,1,71.9999978027344
81,119,76709,6,0,L|61:84,7,38.9999982147218,0|0|0|0|0|0|0|0,0:0|0:0|0:0|0:0|0:0|0:0|0:0|0:0,0:0:0:0:
135,52,77391,6,0,L|205:37,1,71.9999978027344,8|0,0:0|0:0,0:0:0:0:
377,52,77732,2,0,L|306:37,1,71.9999978027344,8|0,0:0|0:0,0:0:0:0:
190,132,78073,5,4,0:0:0:0:
185,256,78243,1,0,0:0:0:0:
177,145,78414,5,0,0:0:0:0:
172,269,78584,1,0,0:0:0:0:
71,205,78755,1,10,0:0:0:0:
441,205,79095,5,0,0:0:0:0:
447,283,79266,1,0,0:0:0:0:
406,351,79436,2,0,P|370:346|339:329,1,71.9999978027344,0|8,0:0|0:0,0:0:0:0:
269,264,79777,1,0,0:0:0:0:
77,88,80118,1,10,0:0:0:0:
320,329,80459,5,0,0:0:0:0:
242,342,80630,1,0,0:0:0:0:
164,343,80800,2,0,P|130:329|106:301,1,71.9999978027344,6|0,0:0|0:0,0:0:0:0:
229,192,81141,2,0,P|262:179|285:152,1,71.9999978027344
77,88,81482,2,0,P|43:74|20:47,1,71.9999978027344,8|0,0:0|0:0,0:0:0:0:
156,36,81823,1,0,0:0:0:0:
235,78,81993,1,0,0:0:0:0:
305,136,82164,5,0,0:0:0:0:
94,326,82845,1,2,0:0:0:0:
156,256,83016,5,2,0:0:0:0:
68,241,83186,2,0,L|55:183,1,60,2|0,0:0|0:0,0:0:0:0:
24,27,83527,5,4,1:0:0:0:
488,27,83868,1,2,0:0:0:0:
126,165,84209,5,8,0:0:0:0:
386,165,84550,1,2,0:0:0:0:
233,293,84891,5,0,0:0:0:0:
278,36,85232,1,2,0:0:0:0:
336,267,85573,5,8,0:0:0:0:
175,62,85914,1,2,0:0:0:0:
310,370,86255,5,14,0:0:0:0:
256,192,86425,12,0,88811,0:0:0:0:
