osu file format v13

[General]
AudioFilename: Konna Sekai Shiritakunakatta.mp3
AudioLeadIn: 1500
PreviewTime: 55233
Countdown: 0
SampleSet: Soft
StackLeniency: 0.7
Mode: 0
LetterboxInBreaks: 0
WidescreenStoryboard: 0

[Editor]
Bookmarks: 347,10915,22165,33074,43813,55403,56255,67164,83527
DistanceSpacing: 0.9
BeatDivisor: 4
GridSize: 32
TimelineZoom: 1

[Metadata]
Title:Konna Sekai, Shiritakunakatta. (Anime Ver.)
TitleUnicode:こんな世界、知りたくなかった。 (Anime Ver.)
Artist:Sawai Miku
ArtistUnicode:沢井美空
Creator:smallboat
Version:Easy
Source:アカメが斬る!
Tags:Akame ga Kill! tv size ending takahiro tetsuya square enix white fox gangan comic joker black red eye girl anigi king blood ice zan slash sword cut head kill death die night raid minakami yuki amamiya yuko skystar
BeatmapID:477088
BeatmapSetID:201502

[Difficulty]
HPDrainRate:2
CircleSize:2.5
OverallDifficulty:2
ApproachRate:3
SliderMultiplier:1.1
SliderTickRate:1

[Events]
//Background and Video events
Video,-210,"video.avi"
0,0,"bg.jpg",0,0
//Break Periods
//Storyboard Layer 0 (Background)
//Storyboard Layer 1 (Fail)
//Storyboard Layer 2 (Pass)
//Storyboard Layer 3 (Foreground)
//Storyboard Sound Samples
//Background Colour Transformations
3,100,163,162,255

[TimingPoints]
347,681.818181818182,4,2,1,35,1,0
4437,-100,4,2,1,30,0,0
5460,-100,4,2,1,25,0,0
5801,-100,4,2,1,35,0,0
6483,-100,4,2,3,25,0,0
6653,-100,4,2,1,25,0,0
7165,-100,4,2,3,25,0,0
7335,-100,4,2,1,25,0,0
10915,-100,4,2,1,40,0,0
17392,-100,4,2,1,25,0,0
17562,-100,4,2,1,40,0,0
33074,-100,4,2,1,50,0,0
35460,-100,4,2,3,50,0,0
35972,-100,4,2,1,50,0,0
38528,-100,4,2,3,60,0,0
38699,-100,4,2,1,50,0,0
40915,-100,4,2,3,45,0,0
41597,-100,4,2,1,45,0,0
43301,-100,4,2,1,50,0,0
43983,-100,4,2,1,55,0,0
46028,-100,4,2,2,35,0,0
46199,-100,4,2,1,45,0,0
46710,-100,4,2,3,45,0,0
46881,-100,4,2,1,45,0,0
48756,-100,4,2,2,35,0,0
49437,-100,4,2,1,45,0,0
51483,-100,4,2,2,35,0,0
52165,-100,4,2,2,45,0,0
53528,-100,4,2,4,35,0,0
55403,-100,4,2,4,50,0,0
55743,-100,4,3,1,50,0,0
56255,681.818181818182,4,2,2,65,1,0
56255,-100,4,2,2,65,0,1
58982,-100,4,2,3,65,0,1
59664,-100,4,2,2,65,0,1
60345,-100,4,2,3,65,0,1
60516,-100,4,2,2,65,0,1
61709,-100,4,2,3,65,0,1
61880,-100,4,2,2,65,0,1
62732,-100,4,2,3,65,0,1
62902,-100,4,2,2,65,0,1
63073,-100,4,2,3,65,0,1
63243,-100,4,2,2,65,0,1
64436,-100,4,2,3,65,0,1
64607,-100,4,2,2,65,0,1
65970,-100,4,2,4,65,0,1
66311,-100,4,2,2,65,0,1
66652,-100,4,3,1,65,0,1
67164,-100,4,2,2,55,0,1
76709,-100,4,2,2,40,0,1
77391,-100,4,2,2,65,0,1
78073,-100,4,2,2,55,0,1
80800,-100,4,2,2,55,0,1
82164,-100,4,2,2,25,0,0
83186,-100,4,2,1,50,0,0
83527,-100,4,2,2,40,0,0
83868,-100,4,2,3,40,0,0
84039,-100,4,2,2,40,0,0
86255,-100,4,2,1,25,0,0

[Colours]
Combo1 : 132,0,0
Combo2 : 140,140,140
Combo3 : 0,57,115
Combo4 : 140,0,140

[HitObjects]
83,283,347,5,0,0:0:0:0:
170,237,1028,2,0,P|135:195|82:181,2,110,2|0|2,0:0|0:0|0:0,0:0:0:0:
203,330,3074,1,2,0:0:0:0:
296,357,3756,2,0,P|350:365|399:341,1,110,2|2,0:0|0:0,0:0:0:0:
479,160,5801,6,0,P|482:79|425:23,2,165,6|0|0,0:0|0:0|0:0,0:0:0:0:
415,235,8528,2,0,P|308:245|235:168,1,220,0|0,0:0|0:0,0:0:0:0:
53,88,11256,6,0,L|36:161,2,55,0|0|2,0:0|0:0|0:0,0:0:0:0:
142,129,12619,2,0,L|160:188,2,55,0|0|2,0:0|0:0|0:0,0:0:0:0:
211,58,13983,2,0,P|262:39|336:53,1,110,0|2,0:0|0:0,0:0:0:0:
397,101,15347,2,0,P|416:152|402:226,1,110,0|2,0:0|0:0,0:0:0:0:
342,278,16710,6,0,P|286:285|229:258,1,110,0|2,0:0|0:0,0:0:0:0:
154,210,18074,1,0,0:0:0:0:
115,118,18756,1,2,0:0:0:0:
178,42,19437,2,0,P|233:49|285:33,2,110,0|2|0,0:0|0:0|0:0,0:0:0:0:
81,22,21483,1,2,0:0:0:0:
27,105,22165,6,0,P|12:151|25:217,1,110,0|2,0:0|0:0,0:0:0:0:
82,289,23528,1,0,0:0:0:0:
166,340,24210,1,2,0:0:0:0:
262,359,24892,2,0,P|316:357|362:329,1,110,0|2,0:0|0:0,0:0:0:0:
434,261,26256,1,0,0:0:0:0:
472,169,26937,1,2,0:0:0:0:
463,70,27619,6,0,P|389:79|347:63,1,110,0|2,0:0|0:0,0:0:0:0:
262,37,28983,1,0,0:0:0:0:
180,92,29665,1,2,0:0:0:0:
134,180,30347,5,6,0:0:0:0:
445,297,33074,5,4,0:0:0:0:
358,345,33756,2,0,P|304:355|251:342,1,110,8|2,0:0|0:0,0:0:0:0:
165,296,35119,1,8,0:0:0:0:
98,222,35801,1,8,0:0:0:0:
46,137,36483,2,0,P|97:123|152:139,1,110,8|2,0:0|0:0,0:0:0:0:
229,202,37847,1,8,0:0:0:0:
317,246,38528,5,8,0:0:0:0:
376,325,39210,2,0,P|408:281|410:227,1,110,8|2,0:0|0:0,0:0:0:0:
386,131,40574,1,8,0:0:0:0:
315,61,41256,1,8,0:0:0:0:
229,110,41937,2,0,P|237:170|206:221,2,110,8|0|8,0:0|0:0|0:0,0:0:0:0:
161,36,43983,5,4,0:0:0:0:
73,81,44665,2,0,P|49:130|48:185,1,110,0|2,0:0|0:0,0:0:0:0:
75,280,46028,1,8,0:0:0:0:
152,341,46710,1,8,0:0:0:0:
246,371,47392,2,0,P|298:384|352:373,1,110,8|2,0:0|0:0,0:0:0:0:
443,334,48756,1,8,0:0:0:0:
476,240,49437,6,0,P|478:185|451:139,1,110,6|8,0:0|0:0,0:0:0:0:
368,84,50801,1,2,0:0:0:0:
270,100,51483,1,8,0:0:0:0:
233,191,52165,1,4,0:0:0:0:
154,251,52847,2,0,P|82:213|60:136,1,165,8|10,0:0|0:0,0:0:0:0:
394,41,56256,5,6,0:0:0:0:
302,78,56936,2,0,P|241:87|191:69,1,110,8|2,0:0|0:0,0:0:0:0:
106,29,58300,1,8,0:0:0:0:
42,105,58982,1,0,0:0:0:0:
10,198,59664,2,0,L|-2:314,1,110,8|8,0:0|0:0,0:0:0:0:
79,364,61027,1,8,0:0:0:0:
166,318,61709,5,8,0:0:0:0:
263,335,62391,2,0,L|275:219,1,110,8|8,0:0|0:0,0:0:0:0:
201,158,63755,1,8,0:0:0:0:
201,59,64436,1,10,0:0:0:0:
297,37,65118,2,0,L|425:27,2,110,8|0|8,0:0|0:0|0:0,0:0:0:0:
286,135,67164,5,4,0:0:0:0:
352,207,67845,2,0,P|361:260|346:312,1,110,10|2,0:0|0:0,0:0:0:0:
257,357,69209,1,8,0:0:0:0:
159,373,69891,1,0,0:0:0:0:
64,344,70573,2,0,P|48:291|58:238,1,110,8|2,0:0|0:0,0:0:0:0:
107,152,71936,1,8,0:0:0:0:
175,80,72618,5,2,0:0:0:0:
268,47,73300,2,0,P|323:56|396:38,1,110,8|2,0:0|0:0,0:0:0:0:
470,34,74664,1,8,0:0:0:0:
495,129,75345,1,2,0:0:0:0:
464,223,76027,2,0,L|478:341,2,110,8|0|8,0:0|0:0|0:0,0:0:0:0:
375,252,78073,5,4,0:0:0:0:
286,296,78755,2,0,P|234:303|178:279,1,110,10|0,0:0|0:0,0:0:0:0:
97,229,80118,1,10,0:0:0:0:
68,134,80800,1,6,0:0:0:0:
26,44,81482,2,0,P|78:37|134:61,1,110,8|0,0:0|0:0,0:0:0:0:
177,144,82845,1,2,0:0:0:0:
220,233,83527,6,0,P|274:237|322:212,1,110,4|8,1:0|0:0,0:0:0:0:
389,139,84891,1,0,0:0:0:0:
413,42,85573,1,8,0:0:0:0:
256,192,86255,12,0,88811,0:0:0:0:
