osu file format v13

[General]
AudioFilename: gomen.mp3
AudioLeadIn: 2000
PreviewTime: 59967
Countdown: 0
SampleSet: Normal
StackLeniency: 0.7
Mode: 0
LetterboxInBreaks: 0
WidescreenStoryboard: 0

[Editor]
DistanceSpacing: 1
BeatDivisor: 4
GridSize: 4
TimelineZoom: 1.1

[Metadata]
Title:Gomen ne, Iiko ja Irarenai. (Anime ver.)
TitleUnicode:ごめんね、いいコじゃいられない。 (Anime ver.)
Artist:Sawai Miku
ArtistUnicode:沢井美空
Creator:samplefish
Version:Lanturn's Hard
Source:Kill la Kill
Tags:キルラキル aniplex trigger ending lanturn Akiyuki Tateyama tv size
BeatmapID:464974
BeatmapSetID:178717

[Difficulty]
HPDrainRate:6
CircleSize:4
OverallDifficulty:6.5
ApproachRate:8
SliderMultiplier:1.6
SliderTickRate:1

[Events]
//Background and Video events
0,0,"mako.png",0,0
Video,-390,"SAMPLATURN.avi"
//Break Periods
//Storyboard Layer 0 (Background)
//Storyboard Layer 1 (Fail)
//Storyboard Layer 2 (Pass)
//Storyboard Layer 3 (Foreground)
//Storyboard Sound Samples

[TimingPoints]
548.019794526302,387.096774193548,4,1,3,50,1,0
644,-100,4,1,3,90,0,0
2096,-100,4,1,3,50,0,0
2193,-100,4,1,3,90,0,0
3644,-100,4,1,3,50,0,0
3741,-100,4,1,3,90,0,0
6741,-100,4,1,3,60,0,0
6838,-100,4,1,3,90,0,0
8289,-100,4,1,3,60,0,0
8386,-100,4,1,3,90,0,0
9838,-100,4,1,3,60,0,0
9935,-100,4,1,3,90,0,0
14483,-100,4,2,1,70,0,0
14677,-100,4,1,3,90,0,0
18935,-100,4,2,2,40,0,0
19128,-100,4,1,3,90,0,0
19902,-100,4,1,3,70,0,0
20677,-100,4,2,1,70,0,0
20870,-100,4,1,3,90,0,0
25322,-100,4,2,1,70,0,0
25515,-100,4,1,3,90,0,0
29773,-100,4,2,2,40,0,0
29967,-100,4,1,3,90,0,0
30741,-100,4,1,3,70,0,0
31515,-100,4,2,1,70,0,0
31709,-100,4,1,3,90,0,0
37709,-100,4,2,1,60,0,0
37806,-100,4,1,3,90,0,0
39064,-100,4,2,1,60,0,0
39160,-100,4,1,3,90,0,0
40806,-100,4,2,1,60,0,0
40902,-100,4,1,3,90,0,0
42160,-100,4,2,1,60,0,0
42257,-100,4,1,3,90,0,0
43902,-100,4,2,1,60,0,0
43999,-100,4,1,3,90,0,0
45257,-100,4,2,1,60,0,0
45354,-100,4,1,3,90,0,0
60935,-100,4,2,1,70,0,1
61031,-100,4,1,3,100,0,1
62289,-100,4,2,1,70,0,1
62386,-100,4,1,3,100,0,1
64031,-100,4,2,1,70,0,1
64128,-100,4,1,3,100,0,1
65386,-100,4,2,1,70,0,1
65483,-100,4,1,3,100,0,1
67128,-100,4,2,1,70,0,1
67225,-100,4,1,3,100,0,1
68483,-100,4,2,1,70,0,1
68580,-100,4,1,3,100,0,1
72354,-100,4,1,3,100,0,0
73128,-100,4,1,3,90,0,0
73322,-100,4,2,1,70,0,1
73418,-100,4,1,3,100,0,1
74677,-100,4,2,1,70,0,1
74773,-100,4,1,3,100,0,1
76418,-100,4,2,1,70,0,1
76515,-100,4,1,3,100,0,1
77773,-100,4,2,1,70,0,1
77870,-100,4,1,3,100,0,1
79515,-100,4,2,1,70,0,1
79612,-100,4,1,3,100,0,1
80870,-100,4,2,1,70,0,1
80967,-100,4,1,3,100,0,1
82612,-100,4,2,1,70,0,1
82709,-100,4,1,3,100,0,1
83386,-100,4,2,1,70,0,1
83483,-100,4,1,3,100,0,1
88031,-100,4,1,3,90,0,0
88418,-100,4,1,3,40,0,0

[Colours]
Combo1 : 102,102,102
Combo2 : 249,0,0
Combo3 : 209,209,209
Combo4 : 179,145,26

[HitObjects]
168,132,548,5,4,0:0:0:0:
168,132,935,2,0,B|132:168|144:212|144:212|188:228|200:268,1,160,2|8,0:0|0:0,0:0:0:0:
248,319,1515,2,0,P|320:291|393:321,1,160,2|0,0:0|0:0,0:0:0:0:
393,321,2096,5,4,0:0:0:0:
368,96,2483,1,8,0:0:0:0:
448,116,2677,2,0,B|436:160|388:176|388:176|368:220|348:176|348:176|300:160|288:116,1,240,2|0,0:0|0:0,0:0:0:0:
504,180,3644,6,0,P|480:212|432:236,1,80,4|0,0:0|0:3,0:0:0:0:
419,315,4031,2,0,P|355:275|292:316,1,160,2|8,0:0|0:0,0:0:0:0:
260,236,4612,2,0,L|168:236,1,80,2|8,0:0|0:0,0:0:0:0:
112,192,4999,5,2,0:0:0:0:
256,72,5386,1,2,0:0:0:0:
400,192,5773,1,2,0:0:0:0:
488,216,5967,2,0,B|452:232|435:273|435:273|388:256|352:280,1,160,8|8,0:0|0:0,0:0:0:0:
157,267,6741,6,0,B|192:260|196:216|196:216|160:180|113:191,1,160,4|8,0:0|0:0,0:0:0:0:
80,288,7322,2,0,P|125:341|224:311,1,160,2|0,0:0|0:0,0:0:0:0:
266,259,7902,2,0,P|294:219|342:195,1,80,8|0,0:0|0:0,0:0:0:0:
416,224,8289,6,0,B|400:264|356:276|356:276|360:328|420:352,1,160,4|8,0:0|0:0,0:0:0:0:
460,296,8870,1,2,0:0:0:0:
488,220,9064,2,0,P|476:186|435:154,1,80,0|0,0:0|0:0,0:0:0:0:
364,172,9451,2,0,P|344:216|352:256,1,80,8|0,0:0|0:0,0:0:0:0:
300,308,9838,5,4,0:0:0:0:
230,346,10031,1,0,0:0:0:0:
159,308,10225,2,0,P|146:269|155:225,1,80,8|2,0:0|0:0,0:0:0:0:
297,224,10612,2,0,L|217:264,1,80,0|0,0:0|0:0,0:0:0:0:
217,179,10999,1,8,0:0:0:0:
256,108,11193,5,2,0:0:0:0:
444,192,11580,1,2,0:0:0:0:
256,276,11967,1,2,0:0:0:0:
160,236,12160,2,0,B|88:280|88:280|112:312|88:356,1,160,8|8,0:0|0:0,0:0:0:0:
40,192,12935,5,2,0:0:0:0:
70,154,13515,1,2,0:0:0:0:
94,133,13902,5,8,0:0:0:0:
424,112,14483,6,0,L|464:188,2,80,4|0|0,0:2|0:0|0:0,0:0:0:0:
390,221,15064,2,0,L|428:292,2,80,2|0|0,0:0|0:0|0:0,0:0:0:0:
312,192,15644,1,8,0:0:0:0:
88,112,16031,6,0,L|48:188,2,80,2|0|0,0:0|0:0|0:0,0:0:0:0:
121,221,16612,2,0,L|84:292,2,80,2|0|0,0:0|0:0|0:0,0:0:0:0:
200,192,17193,1,8,0:0:0:0:
256,32,17580,6,0,B|308:32|356:32|356:32|356:72|320:72,1,160,2|0,0:0|0:0,0:0:0:0:
256,112,18160,2,0,B|204:112|156:112|156:112|156:152|192:152,1,160,2|0,0:0|0:0,0:0:0:0:
256,192,18741,1,8,0:0:0:0:
224,268,18935,1,2,0:0:0:0:
224,268,19031,1,2,0:0:0:0:
224,268,19128,6,0,B|156:268|156:268|136:216|52:192|136:168|156:116|156:116|224:116,1,320,2|2,0:0|0:0,0:0:0:0:
297,82,20096,1,2,0:0:0:0:
368,120,20289,1,4,0:2:0:0:
376,128,20677,6,0,P|416:192|376:264,1,160,4|8,0:0|0:0,0:0:0:0:
336,196,21257,2,0,P|416:200|472:276,1,160,2|0,0:0|0:0,0:0:0:0:
440,332,21838,2,0,L|360:332,1,80,8|0,0:0|0:0,0:0:0:0:
204,324,22225,6,0,B|288:296|288:296|268:344|301:388,1,160,2|8,0:0|0:0,0:0:0:0:
360,332,22806,1,2,0:0:0:0:
356,252,22999,1,0,0:0:0:0:
284,220,23193,1,2,0:0:0:0:
208,248,23386,1,8,0:0:0:0:
404,64,23773,6,0,P|380:104|324:120,1,80,2|0,0:0|0:0,0:0:0:0:
324,44,24160,1,8,0:0:0:0:
404,64,24354,2,0,B|452:124|452:124|452:212,1,160,2|2,0:0|0:0,0:0:0:0:
452,288,24935,1,8,0:0:0:0:
188,340,25322,5,4,0:0:0:0:
116,300,25515,1,0,0:0:0:0:
188,264,25709,1,0,0:0:0:0:
116,224,25902,1,2,0:0:0:0:
188,188,26096,1,0,0:0:0:0:
116,148,26289,1,0,0:0:0:0:
188,112,26483,1,8,0:0:0:0:
324,340,26870,5,2,0:0:0:0:
396,300,27064,1,0,0:0:0:0:
324,264,27257,1,0,0:0:0:0:
396,224,27451,1,2,0:0:0:0:
324,188,27644,1,0,0:0:0:0:
396,148,27838,1,0,0:0:0:0:
324,112,28031,1,8,0:0:0:0:
256,360,28418,6,0,B|208:332|168:360|168:360|148:324|172:280,1,160,2|0,0:0|0:0,0:0:0:0:
256,280,28999,2,0,B|304:252|344:280|344:280|364:244|340:200,1,160,2|0,0:0|0:0,0:0:0:0:
256,192,29580,1,8,0:0:0:0:
256,112,29773,1,2,0:0:0:0:
256,112,29870,1,2,0:0:0:0:
256,112,29967,6,0,B|224:100|184:112|160:168|160:168|136:220|120:168|120:168|96:104|60:80|24:88,1,320,2|2,0:0|0:0,0:0:0:0:
28,168,30935,1,2,0:0:0:0:
60,240,31128,1,4,0:2:0:0:
256,192,31515,6,0,B|332:192|332:192|360:168|380:168|380:168|424:168,1,160,4|8,0:0|0:0,0:0:0:0:
480,132,32096,2,0,B|460:88|392:88|392:88|312:88,1,160,2|0,0:0|0:0,0:0:0:0:
258,105,32677,2,0,P|218:113|170:97,1,80,8|0,0:0|0:0,0:0:0:0:
88,32,33064,6,0,P|124:100|80:172,1,160,2|8,0:0|0:0,0:0:0:0:
44,100,33644,1,2,0:0:0:0:
88,32,33838,1,0,0:0:0:0:
168,32,34031,1,2,0:0:0:0:
212,100,34225,1,8,0:0:0:0:
256,252,34612,6,0,P|212:244|186:215,1,80,2|0,0:0|0:0,0:0:0:0:
255,175,34999,1,8,0:0:0:0:
318,126,35193,2,0,B|363:99|377:51|377:51|384:90|423:112,1,160,2|2,0:0|0:0,0:0:0:0:
458,40,35773,1,8,0:0:0:0:
491,112,35967,6,0,B|491:193|491:193|491:250|443:250,1,160,2|2,0:0|0:0,0:0:0:0:
374,277,36548,2,0,B|322:287|322:287|277:251|222:265,1,160,8|8,0:0|0:0,0:0:0:0:
80,192,37322,1,2,0:0:0:0:
222,119,37709,6,0,B|277:133|322:97|322:97|374:107,1,160,4|2,0:0|0:0,0:0:0:0:
424,44,38289,2,0,L|330:25,1,80,8|0,0:0|0:0,0:0:0:0:
452,116,38677,2,0,P|452:164|424:208,1,80,8|0,0:0|0:0,0:0:0:0:
364,220,39064,6,0,B|320:180|268:184|268:184|212:220,1,160,4|2,0:0|0:0,0:0:0:0:
284,264,39644,1,0,0:0:0:0:
232,120,39838,2,0,B|164:160|164:160|116:192|124:244,1,160,2|2,0:0|0:0,0:0:0:0:
180,284,40418,1,8,0:0:0:0:
48,200,40806,6,0,B|60:84|60:84|40:32,1,160,4|2,0:0|0:0,0:0:0:0:
124,32,41386,2,0,B|180:32|180:32|204:52,1,80,8|0,0:0|0:0,0:0:0:0:
232,120,41773,2,0,B|280:144|280:144|320:144,1,80,8|0,0:0|0:0,0:0:0:0:
352,80,42160,6,0,P|311:144|352:208,1,160,4|2,0:0|0:0,0:0:0:0:
312,276,42741,1,0,0:0:0:0:
232,284,42935,2,0,B|100:284|100:284|60:312,1,160,2|2,0:0|0:0,0:0:0:0:
28,236,43515,1,8,0:0:0:0:
152,132,43902,6,0,B|236:108|236:148|316:128,1,160,4|2,0:0|0:0,0:0:0:0:
384,96,44483,2,0,P|392:56|376:16,1,80,8|0,0:0|0:0,0:0:0:0:
452,140,44870,2,0,P|444:180|460:220,1,80,8|0,0:0|0:0,0:0:0:0:
396,268,45257,6,0,B|312:292|312:252|232:272,1,160,4|2,0:0|0:0,0:0:0:0:
164,240,45838,1,0,0:0:0:0:
224,188,46031,2,0,B|288:168|348:192|348:192|384:176,1,160,2|2,0:0|0:0,0:0:0:0:
452,140,46612,1,8,0:0:0:0:
177,79,46999,6,0,P|161:115|157:159,1,80,8|2,0:0|0:0,0:0:0:0:
106,47,47580,6,0,P|89:83|85:123,1,80,2|8,0:0|0:0,0:0:0:0:
29,16,48160,5,8,0:0:0:0:
12,168,48548,6,0,B|24:228|80:228|80:228|164:228,1,160,2|8,0:0|0:0,0:0:0:0:
219,228,49128,2,0,B|279:228|279:228|335:228|347:288,1,160,2|8,0:0|0:0,0:0:0:0:
412,336,49709,2,0,P|424:298|416:246,1,80,8|0,0:0|0:0,0:0:0:0:
388,184,50096,6,0,B|376:144|324:144|324:144|228:144,1,160,2|8,0:0|0:0,0:0:0:0:
172,116,50677,1,2,0:0:0:0:
236,68,50870,1,0,0:0:0:0:
317,68,51064,1,2,0:0:0:0:
397,68,51257,1,8,0:0:0:0:
488,192,51644,6,0,P|448:212|424:248,1,80,2|0,0:0|0:0,0:0:0:0:
500,272,52031,1,8,0:0:0:0:
360,216,52225,2,0,B|304:200|304:200|252:224|196:196,1,160,2|0,0:0|0:0,0:0:0:0:
152,136,52806,1,8,0:0:0:0:
256,136,52999,1,2,0:0:0:0:
236,280,53193,6,0,B|181:276|152:248|152:248|72:248,1,160,2|8,0:0|0:0,0:0:0:0:
1,137,53773,2,0,P|76:113|152:136,1,160,2|2,0:0|0:0,0:0:0:0:
208,200,54354,1,8,0:0:0:0:
236,280,54548,6,0,L|324:296,1,80,8|2,0:0|0:0,0:0:0:0:
272,248,55322,6,0,L|364:260,1,80,8|2,0:0|0:0,0:0:0:0:
300,208,56096,5,8,0:0:0:0:
300,208,56289,2,0,B|400:225|400:225|438:231|460:206,1,160,2|8,0:0|0:0,0:0:0:0:
472,132,56870,2,0,B|436:132|412:148|412:148|356:132|344:56,1,160,2|8,0:0|0:0,0:0:0:0:
284,33,57451,1,8,0:0:0:0:
248,104,57644,6,0,P|268:164|364:236,1,160,2|8,0:0|0:0,0:0:0:0:
416,252,58225,1,8,0:0:0:0:
256,256,58612,1,8,0:0:0:0:
288,332,58806,1,8,0:0:0:0:
96,252,59193,1,2,0:0:0:0:
256,112,59580,1,8,0:0:0:0:
256,112,59773,1,8,0:0:0:0:
96,252,60160,6,0,P|104:312|132:344,1,80,2|0,0:0|0:0,0:0:0:0:
236,228,60548,2,0,P|228:168|200:136,1,80,8|0,0:0|0:0,0:0:0:0:
168,272,60935,6,0,P|236:308|304:272,1,160,4|8,0:0|0:0,0:0:0:0:
356,212,61515,2,0,P|320:144|356:76,1,160,2|0,0:0|0:0,0:0:0:0:
400,144,62096,1,8,0:0:0:0:
436,216,62289,6,0,B|456:292|416:328|416:328|344:304,1,160,4|2,0:0|0:0,0:0:0:0:
304,284,62870,1,2,0:0:0:0:
304,284,63064,1,2,0:0:0:0:
256,220,63257,2,0,L|164:220,1,80,2|0,0:0|0:0,0:0:0:0:
304,156,63644,2,0,L|392:156,1,80,8|0,0:0|0:0,0:0:0:0:
256,96,64031,6,0,B|164:96|164:96|124:100|100:148,1,160,4|8,0:0|0:0,0:0:0:0:
64,196,64612,2,0,B|48:240|76:272|76:272|48:308|72:348,1,160,2|0,0:0|0:0,0:0:0:0:
144,316,65193,1,8,0:0:0:0:
208,268,65386,6,0,P|256:280|280:312,1,80,4|0,0:0|0:0,0:0:0:0:
392,260,65773,2,0,P|344:248|320:216,1,80,0|8,0:0|0:0,0:0:0:0:
392,180,66160,1,8,0:0:0:0:
460,224,66354,1,2,0:0:0:0:
392,260,66548,1,2,0:0:0:0:
392,180,66741,2,0,P|376:136|400:92,1,80,8|0,0:0|0:0,0:0:0:0:
468,140,67128,6,0,B|392:180|392:180|304:180,1,160,4|8,0:0|0:0,0:0:0:0:
240,144,67709,2,0,P|200:120|180:76,1,80,2|0,0:0|0:0,0:0:0:0:
120,184,68096,2,0,P|84:224|44:244,1,80,0|8,0:0|0:0,0:0:0:0:
44,60,68483,6,0,L|120:124,1,80,4|0,0:0|0:0,0:0:0:0:
164,164,68870,1,2,0:0:0:0:
180,244,69064,1,8,0:0:0:0:
232,304,69257,1,8,0:0:0:0:
308,324,69451,2,0,P|376:296|408:204,1,160,2|8,0:0|0:0,0:0:0:0:
396,148,70031,1,0,0:0:0:0:
338,92,70225,5,2,0:0:0:0:
260,108,70418,1,8,0:0:0:0:
208,48,70612,2,0,P|184:84|188:139,1,80,2|0,0:0|0:0,0:0:0:0:
208,196,70999,2,0,B|132:280|132:280|132:336,1,160,2|2,0:0|0:0,0:0:0:0:
204,364,71580,6,0,P|272:328|344:368,1,160,8|8,0:0|0:0,0:0:0:0:
420,353,72160,2,0,P|452:325|472:277,1,80,2|0,0:0|0:0,0:0:0:0:
460,212,72548,1,2,0:0:0:0:
419,88,72741,1,8,0:0:0:0:
379,212,72935,1,8,0:0:0:0:
484,135,73128,1,8,0:0:0:0:
354,135,73322,6,0,B|276:135|240:120|240:120|192:136,1,160,4|8,0:0|0:0,0:0:0:0:
124,168,73902,2,0,B|76:184|40:140|40:140|92:96,1,160,2|0,0:0|0:0,0:0:0:0:
160,60,74483,1,8,0:0:0:0:
232,92,74677,6,0,P|280:116|384:88,1,160,4|2,0:0|0:0,0:0:0:0:
444,48,75257,1,2,0:0:0:0:
444,48,75451,1,2,0:0:0:0:
460,152,75644,2,0,B|436:196|436:196|436:240,1,80,2|0,0:0|0:0,0:0:0:0:
336,332,76031,2,0,B|360:288|360:288|360:244,1,80,8|0,0:0|0:0,0:0:0:0:
276,252,76418,6,0,P|206:216|140:254,1,160,4|8,0:0|0:0,0:0:0:0:
209,299,76999,2,0,B|209:179|209:179|184:135,1,160,2|0,0:0|0:0,0:0:0:0:
264,116,77580,1,8,0:0:0:0:
328,68,77773,6,0,L|408:68,1,80,4|0,0:0|0:0,0:0:0:0:
392,148,78160,2,0,L|484:180,1,80,8|8,0:0|0:0,0:0:0:0:
444,252,78548,1,0,0:0:0:0:
380,296,78741,1,2,0:0:0:0:
300,296,78935,1,2,0:0:0:0:
224,272,79128,2,0,L|144:272,1,80,8|0,0:0|0:0,0:0:0:0:
68,240,79515,6,0,B|88:192|140:192|140:192|220:192,1,160,4|8,0:0|0:0,0:0:0:0:
248,124,80096,2,0,P|276:152|292:204,1,80,2|0,0:0|0:0,0:0:0:0:
368,176,80483,2,0,P|368:215|342:263,1,80,0|8,0:0|0:0,0:0:0:0:
424,288,80870,6,0,P|395:316|344:332,1,80,4|0,0:0|0:0,0:0:0:0:
284,300,81257,1,2,0:0:0:0:
212,264,81451,1,8,0:0:0:0:
136,284,81644,1,8,0:0:0:0:
100,356,81838,2,0,P|62:255|112:208,1,160,2|8,0:0|0:0,0:0:0:0:
152,180,82418,6,0,L|240:180,1,80,2|4,0:0|0:0,0:0:0:0:
292,124,82806,1,8,0:0:0:0:
292,124,82999,1,8,0:0:0:0:
320,200,83193,6,0,L|412:200,1,80,2|4,0:0|0:0,0:0:0:0:
456,140,83580,1,8,0:0:0:0:
456,140,83773,1,8,0:0:0:0:
496,212,83967,5,2,0:0:0:0:
452,280,84160,2,0,L|352:280,1,80,8|0,0:0|0:0,0:0:0:0:
344,356,84548,2,0,L|281:293,1,80,2|0,0:0|0:0,0:0:0:0:
216,336,84935,2,0,L|216:244,1,80,8|8,0:0|0:0,0:0:0:0:
140,228,85322,2,0,L|199:168,1,80,2|8,0:0|0:0,0:0:0:0:
275,156,85709,6,0,P|314:238|284:293,1,160,2|8,0:0|0:0,0:0:0:0:
232,228,86289,2,0,B|184:244|140:240|140:240|168:260|180:300,1,160,2|8,0:0|0:0,0:0:0:0:
100,312,86870,1,8,0:0:0:0:
176,168,87064,6,0,B|212:144|252:152|252:152|280:120|340:104,1,160,2|2,0:0|0:0,0:0:0:0:
396,92,87644,1,8,0:0:0:0:
328,192,87838,1,8,0:0:0:0:
224,76,88031,1,8,0:0:0:0:
224,76,88418,5,0,0:0:0:0:
