osu file format v13

[General]
AudioFilename: gomen.mp3
AudioLeadIn: 2000
PreviewTime: 59967
Countdown: 0
SampleSet: Soft
StackLeniency: 0.7
Mode: 0
LetterboxInBreaks: 0
WidescreenStoryboard: 0

[Editor]
DistanceSpacing: 1.6
BeatDivisor: 4
GridSize: 4
TimelineZoom: 2.6

[Metadata]
Title:Gomen ne, Iiko ja Irarenai. (Anime ver.)
TitleUnicode:ごめんね、いいコじゃいられない。 (Anime ver.)
Artist:Sawai Miku
ArtistUnicode:沢井美空
Creator:samplefish
Version:Insane
Source:Kill la Kill
Tags:キルラキル aniplex trigger ending lanturn Akiyuki Tateyama tv size
BeatmapID:464973
BeatmapSetID:178717

[Difficulty]
HPDrainRate:7
CircleSize:4
OverallDifficulty:7.5
ApproachRate:8.7
SliderMultiplier:1.8
SliderTickRate:1

[Events]
//Background and Video events
0,0,"mako.png",0,0
Video,-390,"SAMPLATURN.avi"
//Break Periods
//Storyboard Layer 0 (Background)
//Storyboard Layer 1 (Fail)
//Storyboard Layer 2 (Pass)
//Storyboard Layer 3 (Foreground)
//Storyboard Sound Samples

[TimingPoints]
548.019794526302,387.096774193548,4,2,1,70,1,0
13902,-100,4,2,1,50,0,0
19902,-100,4,2,1,40,0,0
20289,-100,4,2,1,60,0,0
25322,-100,4,2,1,50,0,0
30741,-100,4,2,1,60,0,0
31128,-100,4,2,1,75,0,0
31515,-100,4,2,1,60,0,0
60935,-100,4,2,1,70,0,1
72354,-100,4,2,1,70,0,0
73322,-100,4,2,1,70,0,1
88031,-100,4,2,1,70,0,0
88418,-100,4,2,1,40,0,0

[Colours]
Combo1 : 102,102,102
Combo2 : 249,0,0
Combo3 : 209,209,209
Combo4 : 179,145,26

[HitObjects]
40,180,354,6,0,L|20:136,2,30,0|0|0,1:0|1:0|1:0,0:0:0:0:
68,212,547,6,0,P|136:208|168:180,1,90,4|0,1:2|1:0,0:0:0:0:
204,92,935,1,0,0:0:0:0:
120,288,1128,1,0,0:0:0:0:
296,344,1322,2,0,P|280:304|275:242,1,90
344,164,1709,1,0,0:0:0:0:
392,272,1902,1,0,0:0:0:0:
160,232,2096,5,4,1:2:0:0:
92,104,2289,1,0,0:0:0:0:
280,48,2483,2,0,P|283:95|270:158,1,90,0|0,0:3|0:0,0:0:0:0:
92,104,2870,2,0,P|132:100|180:136,1,90,0|0,0:3|0:0,0:0:0:0:
160,232,3257,1,0,0:0:0:0:
276,192,3451,1,0,0:0:0:0:
203,44,3644,5,4,1:2:0:0:
276,192,3838,1,0,1:0:0:0:
332,100,4031,2,0,P|371:96|424:100,1,90
495,255,4418,2,0,P|464:224|437:187,1,90
512,84,4806,5,0,1:0:0:0:
332,32,4999,1,4,1:2:0:0:
180,352,5386,1,4,1:2:0:0:
196,132,5773,5,0,1:0:0:0:
316,252,5967,1,4,1:2:0:0:
256,24,6354,1,2,0:0:0:0:
349,209,6741,6,0,P|310:235|248:228,1,90,4|0,1:0|0:0,0:0:0:0:
96,188,7128,1,8,0:0:0:0:
184,96,7322,1,0,1:0:0:0:
184,260,7515,2,0,P|188:308|184:364,1,90
81,320,7902,1,8,0:0:0:0:
307,319,8096,1,0,0:0:0:0:
307,319,8193,1,0,0:0:0:0:
307,319,8289,6,0,P|360:315|405:319,1,90,0|0,1:0|0:0,0:0:0:0:
508,236,8677,2,0,P|455:232|410:236,1,90,8|0,0:0|1:0,0:0:0:0:
301,244,9064,1,0,0:0:0:0:
336,132,9257,1,0,0:0:0:0:
222,160,9451,1,8,0:0:0:0:
253,47,9644,1,0,0:0:0:0:
449,122,9838,6,0,P|446:173|450:214,1,90,0|0,1:0|0:0,0:0:0:0:
465,336,10225,1,8,0:0:0:0:
341,314,10418,1,0,1:0:0:0:
218,361,10612,2,0,P|208:317|210:265,1,90,0|0,0:0|0:0,2:0:0:0:
273,174,10999,5,0,0:0:0:0:
218,361,11193,1,4,1:2:0:0:
256,56,11580,1,4,1:2:0:0:
48,184,11967,5,0,1:0:0:0:
256,56,12160,1,4,1:2:0:0:
256,56,12548,2,0,B|217:143|297:143|261:228,1,180,4|4,1:2|1:2,0:0:0:0:
260,228,13515,5,4,1:2:0:0:
64,56,13902,1,4,1:2:0:0:
264,160,14483,6,0,P|316:160|376:135,1,90,4|0,1:0|0:0,0:0:0:0:
328,44,14870,1,0,0:0:0:0:
192,100,15064,2,0,P|172:144|192:212,1,90,0|0,1:0|0:0,0:0:0:0:
252,284,15451,1,0,0:0:0:0:
264,160,15644,1,8,0:0:0:0:
364,236,15838,1,0,0:0:0:0:
148,352,16031,6,0,P|110:326|86:272,1,90,0|0,1:0|0:0,0:0:0:0:
76,180,16418,1,0,0:0:0:0:
220,280,16612,2,0,P|196:243|191:199,1,90,0|0,1:0|0:0,0:0:0:0:
236,100,16999,1,0,0:0:0:0:
316,196,17193,1,8,0:0:0:0:
236,100,17386,1,0,0:0:0:0:
220,280,17580,5,0,1:0:0:0:
220,280,18160,1,0,1:0:0:0:
220,280,18354,2,0,P|292:244|384:272,1,180,0|8,0:0|0:0,0:0:0:0:
468,176,18935,2,0,L|472:96,2,45,0|0|0,0:0|0:0|1:0,0:0:0:0:
343,116,19902,5,0,0:0:0:0:
197,213,20096,1,0,1:0:0:0:
256,48,20289,1,2,0:0:0:0:
305,217,20483,1,0,1:0:0:0:
100,64,20677,6,0,P|108:132|96:252,1,180,4|8,1:0|0:0,0:0:0:0:
56,340,21257,1,0,1:0:0:0:
164,324,21451,2,0,P|208:315|252:319,1,90,0|0,0:0|0:0,0:0:0:0:
360,376,21838,2,0,P|363:317|355:257,1,90,8|0,0:0|0:0,0:0:0:0:
256,48,22225,6,0,P|253:107|261:167,1,90,0|0,1:0|0:0,0:0:0:0:
356,200,22612,1,8,0:0:0:0:
220,220,22806,2,0,P|188:200|172:124,1,90,0|0,1:0|0:0,0:0:0:0:
104,56,23193,1,0,0:0:0:0:
60,164,23386,2,0,P|59:211|62:266,1,90,8|0,0:0|0:0,0:0:0:0:
262,372,23773,6,0,P|263:325|260:270,1,90,0|0,1:0|0:0,0:0:0:0:
152,325,24160,1,8,0:0:0:0:
346,219,24354,2,0,P|347:172|344:117,1,90,0|0,1:0|0:0,0:0:0:0:
236,172,24741,1,0,0:0:0:0:
315,38,24935,2,0,P|384:44|437:125,1,135,2|0,0:0|0:0,0:0:0:0:
445,161,25322,5,4,1:0:0:0:
86,342,25902,1,0,1:0:0:0:
148,104,26483,1,8,0:0:0:0:
276,88,26677,1,0,0:0:0:0:
280,312,26870,5,0,1:0:0:0:
104,248,27451,1,0,1:0:0:0:
344,120,28031,1,8,0:0:0:0:
452,183,28225,1,0,0:0:0:0:
280,312,28418,5,0,1:0:0:0:
165,161,28999,1,0,1:0:0:0:
402,110,29580,1,8,0:0:0:0:
401,237,29773,2,0,L|402:304,2,45,0|0|0,0:0|0:0|1:0,0:0:0:0:
401,237,30741,6,0,P|404:185|394:133,1,90,0|0,0:0|1:0,0:0:0:0:
271,151,31128,1,2,0:0:0:0:
401,237,31322,1,0,0:0:0:0:
276,340,31515,6,0,P|228:348|168:344,1,90,4|0,1:0|0:0,0:0:0:0:
76,304,31902,1,8,0:0:0:0:
159,216,32096,1,0,1:0:0:0:
56,160,32289,1,0,0:0:0:0:
132,67,32483,2,0,P|173:52|218:53,1,90,0|8,0:0|0:0,0:0:0:0:
219,54,33064,6,0,P|213:98|214:143,1,90,0|0,1:0|0:0,0:0:0:0:
326,246,33451,1,8,0:0:0:0:
438,144,33644,2,0,P|439:99|433:54,1,90,0|0,1:0|0:0,0:0:0:0:
326,246,34031,1,0,0:0:0:0:
468,221,34225,1,8,0:0:0:0:
348,84,34418,1,0,0:0:0:0:
348,84,34515,1,0,0:0:0:0:
348,84,34612,6,0,L|353:201,1,90,0|0,1:0|0:0,0:0:0:0:
164,300,34999,2,0,L|159:183,1,90,8|0,0:0|1:0,0:0:0:0:
156,100,35386,1,0,0:0:0:0:
58,251,35580,1,0,0:0:0:0:
256,282,35773,1,8,0:0:0:0:
240,72,35967,1,4,1:0:0:0:
240,72,36354,5,0,1:0:0:0:
333,194,36548,2,0,L|345:120,3,45,0|0|0|0,1:0|0:0|0:0|0:0,0:0:0:0:
256,231,36935,2,0,L|248:275,3,45,0|0|0|0,1:0|0:0|0:0|0:0,0:0:0:0:
247,198,37322,1,0,1:0:0:0:
218,176,37418,1,0,0:0:0:0:
183,167,37515,1,0,0:0:0:0:
147,171,37612,1,0,0:0:0:0:
116,172,37709,6,0,P|72:144|56:84,1,90,4|0,1:0|0:0,0:0:0:0:
160,72,38096,1,0,1:0:0:0:
218,177,38289,2,0,P|223:237|218:302,1,90,0|0,0:0|1:0,0:0:0:0:
186,369,38677,1,0,0:0:0:0:
110,291,38870,1,0,1:0:0:0:
300,248,39064,6,0,L|420:240,1,90,4|0,1:0|1:0,0:0:0:0:
256,324,39451,2,0,P|220:288|212:244,1,90,2|0,0:0|1:0,0:0:0:0:
311,54,39838,2,0,P|319:99|320:144,1,90,2|0,0:0|1:0,0:0:0:0:
300,248,40225,1,0,0:0:0:0:
168,144,40418,1,0,1:0:0:0:
320,144,40612,1,0,0:0:0:0:
184,252,40806,6,0,P|136:244|88:244,1,90,4|0,1:0|0:0,0:0:0:0:
28,316,41193,1,0,1:0:0:0:
188,336,41386,2,0,P|243:313|265:268,1,90,0|0,0:0|1:0,0:0:0:0:
246,172,41773,1,0,0:0:0:0:
80,104,41967,1,0,1:0:0:0:
80,104,42160,6,0,P|132:96|180:104,1,90,4|0,0:1|1:0,0:0:0:0:
372,164,42548,2,0,P|320:156|272:164,1,90,0|0,0:0|1:0,0:0:0:0:
324,261,42935,1,2,0:0:0:0:
465,222,43128,2,0,P|469:169|462:103,1,90,0|2,0:0|0:0,0:0:0:0:
349,65,43515,1,0,1:0:0:0:
188,44,43709,1,0,0:0:0:0:
163,63,43806,1,0,0:0:0:0:
147,90,43902,6,0,P|144:141|149:194,1,90,4|0,1:0|0:0,0:0:0:0:
344,332,44289,2,0,P|347:281|342:228,1,90,0|0,1:0|0:0,0:0:0:0:
240,120,44677,1,0,1:0:0:0:
208,264,44870,1,0,0:0:0:0:
344,332,45064,2,0,P|404:344|456:320,1,90,0|4,1:0|0:1,0:0:0:0:
208,264,45451,6,0,L|104:284,1,90,0|0,1:0|0:0,0:0:0:0:
240,120,45838,2,0,L|344:100,1,90,0|2,1:0|0:0,0:0:0:0:
496,176,46225,1,0,1:0:0:0:
378,218,46418,1,2,0:0:0:0:
398,94,46612,1,0,1:0:0:0:
496,176,46806,1,0,0:0:0:0:
400,312,46999,5,0,1:0:0:0:
398,94,47193,1,4,1:0:0:0:
176,256,47580,6,0,P|180:212|168:140,1,90,0|0,1:0|0:0,0:0:0:0:
56,208,47967,1,0,1:0:0:0:
148,360,48160,2,0,P|212:356|312:364,1,135
326,365,48548,6,0,P|348:328|320:268,1,90,4|0,1:0|0:0,0:0:0:0:
212,280,48935,1,8,0:0:0:0:
284,176,49128,2,0,P|288:132|280:71,1,90,0|0,1:0|0:0,0:0:0:0:
160,60,49515,1,0,0:0:0:0:
76,152,49709,1,8,0:0:0:0:
196,196,49903,1,0,1:0:0:0:
136,356,50096,5,0,1:0:0:0:
212,280,50289,2,0,P|256:276|320:280,1,90,0|8,0:0|0:0,0:0:0:0:
373,178,50677,2,0,P|328:174|284:176,1,90,0|0,1:0|0:0,0:0:0:0:
212,280,51064,1,0,0:0:0:0:
284,176,51257,1,8,0:0:0:0:
156,176,51451,1,0,1:0:0:0:
216,368,51644,6,0,P|221:323|212:280,1,90,0|0,1:0|0:0,0:0:0:0:
156,176,52031,1,8,0:0:0:0:
365,105,52225,2,0,P|392:189|334:272,1,180,0|0,1:0|0:0,0:0:0:0:
195,189,52806,2,0,P|239:178|284:176,1,90,8|0,0:0|1:0,0:0:0:0:
120,248,53193,5,0,1:0:0:0:
152,96,53386,1,0,0:0:0:0:
284,176,53580,1,8,0:0:0:0:
248,329,53773,2,0,P|203:330|158:322,1,90,0|0,1:0|0:0,0:0:0:0:
284,176,54161,2,0,P|328:175|372:187,1,90,0|8,0:0|0:0,0:0:0:0:
182,256,54548,1,0,1:0:0:0:
158,226,54645,1,0,1:0:0:0:
156,189,54741,6,0,P|125:164|70:151,1,90,0|0,1:0|0:0,0:0:0:0:
70,267,55128,1,8,0:0:0:0:
178,89,55322,1,0,1:0:0:0:
213,84,55419,1,0,1:0:0:0:
245,98,55515,2,0,P|280:125|323:135,1,90,0|0,1:0|0:0,0:0:0:0:
462,96,55902,1,8,0:0:0:0:
414,250,56096,1,0,1:0:0:0:
276,132,56289,6,0,P|224:124|172:152,1,90,0|0,1:0|0:0,0:0:0:0:
327,255,56677,2,0,P|370:263|413:250,1,90,0|0,1:0|0:0,0:0:0:0:
349,79,57064,1,0,1:0:0:0:
190,164,57257,2,0,L|100:169,1,90,0|0,0:0|1:0,0:0:0:0:
327,255,57644,1,0,1:0:0:0:
184,104,58031,5,0,1:0:0:0:
328,278,58225,1,0,1:0:0:0:
136,123,58612,5,0,1:0:0:0:
376,259,58806,1,0,1:0:0:0:
256,192,59193,5,0,1:0:0:0:
405,163,59580,5,0,1:0:0:0:
105,219,59774,1,0,1:0:0:0:
362,147,60160,6,0,P|404:163|448:156,1,90,0|0,1:0|1:0,0:0:0:0:
294,89,60548,2,0,P|273:154|290:200,1,90,10|0,0:0|0:0,0:0:0:0:
392,316,60935,6,0,P|436:312|508:332,2,90,4|0|0,1:0|1:0|1:0,0:0:0:0:
268,352,61515,2,0,P|272:308|264:256,1,90,0|0,0:0|1:0,0:0:0:0:
132,320,61902,1,0,0:0:0:0:
28,220,62096,1,0,1:0:0:0:
164,172,62289,6,0,P|176:124|173:72,1,90,0|0,0:0|1:0,0:0:0:0:
52,108,62677,1,2,0:0:0:0:
164,172,62870,1,0,1:0:0:0:
248,36,63064,1,2,0:0:0:0:
164,172,63257,2,0,P|160:232|164:284,1,90,0|0,1:0|0:0,0:0:0:0:
256,348,63644,2,0,P|300:358|364:346,1,90,0|0,1:0|0:0,0:0:0:0:
415,167,64031,6,0,P|372:156|328:160,1,90,0|0,1:0|0:0,0:0:0:0:
272,236,64418,1,0,1:0:0:0:
444,248,64612,2,0,P|499:174|448:88,1,180
353,71,65193,1,0,1:0:0:0:
267,186,65386,1,0,0:0:0:0:
415,167,65580,5,0,1:0:0:0:
246,106,65773,1,2,0:0:0:0:
349,244,65967,1,0,1:0:0:0:
353,71,66160,1,2,0:0:0:0:
233,238,66354,2,0,P|229:283|232:328,1,90,0|0,1:0|0:0,0:0:0:0:
318,143,66741,2,0,P|321:187|319:232,1,90,0|0,1:0|0:0,0:0:0:0:
233,78,67128,6,0,P|320:34|411:89,1,180,4|0,1:0|1:0,0:0:0:0:
458,180,67709,1,0,0:0:0:0:
360,353,67902,2,0,P|348:308|353:264,1,90,0|0,1:0|0:0,0:0:0:0:
392,156,68289,1,0,1:0:0:0:
253,340,68483,6,0,P|201:356|157:352,1,90,0|0,0:0|1:0,0:0:0:0:
152,88,68870,2,0,P|192:72|280:72,1,90,2|0,0:0|1:0,0:0:0:0:
368,108,69257,2,0,L|364:224,1,90,2|0,0:0|1:0,0:0:0:0:
144,276,69644,2,0,L|148:160,1,90,0|0,0:0|1:0,0:0:0:0:
256,56,70031,1,0,0:0:0:0:
392,292,70225,5,0,1:0:0:0:
256,328,70418,1,0,0:0:0:0:
120,292,70612,1,0,1:0:0:0:
256,56,70999,1,0,0:0:0:0:
392,292,71386,5,0,1:0:0:0:
120,292,71580,1,0,1:0:0:0:
360,128,71967,5,0,1:0:0:0:
152,128,72160,1,2,0:0:0:0:
260,308,72354,1,0,1:0:0:0:
284,73,72548,1,2,0:0:0:0:
137,220,72741,1,0,1:0:0:0:
340,271,72935,1,2,0:0:0:0:
284,73,73128,1,0,0:0:0:0:
88,300,73322,6,0,P|140:315|190:295,1,90,4|0,1:0|0:0,0:0:0:0:
259,190,73709,1,0,1:0:0:0:
392,301,73902,2,0,P|349:301|294:307,1,90,0|0,0:0|1:0,0:0:0:0:
170,364,74289,2,0,P|174:320|166:239,1,90,0|0,0:0|1:0,0:0:0:0:
135,95,74677,6,0,P|183:104|237:95,1,90,0|0,0:0|1:0,0:0:0:0:
354,60,75064,2,0,P|359:112|354:160,1,90,2|0,0:0|1:0,0:0:0:0:
328,286,75451,1,2,0:0:0:0:
236,179,75644,2,0,P|144:175|25:179,1,180,0|0,1:0|1:0,0:0:0:0:
95,287,76225,1,0,0:0:0:0:
315,240,76418,6,0,P|332:200|330:143,1,90,0|0,1:0|0:0,0:0:0:0:
235,86,76806,1,0,1:0:0:0:
405,39,76999,2,0,P|493:58|487:156,1,180
415,228,77580,1,0,1:0:0:0:
272,142,77773,6,0,P|229:133|183:133,1,90,0|0,0:0|1:0,0:0:0:0:
11,256,78160,2,0,P|53:245|95:226,1,90,2|0,0:0|1:0,0:0:0:0:
63,127,78548,1,2,0:0:0:0:
160,286,78741,2,0,P|259:274|369:281,1,180,0|0,1:0|1:0,0:0:0:0:
445,351,79322,1,0,0:0:0:0:
419,195,79515,6,0,P|413:149|415:80,2,90,0|0|0,1:0|0:0|1:0,0:0:0:0:
431,293,80096,2,0,P|473:279|502:245,1,90,0|0,0:0|1:0,0:0:0:0:
336,200,80483,2,0,P|291:197|246:198,1,90,0|0,0:0|1:0,0:0:0:0:
119,311,80870,6,0,P|101:272|104:224,1,90,0|0,0:0|1:0,0:0:0:0:
193,46,81257,2,0,P|211:85|208:133,1,90,2|0,0:0|1:0,0:0:0:0:
92,112,81644,1,2,0:0:0:0:
299,91,81838,2,0,P|357:153|442:126,1,180,0|0,1:0|1:0,0:0:0:0:
175,95,82419,5,0,0:0:0:0:
276,316,82612,1,0,1:0:0:0:
381,67,82806,1,4,1:2:0:0:
381,67,82999,1,4,1:2:0:0:
419,231,83193,5,0,0:0:0:0:
206,159,83386,1,0,1:0:0:0:
330,350,83580,1,4,1:2:0:0:
329,350,83773,1,4,1:2:0:0:
295,165,83967,1,0,0:0:0:0:
143,284,84160,5,4,0:2:0:0:
91,154,84354,1,0,0:0:0:0:
225,250,84547,5,4,1:2:0:0:
200,94,84741,1,0,1:0:0:0:
313,244,84934,5,4,0:2:0:0:
319,68,85128,1,0,1:0:0:0:
404,276,85321,5,4,0:2:0:0:
440,64,85515,1,0,1:0:0:0:
404,276,85709,6,0,P|336:336|248:316,1,180,4|0,1:0|0:0,0:0:0:0:
304,154,86289,2,0,P|304:199|312:244,1,90,4|0,1:0|0:0,0:0:0:0:
428,152,86677,1,0,1:0:0:0:
270,82,86870,1,0,0:0:0:0:
440,64,87064,6,0,L|428:153,1,90,4|0,1:0|0:0,0:0:0:0:
256,299,87451,1,0,1:0:0:0:
135,102,87644,1,0,1:0:0:0:
376,102,87838,1,0,1:0:0:0:
256,299,88031,1,2,0:0:0:0:
256,68,88418,5,0,0:0:0:0:
