osu file format v13

[General]
AudioFilename: gomen.mp3
AudioLeadIn: 2000
PreviewTime: 59967
Countdown: 0
SampleSet: Soft
StackLeniency: 0.7
Mode: 0
LetterboxInBreaks: 0
WidescreenStoryboard: 0

[Editor]
DistanceSpacing: 1.1
BeatDivisor: 4
GridSize: 4
TimelineZoom: 1.1

[Metadata]
Title:Gomen ne, Iiko ja Irarenai. (Anime ver.)
TitleUnicode:ごめんね、いいコじゃいられない。 (Anime ver.)
Artist:Sawai Miku
ArtistUnicode:沢井美空
Creator:samplefish
Version:Easy
Source:Kill la Kill
Tags:キルラキル aniplex trigger ending lanturn Akiyuki Tateyama tv size
BeatmapID:464972
BeatmapSetID:178717

[Difficulty]
HPDrainRate:2
CircleSize:2
OverallDifficulty:2
ApproachRate:3
SliderMultiplier:0.8
SliderTickRate:1

[Events]
//Background and Video events
0,0,"mako.png",0,0
Video,-390,"SAMPLATURN.avi"
//Break Periods
//Storyboard Layer 0 (Background)
//Storyboard Layer 1 (Fail)
//Storyboard Layer 2 (Pass)
//Storyboard Layer 3 (Foreground)
//Storyboard Sound Samples

[TimingPoints]
548.019794526302,387.096774193548,4,2,1,70,1,0
13902,-100,4,2,1,50,0,0
19902,-100,4,2,1,40,0,0
20289,-100,4,2,1,60,0,0
25322,-100,4,2,1,50,0,0
30741,-100,4,2,1,60,0,0
31128,-100,4,2,1,75,0,0
31515,-100,4,2,1,60,0,0
60935,-100,4,2,1,70,0,1
72354,-100,4,2,1,70,0,0
73322,-100,4,2,1,70,0,1
88031,-100,4,2,1,70,0,0
88418,-100,4,2,1,40,0,0

[Colours]
Combo1 : 102,102,102
Combo2 : 249,0,0
Combo3 : 209,209,209
Combo4 : 179,145,26

[HitObjects]
156,272,548,6,0,P|112:222|106:126,1,160,4|0,1:2|0:0,0:0:0:0:
272,80,2096,1,4,1:2:0:0:
242,162,2483,2,0,B|271:178|316:160|316:160|351:207|398:199,1,160,0|0,0:3|0:0,0:0:0:0:
454,146,3644,5,4,1:2:0:0:
484,63,4031,1,0,0:0:0:0:
396,50,4418,2,0,P|342:68|270:51,1,120,0|4,0:0|1:2,0:0:0:0:
193,44,5386,1,4,1:2:0:0:
128,104,5773,2,0,L|136:228,1,120,0|2,1:0|0:0,0:0:0:0:
86,297,6741,5,4,1:0:0:0:
134,371,7128,1,8,0:0:0:0:
220,348,7515,2,0,P|264:320|288:288,1,80,0|8,0:0|0:0,0:0:0:0:
326,223,8289,1,0,1:0:0:0:
412,240,8677,2,0,B|419:202|397:170|397:170|446:166|468:128,1,160,8|8,0:0|0:0,0:0:0:0:
398,76,9838,6,0,P|359:68|310:80,1,80,0|8,1:0|0:0,0:0:0:0:
284,156,10612,2,0,L|153:147,1,120,0|4,0:0|1:2,0:0:0:0:
97,90,11580,2,0,P|74:140|99:209,1,120,4|4,1:2|1:2,0:0:0:0:
145,269,12548,1,4,1:2:0:0:
220,313,12935,6,0,P|279:298|310:247,1,120,4|4,1:2|1:2,0:0:0:0:
305,162,13902,1,4,1:2:0:0:
373,48,14483,6,0,L|493:27,2,120,4|0|8,1:0|1:0|0:0,0:0:0:0:
329,124,16031,2,0,L|210:144,2,120,0|0|8,1:0|1:0|0:0,0:0:0:0:
409,161,17580,6,0,B|397:191|367:202|367:202|398:228|402:248,2,120,0|0|8,1:0|1:0|0:0,0:0:0:0:
329,124,19128,1,0,1:0:0:0:
195,236,19902,2,0,P|155:230|115:227,1,80,0|2,0:0|0:0,0:0:0:0:
43,275,20677,6,0,P|28:215|79:148,2,120,4|0|8,1:0|1:0|0:0,0:0:0:0:
116,226,22225,2,0,P|131:286|80:353,2,120,0|0|8,1:0|1:0|0:0,0:0:0:0:
121,138,23773,2,0,B|119:113|135:90|135:90|106:67|98:21,2,120,0|0|2,1:0|1:0|0:0,0:0:0:0:
209,141,25322,6,0,L|333:130,2,120,4|0|8,1:0|1:0|0:0,0:0:0:0:
202,228,26870,2,0,B|170:232|139:203|139:203|131:227|102:243,2,120,0|0|8,1:0|1:0|0:0,0:0:0:0:
286,252,28418,6,0,L|283:379,2,120,0|0|8,1:0|1:0|0:0,0:0:0:0:
367,218,29967,1,0,1:0:0:0:
307,52,30741,2,0,P|300:94|269:131,1,80,0|2,0:0|0:0,0:0:0:0:
204,170,31515,6,0,P|154:196|130:256,2,120,4|0|8,1:0|1:0|0:0,0:0:0:0:
284,133,33064,2,0,P|333:106|357:46,2,120,0|0|8,1:0|1:0|0:0,0:0:0:0:
204,170,34612,6,0,L|114:193,1,80,0|8,1:0|0:0,0:0:0:0:
128,100,35386,2,0,L|212:80,1,80,0|8,0:0|0:0,0:0:0:0:
250,92,35967,2,0,P|290:144|282:212,1,120,4|0,1:0|1:0,0:0:0:0:
204,170,36935,2,0,P|203:220|240:266,1,80,0|0,1:0|1:0,0:0:0:0:
295,283,37709,6,0,P|359:256|379:201,1,120,4|0,1:0|0:0,0:0:0:0:
375,123,38677,1,0,0:0:0:0:
317,57,39064,2,0,P|281:49|228:48,1,80,4|2,1:0|0:0,0:0:0:0:
188,119,39838,2,0,P|148:117|109:109,1,80,2|0,0:0|0:0,0:0:0:0:
68,94,40418,1,0,1:0:0:0:
20,168,40806,6,0,L|33:291,1,120,4|0,1:0|0:0,0:0:0:0:
93,351,41773,1,0,0:0:0:0:
151,285,42160,2,0,P|194:277|239:286,1,80,4|0,0:1|0:0,0:0:0:0:
288,347,42935,2,0,P|327:352|366:344,1,80,2|2,0:0|0:0,0:0:0:0:
408,329,43515,1,0,1:0:0:0:
425,242,43902,6,0,L|424:105,1,120,4|0,1:0|0:0,0:0:0:0:
378,46,44870,1,0,0:0:0:0:
294,21,45257,2,0,P|247:18|196:21,1,80,4|0,0:1|0:0,0:0:0:0:
129,43,46031,2,0,B|143:89|184:102|184:102|168:138|190:180,1,160,2|0,0:0|0:0,0:0:0:0:
268,210,47193,6,0,P|326:228|386:189,1,120,4|0,1:0|0:0,0:0:0:0:
407,120,48160,1,0,0:0:0:0:
365,42,48548,6,0,B|328:50|285:36|285:36|263:47|252:64,1,120,4|0,1:0|1:0,0:0:0:0:
226,143,49515,1,0,0:0:0:0:
261,223,49902,2,0,P|251:261|226:291,1,80,0|0,1:0|0:0,0:0:0:0:
142,318,50677,1,0,1:0:0:0:
57,292,51064,2,0,P|31:261|21:223,1,80,0|0,0:0|1:0,0:0:0:0:
44,186,51644,6,0,L|52:52,1,120,0|0,1:0|1:0,0:0:0:0:
139,69,52612,2,0,P|169:86|225:81,1,80,0|0,0:0|1:0,0:0:0:0:
296,55,53386,1,0,0:0:0:0:
382,38,53773,2,0,P|416:35|464:64,1,80,0|0,1:0|0:0,0:0:0:0:
480,92,54354,6,0,L|478:188,1,80,8|0,0:0|1:0,0:0:0:0:
302,162,55515,1,0,1:0:0:0:
142,236,56289,2,0,L|143:329,1,80,0|0,1:0|1:0,0:0:0:0:
230,328,57064,2,0,L|229:235,2,80,0|0|0,1:0|1:0|0:0,0:0:0:0:
254,364,58031,6,0,P|286:324|353:305,1,120,0|0,1:0|1:0,0:0:0:0:
460,232,59193,2,0,L|464:112,1,120,0|0,1:0|1:0,0:0:0:0:
376,120,60160,2,0,P|336:116|300:84,1,80,0|10,1:0|0:0,0:0:0:0:
260,16,60935,5,4,1:0:0:0:
188,68,61322,2,0,P|192:128|188:192,1,120,0|0,1:0|0:0,0:0:0:0:
124,248,62289,2,0,P|184:240|248:256,1,120,0|0,0:0|1:0,0:0:0:0:
299,319,63257,2,0,P|325:287|329:245,1,80,0|0,1:0|1:0,0:0:0:0:
305,165,64031,5,0,1:0:0:0:
337,83,64418,2,0,P|396:78|464:97,1,120,0|0,1:0|0:0,0:0:0:0:
494,170,65386,2,0,L|487:289,1,120,0|0,0:0|1:0,0:0:0:0:
430,357,66354,2,0,P|389:371|339:359,1,80,0|0,1:0|1:0,0:0:0:0:
282,313,67128,6,0,L|280:193,1,120,4|0,1:0|0:0,0:0:0:0:
307,109,68096,1,0,0:0:0:0:
241,50,68483,1,0,0:0:0:0:
153,50,68870,2,0,P|112:69|88:114,1,80,2|2,0:0|0:0,0:0:0:0:
171,135,69644,2,0,P|175:195|166:268,1,120,0|0,0:0|1:0,0:0:0:0:
128,332,70612,5,0,1:0:0:0:
214,349,70999,2,0,L|346:358,1,120,0|0,0:0|1:0,0:0:0:0:
406,307,71967,1,0,1:0:0:0:
383,222,72354,2,0,L|384:89,1,120,0|2,1:0|0:0,0:0:0:0:
307,57,73322,6,0,P|251:43|186:64,1,120,4|0,1:0|0:0,0:0:0:0:
153,138,74289,1,0,0:0:0:0:
185,219,74677,2,0,P|187:266|174:302,1,80,0|2,0:0|0:0,0:0:0:0:
106,348,75451,2,0,L|233:347,1,120,2|0,0:0|1:0,0:0:0:0:
311,368,76418,5,0,1:0:0:0:
339,284,76806,2,0,B|366:238|366:238|355:195|372:160,1,120,0|0,1:0|0:0,0:0:0:0:
449,204,77773,2,0,L|460:291,1,80,0|2,0:0|0:0,0:0:0:0:
425,365,78548,2,0,P|382:374|333:363,1,80,2|0,0:0|0:0,0:0:0:0:
304,355,79128,1,0,1:0:0:0:
233,302,79515,5,0,1:0:0:0:
271,222,79902,2,0,P|295:167|270:105,1,120,0|0,1:0|0:0,0:0:0:0:
206,165,80870,2,0,B|112:170,1,80,0|2,0:0|0:0,0:0:0:0:
114,256,81644,2,0,B|20:261,2,80,2|0|0,0:0|0:0|0:0,0:0:0:0:
158,254,82612,5,0,1:0:0:0:
279,126,83386,1,0,1:0:0:0:
429,216,84160,2,0,P|423:263|423:310,1,80,4|4,0:2|1:2,0:2:0:0:
339,324,84935,2,0,P|298:321|254:320,1,80,4|4,0:2|0:2,0:0:0:0:
193,262,85709,6,0,P|197:200|270:156,1,120,4|4,1:0|1:0,0:0:0:0:
325,162,86677,2,0,P|361:204|366:258,1,80,0|4,1:0|1:0,0:0:0:0:
358,316,87451,2,0,P|304:292|278:240,1,120,0|2,1:0|0:0,0:0:0:0:
210,183,88418,5,0,0:0:0:0:
