osu file format v13

[General]
AudioFilename: gomen.mp3
AudioLeadIn: 2000
PreviewTime: 59967
Countdown: 0
SampleSet: Soft
StackLeniency: 0.7
Mode: 0
LetterboxInBreaks: 0
WidescreenStoryboard: 0

[Editor]
DistanceSpacing: 0.9
BeatDivisor: 4
GridSize: 4
TimelineZoom: 1.1

[Metadata]
Title:Gomen ne, Iiko ja Irarenai. (Anime ver.)
TitleUnicode:ごめんね、いいコじゃいられない。 (Anime ver.)
Artist:Sawai Miku
ArtistUnicode:沢井美空
Creator:samplefish
Version:Normal
Source:Kill la Kill
Tags:キルラキル aniplex trigger ending lanturn Akiyuki Tateyama tv size
BeatmapID:464975
BeatmapSetID:178717

[Difficulty]
HPDrainRate:4
CircleSize:3
OverallDifficulty:4
ApproachRate:5
SliderMultiplier:1.1
SliderTickRate:1

[Events]
//Background and Video events
0,0,"mako.png",0,0
Video,-390,"SAMPLATURN.avi"
//Break Periods
//Storyboard Layer 0 (Background)
//Storyboard Layer 1 (Fail)
//Storyboard Layer 2 (Pass)
//Storyboard Layer 3 (Foreground)
//Storyboard Sound Samples

[TimingPoints]
548.019794526302,387.096774193548,4,2,1,70,1,0
13902,-100,4,2,1,50,0,0
19902,-100,4,2,1,40,0,0
20289,-100,4,2,1,60,0,0
25322,-100,4,2,1,50,0,0
30741,-100,4,2,1,60,0,0
31128,-100,4,2,1,75,0,0
31515,-100,4,2,1,60,0,0
60935,-100,4,2,1,70,0,1
72354,-100,4,2,1,70,0,0
73322,-100,4,2,1,70,0,1
88031,-100,4,2,1,70,0,0
88418,-100,4,2,1,40,0,0

[Colours]
Combo1 : 102,102,102
Combo2 : 249,0,0
Combo3 : 209,209,209
Combo4 : 179,145,26

[HitObjects]
167,283,548,6,0,P|121:250|117:184,1,110,4|0,1:2|0:0,0:0:0:0:
156,112,1322,2,0,L|136:40,2,55,0|0|0,0:0|0:0|0:0,0:0:0:0:
254,139,2096,1,4,1:2:0:0:
345,101,2483,1,0,0:3:0:0:
345,101,2677,2,0,P|430:124|456:207,1,165,0|0,0:0|0:0,0:0:0:0:
445,287,3644,5,4,1:2:0:0:
365,345,4031,1,0,0:0:0:0:
278,297,4418,2,0,L|284:232,2,55,0|0|0,0:0|0:0|1:0,0:0:0:0:
233,318,4999,1,4,1:2:0:0:
134,311,5386,1,4,1:2:0:0:
173,220,5773,2,0,L|182:161,1,55,0|4,1:0|1:2,0:0:0:0:
199,68,6354,1,2,0:0:0:0:
293,38,6741,5,4,1:0:0:0:
319,133,7128,1,8,0:0:0:0:
227,171,7515,2,0,P|216:197|209:241,1,55,0|0,0:0|0:0,0:0:0:0:
208,272,7902,1,8,0:0:0:0:
288,329,8289,1,0,1:0:0:0:
366,267,8677,2,0,P|407:275|428:275,1,55,8|0,0:0|1:0,0:0:0:0:
500,216,9257,2,0,P|506:180|502:150,1,55,0|8,0:0|0:0,0:0:0:0:
428,96,9838,6,0,P|401:88|364:84,1,55,0|0,1:0|0:0,0:0:0:0:
336,116,10225,1,8,0:0:0:0:
284,200,10612,2,0,L|260:264,1,55,0|0,0:0|0:0,0:0:0:0:
288,296,10999,2,0,L|336:348,1,55,0|4,0:0|1:2,0:0:0:0:
228,360,11580,2,0,P|176:340|112:344,1,110,4|0,1:2|1:0,0:0:0:0:
76,356,12160,1,4,1:2:0:0:
84,256,12548,1,4,1:2:0:0:
20,180,12935,6,0,P|20:100|88:48,1,165,4|4,1:2|1:2,0:0:0:0:
112,144,13902,1,4,1:2:0:0:
144,288,14483,6,0,P|208:328|300:292,1,165,4|0,1:0|1:0,0:0:0:0:
416,228,15644,1,8,0:0:0:0:
448,132,16031,2,0,B|408:60|408:60|316:44,1,165,0|0,1:0|1:0,0:0:0:0:
180,56,17193,1,8,0:0:0:0:
84,84,17580,6,0,P|56:160|88:256,1,165,0|0,1:0|1:0,0:0:0:0:
216,284,18741,1,8,0:0:0:0:
256,192,19128,1,0,1:0:0:0:
420,304,19902,2,0,L|452:372,2,55,0|0|2,0:0|1:0|0:0,0:0:0:0:
380,212,20677,6,0,P|368:168|380:96,1,110,4|8,1:0|0:0,0:0:0:0:
396,60,21257,1,0,1:0:0:0:
297,55,21644,2,0,P|257:99|209:87,1,110,0|0,0:0|0:0,0:0:0:0:
167,68,22225,2,0,P|176:137|179:188,1,110,0|8,1:0|0:0,0:0:0:0:
179,226,22806,1,0,1:0:0:0:
147,319,23193,1,0,0:0:0:0:
147,319,23386,2,0,P|195:323|223:339,1,55,8|0,0:0|0:0,0:0:0:0:
248,337,23773,6,0,P|260:296|328:288,1,110,0|8,1:0|0:0,0:0:0:0:
368,296,24354,2,0,P|360:240|372:184,1,110,0|0,1:0|0:0,0:0:0:0:
384,140,24935,1,2,0:0:0:0:
308,76,25322,6,0,P|248:96|264:192,1,165,4|0,1:0|1:0,0:0:0:0:
400,220,26483,1,8,0:0:0:0:
444,308,26870,2,0,P|372:304|280:312,1,165,0|0,1:0|1:0,0:0:0:0:
144,372,28031,1,8,0:0:0:0:
44,368,28418,6,0,P|52:312|44:200,1,165,0|0,1:0|1:0,0:0:0:0:
20,56,29580,1,8,0:0:0:0:
117,41,29967,1,0,1:0:0:0:
307,112,30741,2,0,P|296:184|292:248,1,110,0|2,0:0|0:0,0:0:0:0:
272,318,31515,6,0,P|206:341|156:326,1,110,4|8,1:0|0:0,0:0:0:0:
123,310,32096,1,0,1:0:0:0:
75,223,32483,2,0,P|86:160|50:108,1,110,0|0,0:0|0:0,0:0:0:0:
37,80,33064,2,0,P|107:90|160:58,1,110,0|8,1:0|0:0,0:0:0:0:
189,59,33644,1,0,1:0:0:0:
284,88,34031,2,0,P|348:68|400:80,1,110,0|0,0:0|0:0,0:0:0:0:
429,102,34612,6,0,P|432:167|431:238,1,110,0|8,1:0|0:0,0:0:0:0:
426,311,35386,2,0,P|441:340|480:361,2,55,0|0|8,0:0|0:0|0:0,0:0:0:0:
386,280,35967,2,0,L|221:287,1,165,4|0,1:0|1:0,0:0:0:0:
132,242,36935,1,0,1:0:0:0:
77,159,37322,1,0,1:0:0:0:
136,79,37709,6,0,P|210:88|256:16,1,165,4|0,1:0|0:0,0:0:0:0:
354,29,38677,1,0,0:0:0:0:
395,119,39064,2,0,L|355:239,1,110,4|2,1:0|0:0,0:0:0:0:
459,219,39838,2,0,L|419:339,1,110,2|0,0:0|0:0,0:0:0:0:
376,334,40418,2,0,P|339:325|307:322,1,55,0|0,1:0|0:0,0:0:0:0:
272,330,40806,6,0,P|247:337|212:346,1,55,4|0,1:0|0:0,0:0:0:0:
119,347,41386,1,0,0:0:0:0:
36,292,41773,1,0,0:0:0:0:
94,212,42160,2,0,L|106:141,1,55,4|0,0:1|1:0,0:0:0:0:
73,117,42548,2,0,P|137:121|196:96,1,110,0|2,0:0|0:0,0:0:0:0:
267,59,43322,2,0,L|309:124,1,55,2|0,0:0|1:0,0:0:0:0:
346,104,43709,1,0,0:0:0:0:
394,113,43902,6,0,L|427:181,1,55,4|0,1:0|0:0,0:0:0:0:
322,184,44483,2,0,P|354:248|375:295,1,110,0|0,0:0|0:0,0:0:0:0:
270,285,45257,2,0,P|302:349|323:396,1,110,4|0,0:1|0:0,0:0:0:0:
415,368,46031,2,0,P|462:325|462:264,1,110,2|2,0:0|0:0,0:0:0:0:
431,189,46806,2,0,L|448:126,1,55,0|0,0:0|1:0,0:0:0:0:
479,100,47193,6,0,P|428:98|364:50,1,110,4|0,1:0|1:0,0:0:0:0:
333,48,47773,2,0,B|300:58|271:46|271:46|276:77|259:109,1,110,0|0,0:0|0:0,0:0:0:0:
171,57,48548,6,0,L|92:58,1,55,4|0,1:0|0:0,0:0:0:0:
57,137,49128,2,0,P|78:226|69:257,1,110,0|0,1:0|0:0,0:0:0:0:
28,330,49902,1,0,1:0:0:0:
115,376,50289,1,0,0:0:0:0:
175,297,50677,1,0,1:0:0:0:
221,209,51064,2,0,P|248:207|288:186,1,55,0|8,0:0|0:0,0:0:0:0:
341,124,51644,6,0,L|392:185,1,55,0|0,1:0|0:0,0:0:0:0:
466,208,52225,2,0,P|434:251|379:267,1,110,0|0,1:0|0:0,0:0:0:0:
286,241,52999,1,0,1:0:0:0:
216,311,53386,1,0,0:0:0:0:
120,335,53773,2,0,P|86:305|77:234,1,110,0|0,1:0|0:0,0:0:0:0:
68,144,54548,6,0,L|120:127,1,55,0|0,1:0|1:0,0:0:0:0:
219,238,55322,2,0,L|271:221,1,55,0|0,1:0|1:0,0:0:0:0:
366,335,56096,6,0,L|418:318,1,55,0|0,1:0|1:0,0:0:0:0:
480,240,56677,1,0,1:0:0:0:
480,240,56870,2,0,P|495:186|477:124,2,110,0|0|0,0:0|0:0|1:0,0:0:0:0:
399,181,58031,6,0,P|372:169|337:135,1,55,0|0,1:0|1:0,0:0:0:0:
276,86,58612,2,0,P|245:75|203:75,1,55,0|0,1:0|1:0,0:0:0:0:
132,32,59193,6,0,P|134:121|182:162,1,110,0|0,1:0|1:0,0:0:0:0:
172,176,59773,1,0,1:0:0:0:
272,169,60160,6,0,P|303:169|358:155,1,55,0|0,1:0|1:0,0:0:0:0:
372,145,60548,2,0,L|383:231,1,55,10|0,0:0|0:0,0:0:0:0:
409,239,60935,6,0,P|432:313|390:364,1,110,4|0,1:0|1:0,0:0:0:0:
370,342,61515,2,0,P|305:333|243:339,1,110,0|0,0:0|0:0,0:0:0:0:
168,371,62289,2,0,P|177:310|142:270,1,110,0|2,0:0|0:0,0:0:0:0:
101,260,62870,2,0,P|73:261|45:267,1,55,0|2,1:0|0:0,0:0:0:0:
73,224,63257,2,0,B|78:156|80:85,1,110,0|0,1:0|1:0,0:0:0:0:
173,143,64031,6,0,P|172:82|132:31,1,110,0|0,1:0|1:0,0:0:0:0:
195,42,64612,2,0,P|245:58|339:38,1,110,0|0,0:0|0:0,0:0:0:0:
397,27,65386,2,0,P|407:99|412:160,1,110,0|2,0:0|0:0,0:0:0:0:
417,185,65967,1,0,1:0:0:0:
413,283,66354,2,0,P|442:285|468:299,2,55,0|0|0,1:0|0:0|1:0,0:0:0:0:
368,302,66935,1,0,0:0:0:0:
328,330,67128,6,0,P|272:342|209:341,1,110,4|0,1:0|1:0,0:0:0:0:
185,306,67709,2,0,L|160:198,1,110,0|0,0:0|0:0,0:0:0:0:
76,145,68483,1,0,0:0:0:0:
163,98,68870,2,0,P|217:114|250:155,1,110,2|2,0:0|0:0,0:0:0:0:
299,241,69644,1,0,0:0:0:0:
396,264,70031,6,0,L|383:338,2,55,0|0|0,0:0|1:0|0:0,0:0:0:0:
404,216,70612,1,0,1:0:0:0:
448,128,70999,2,0,P|389:124|365:80,1,110,0|0,0:0|1:0,0:0:0:0:
360,36,71580,2,0,P|289:26|242:38,1,110,0|0,1:0|1:0,0:0:0:0:
156,52,72354,2,0,P|176:112|236:128,1,110,0|0,1:0|1:0,0:0:0:0:
264,124,72935,2,0,L|344:132,1,55,2|0,0:0|0:0,0:0:0:0:
364,152,73322,6,0,P|378:128|424:100,2,55,4|0|0,1:0|0:0|1:0,0:0:0:0:
384,196,73902,2,0,P|400:248|330:307,1,110,0|0,0:0|0:0,0:0:0:0:
274,292,74677,2,0,P|212:283|149:305,1,110,0|2,0:0|0:0,0:0:0:0:
95,363,75451,2,0,P|67:309|76:256,1,110,2|0,0:0|0:0,0:0:0:0:
100,220,76031,2,0,P|120:187|126:159,1,55,0|0,1:0|0:0,0:0:0:0:
130,123,76418,6,0,P|165:74|245:87,1,110,0|0,1:0|1:0,0:0:0:0:
251,96,76999,1,0,0:0:0:0:
336,45,77386,1,0,0:0:0:0:
377,134,77773,2,0,L|355:269,2,110,0|2|2,0:0|0:0|0:0,0:0:0:0:
446,63,78935,2,0,L|483:141,1,55,0|0,0:0|1:0,0:0:0:0:
473,210,79515,6,0,P|445:295|463:340,1,110,0|0,1:0|1:0,0:0:0:0:
406,336,80096,2,0,P|343:322|275:319,1,110,0|0,0:0|0:0,0:0:0:0:
202,347,80870,2,0,P|202:290|249:233,1,110,0|2,0:0|0:0,0:0:0:0:
328,237,81644,2,0,P|307:182|254:149,1,110,2|0,0:0|0:0,0:0:0:0:
173,186,82418,6,0,L|132:230,1,55,0|0,0:0|1:0,0:0:0:0:
122,77,83193,2,0,L|81:121,1,55,0|0,0:0|1:0,0:0:0:0:
224,68,83967,2,0,P|257:66|298:55,1,55,0|4,0:0|0:2,0:0:0:0:
364,12,84548,1,4,1:2:0:0:
459,39,84935,1,4,0:2:0:0:
383,103,85322,1,4,0:2:0:0:
423,193,85709,6,0,P|442:257|443:326,1,110,4|0,1:0|0:0,0:0:0:0:
405,329,86289,2,0,P|348:325|286:335,1,110,4|0,1:0|1:0,0:0:0:0:
251,355,86870,2,0,L|237:297,1,55,0|4,0:0|1:0,0:0:0:0:
166,232,87451,2,0,P|182:211|248:208,1,55,0|0,1:0|1:0,0:0:0:0:
256,192,87838,1,0,1:0:0:0:
256,192,88031,1,2,0:0:0:0:
344,235,88418,5,0,0:0:0:0:
