osu file format v13

[General]
AudioFilename: Kill la Kill - Ending [mp3clan.com].mp3
AudioLeadIn: 0
PreviewTime: 60285
Countdown: 1
SampleSet: Normal
StackLeniency: 0.7
Mode: 0
LetterboxInBreaks: 1
WidescreenStoryboard: 1

[Editor]
Bookmarks: 5124,14608,30866,40737
DistanceSpacing: 0.9
BeatDivisor: 2
GridSize: 4
TimelineZoom: 1.8

[Metadata]
Title:Gomen ne, Iiko ja Irarenai (TV Size)
TitleUnicode:Gomen ne, Iiko ja Irarenai (TV Size)
Artist:Sawai Miku
ArtistUnicode:Sawai Miku
Creator:Fryz3
Version:Normal
Source:Kill la Kill
Tags:
BeatmapID:588839
BeatmapSetID:257143

[Difficulty]
HPDrainRate:4
CircleSize:3
OverallDifficulty:4
ApproachRate:4
SliderMultiplier:1
SliderTickRate:1

[Events]
//Background and Video events
0,0,"kill-la-kill-wallpaper-by-chris-lejman.jpg",0,0
Video,0,"hoop2.avi"
//Break Periods
//Storyboard Layer 0 (Background)
//Storyboard Layer 1 (Fail)
//Storyboard Layer 2 (Pass)
//Storyboard Layer 3 (Foreground)
//Storyboard Sound Samples

[TimingPoints]
653.183810732084,387.095605095543,4,1,0,100,1,0
61060,-100,4,1,0,100,0,1
82737,-100,4,1,0,100,0,0

[HitObjects]
304,72,657,5,0,0:0:0:0:
360,156,1040,1,0,0:0:0:0:
316,244,1427,2,0,P|283:283|234:294,1,100,0|0,0:0|0:0,0:0:0:0:
136,292,2201,1,0,0:0:0:0:
76,212,2588,2,0,B|76:116|76:116|180:116,1,200,0|0,0:0|0:0,0:0:0:0:
260,80,3749,5,0,0:0:0:0:
344,112,4137,1,0,0:0:0:0:
424,156,4524,2,0,L|424:260,1,100,0|0,0:0|0:0,0:0:0:0:
424,256,5104,2,0,L|312:256,1,100,0|0,0:0|0:0,0:0:0:0:
196,212,6072,1,4,0:0:0:0:
120,260,6459,1,4,0:0:0:0:
108,168,6846,6,0,P|140:128|189:117,1,100,0|0,0:0|0:0,0:0:0:0:
284,136,7620,2,0,P|347:169|410:133,1,150
346,86,8395,1,0,0:0:0:0:
260,52,8782,2,0,P|168:15|76:51,1,200
80,140,9943,5,0,0:0:0:0:
160,180,10330,2,0,P|203:202|225:246,1,100,0|0,0:0|0:0,0:0:0:0:
136,264,11104,1,0,0:0:0:0:
52,276,11298,6,0,P|69:324|113:346,2,100,0|0|0,0:0|0:0|0:0,0:0:0:0:
124,196,12266,1,4,0:0:0:0:
180,124,12653,1,4,0:0:0:0:
228,200,13040,5,0,0:0:0:0:
308,92,13620,2,0,P|347:120|361:167,1,100,0|0,0:0|0:0,0:0:0:0:
60,64,14588,6,0,P|81:108|125:130,1,100,0|0,0:0|0:0,0:0:0:0:
160,36,15362,2,0,P|203:58|225:102,1,100,0|0,0:0|0:0,0:0:0:0:
136,120,16137,2,0,L|44:192,3,100,0|0|0|0,0:0|0:0|0:0|0:0,0:0:0:0:
132,236,17685,5,0,0:0:0:0:
284,332,18459,2,0,P|331:320|362:282,1,100,0|0,0:0|0:0,0:0:0:0:
280,248,19233,1,0,0:0:0:0:
288,68,20007,2,0,P|336:84|364:128,1,100,0|0,0:0|0:0,0:0:0:0:
280,156,20782,1,0,0:0:0:0:
208,272,21362,1,0,0:0:0:0:
140,156,21943,1,0,0:0:0:0:
208,100,22330,1,0,0:0:0:0:
140,216,22911,1,0,0:0:0:0:
280,216,23491,1,0,0:0:0:0:
208,268,23878,5,0,0:0:0:0:
96,196,24459,2,0,P|85:147|105:102,1,100,0|0,0:0|0:0,0:0:0:0:
168,156,25040,1,0,0:0:0:0:
144,244,25427,6,0,P|192:247|235:221,1,100,0|0,0:0|0:0,0:0:0:0:
312,172,26201,2,0,P|360:156|408:172,1,100,0|0,0:0|0:0,0:0:0:0:
360,248,26976,2,0,L|360:360,3,100,0|0|0|0,0:0|0:0|0:0|0:0,0:0:0:0:
256,284,28524,1,0,0:0:0:0:
116,172,29298,2,0,P|108:123|130:79,1,100,0|0,0:0|0:0,0:0:0:0:
200,136,30072,1,0,0:0:0:0:
448,68,30846,6,0,B|467:116|467:116|447:160,1,100
320,100,31620,5,0,0:0:0:0:
236,44,32007,2,0,L|192:12,1,50
132,152,32782,1,0,0:0:0:0:
68,228,33169,5,0,0:0:0:0:
148,292,33556,2,0,L|188:321,1,50
260,192,34330,1,0,0:0:0:0:
356,224,34717,1,0,0:0:0:0:
340,124,35104,2,0,L|364:64,1,50
340,124,35491,6,0,L|388:152,2,50,0|0|0,0:0|0:0|0:0,0:0:0:0:
292,96,36072,2,0,B|272:80|272:80|236:116|236:116|200:80|200:80|180:96,1,150
100,40,37040,1,0,0:0:0:0:
20,104,37427,1,0,0:0:0:0:
92,172,37814,6,0,P|125:207|173:217,1,100
168,128,38588,1,0,0:0:0:0:
252,160,38975,1,0,0:0:0:0:
240,72,39362,1,0,0:0:0:0:
324,104,39749,2,0,P|372:88|420:104,1,100
368,180,40524,1,0,0:0:0:0:
413,257,40911,2,0,P|366:271|320:256,1,100
264,188,41685,1,0,0:0:0:0:
220,268,42072,1,0,0:0:0:0:
168,192,42459,1,0,0:0:0:0:
124,272,42846,2,0,P|86:241|75:189,1,100
168,192,43620,1,0,0:0:0:0:
376,200,44007,5,0,0:0:0:0:
444,248,44394,2,0,P|456:200|444:152,2,100,0|0|0,0:0|0:0|0:0,0:0:0:0:
376,200,45556,1,0,0:0:0:0:
308,152,45943,2,0,P|296:200|308:249,2,100,0|0|0,0:0|0:0|0:0,0:0:0:0:
376,200,47104,5,4,0:0:0:0:
376,200,47878,1,2,0:0:0:0:
332,296,48265,1,2,0:0:0:0:
232,268,48653,5,0,0:0:0:0:
92,212,49233,2,0,L|252:180,1,150
180,264,50201,1,0,0:0:0:0:
84,148,50782,2,0,L|244:116,1,150
332,120,51749,5,0,0:0:0:0:
472,176,52330,2,0,L|312:208,1,150
384,124,53297,1,0,0:0:0:0:
480,240,53878,2,0,L|320:272,1,150
232,272,54846,5,0,0:0:0:0:
100,120,55620,1,0,0:0:0:0:
296,84,56394,1,0,0:0:0:0:
240,168,56782,1,0,0:0:0:0:
192,80,57169,1,0,0:0:0:0:
140,168,57556,1,0,0:0:0:0:
64,296,58136,6,2,L|120:276,1,50
88,184,58717,2,2,L|144:164,1,50,2|0,0:0|0:0,0:0:0:0:
196,244,59298,1,2,0:0:0:0:
216,144,59685,2,2,L|272:124,1,50
276,228,60265,5,0,0:0:0:0:
364,184,60653,1,4,0:0:0:0:
352,108,61040,6,0,P|404:116|436:154,2,100,0|0|0,0:0|0:0|0:0,0:0:0:0:
252,124,62201,1,0,0:0:0:0:
160,160,62588,1,0,0:0:0:0:
80,220,62975,1,0,0:0:0:0:
20,300,63362,5,0,0:0:0:0:
120,308,63749,1,0,0:0:0:0:
220,312,64136,2,0,P|269:308|311:282,1,100
240,224,64911,1,0,0:0:0:0:
320,180,65298,2,0,P|283:147|232:134,1,100
235,134,65878,1,0,0:0:0:0:
235,134,66072,1,0,0:0:0:0:
144,124,66459,5,0,0:0:0:0:
112,208,66846,1,0,0:0:0:0:
200,200,67233,2,0,L|304:240,1,100,0|0,0:0|0:0,0:0:0:0:
380,260,68007,1,0,0:0:0:0:
384,172,68394,1,0,0:0:0:0:
384,172,68588,2,0,L|420:104,2,50,0|0|0,0:0|0:0|0:0,0:0:0:0:
336,260,69362,2,0,L|296:332,2,50,0|0|0,0:0|0:0|0:0,0:0:0:0:
336,260,70136,5,0,0:0:0:0:
416,220,70330,2,0,P|380:185|332:171,1,100
280,100,71104,2,0,P|253:142|251:192,1,100
256,192,71685,12,0,73040,0:0:0:0:
376,320,73427,6,0,P|412:286|429:240,1,100
328,236,74201,1,0,0:0:0:0:
380,152,74588,1,0,0:0:0:0:
280,152,74975,1,0,0:0:0:0:
332,64,75362,1,0,0:0:0:0:
332,64,75556,2,0,P|284:48|236:57,1,100
236,57,76136,1,0,0:0:0:0:
172,136,76523,5,0,0:0:0:0:
236,212,76911,1,0,0:0:0:0:
136,228,77298,1,0,0:0:0:0:
172,136,77685,1,0,0:0:0:0:
236,212,78072,5,0,0:0:0:0:
136,228,78459,1,0,0:0:0:0:
136,228,78652,2,0,P|96:196|80:140,1,100,0|0,0:0|0:0,0:0:0:0:
168,152,79233,1,0,0:0:0:0:
256,156,79620,6,0,L|320:156,2,50,0|0|0,0:0|0:0|0:0,0:0:0:0:
168,152,80394,1,0,0:0:0:0:
140,236,80781,1,0,0:0:0:0:
232,224,81169,2,0,L|292:240,2,50,0|0|0,0:0|0:0|0:0,0:0:0:0:
144,204,81943,2,0,L|95:191,2,50,0|0|0,0:0|0:0|0:0,0:0:0:0:
208,140,82717,5,0,0:0:0:0:
208,140,83104,1,0,0:0:0:0:
128,100,83491,1,0,0:0:0:0:
128,100,83878,1,0,0:0:0:0:
48,60,84265,2,0,P|81:24|129:14,3,100,0|0|0|0,0:0|0:0|0:0|0:0,0:0:0:0:
220,24,85814,6,0,B|308:24|308:24|364:68,1,150,0|0,0:0|0:0,0:0:0:0:
276,104,86781,2,0,L|244:160,1,50,0|0,0:0|0:0,0:0:0:0:
256,192,87169,12,0,88136,0:0:0:0:
