osu file format v13

[General]
AudioFilename: Kill la Kill - Ending [mp3clan.com].mp3
AudioLeadIn: 0
PreviewTime: 60285
Countdown: 1
SampleSet: Normal
StackLeniency: 0.7
Mode: 0
LetterboxInBreaks: 1
WidescreenStoryboard: 1

[Editor]
Bookmarks: 25447,48673,64543,76543,82737
DistanceSpacing: 1.2
BeatDivisor: 2
GridSize: 4
TimelineZoom: 1.8

[Metadata]
Title:Gomen ne, Iiko ja Irarenai (TV Size)
TitleUnicode:Gomen ne, Iiko ja Irarenai (TV Size)
Artist:Sawai Miku
ArtistUnicode:Sawai Miku
Creator:Fryz3
Version:Hard
Source:Kill la Kill
Tags:
BeatmapID:588835
BeatmapSetID:257143

[Difficulty]
HPDrainRate:6
CircleSize:4
OverallDifficulty:5
ApproachRate:6
SliderMultiplier:0.8
SliderTickRate:1

[Events]
//Background and Video events
0,0,"kill-la-kill-wallpaper-by-chris-lejman.jpg",0,0
Video,0,"hoop2.avi"
//Break Periods
//Storyboard Layer 0 (Background)
//Storyboard Layer 1 (Fail)
//Storyboard Layer 2 (Pass)
//Storyboard Layer 3 (Foreground)
//Storyboard Sound Samples

[TimingPoints]
653.183810732084,387.095605095543,4,1,0,100,1,0
7637,-66.6666666666667,4,1,0,100,0,0
61060,-66.6666666666667,4,1,0,100,0,1
82737,-66.6666666666667,4,1,0,100,0,0

[HitObjects]
96,212,667,5,0,0:0:0:0:
196,272,1040,1,0,0:0:0:0:
208,152,1427,2,0,L|252:144,2,40,0|0|0,0:0|0:0|0:0,0:0:0:0:
196,272,2201,1,0,0:0:0:0:
208,152,2588,2,0,L|372:124,1,160,0|0,0:0|0:0,0:0:0:0:
372,312,3749,5,0,0:0:0:0:
292,364,4137,1,0,0:0:0:0:
288,268,4524,2,0,L|248:261,2,40,0|0|0,0:0|0:0|0:0,0:0:0:0:
156,244,5104,1,0,0:0:0:0:
64,168,5491,1,0,0:0:0:0:
60,336,6072,1,0,0:0:0:0:
224,240,6459,1,0,0:0:0:0:
152,176,6846,1,0,0:0:0:0:
224,240,7233,5,0,0:0:0:0:
240,96,7620,2,0,L|312:80,2,60.0000022888184,0|0|0,0:0|0:0|0:0,0:0:0:0:
224,284,8395,1,0,0:0:0:0:
244,140,8782,2,0,L|336:120,1,60.0000022888184,0|0,0:0|0:0,0:0:0:0:
376,120,9943,5,0,0:0:0:0:
272,220,10330,1,0,0:0:0:0:
228,84,10717,2,0,L|168:72,2,60.0000022888184,0|0|0,0:0|0:0|0:0,0:0:0:0:
300,100,11298,2,0,P|356:118|388:168,1,120.000004577637
304,180,12266,1,0,0:0:0:0:
228,184,12653,1,0,0:0:0:0:
268,248,13040,1,0,0:0:0:0:
176,272,13620,1,0,0:0:0:0:
136,212,14007,1,0,0:0:0:0:
335,77,14588,6,0,P|389:100|424:148,2,120.000004577637,0|0|0,0:0|0:0|0:0,0:0:0:0:
336,164,15749,2,0,P|289:199|230:197,1,120.000004577637
228,72,16330,1,0,0:0:0:0:
228,72,16524,2,0,L|156:92,1,60.0000022888184
216,144,16911,2,0,L|273:160,1,60.0000022888184
320,216,17298,2,0,L|248:236,1,60.0000022888184
232,300,17685,6,0,P|194:255|200:196,1,120.000004577637
320,116,18459,1,0,0:0:0:0:
436,200,18846,1,0,0:0:0:0:
504,244,19233,2,0,P|455:277|397:271,1,120.000004577637
264,208,20007,2,0,L|224:252,2,60.0000022888184,0|0|0,0:0|0:0|0:0,0:0:0:0:
348,92,20782,5,0,0:0:0:0:
416,220,21169,2,0,P|388:230|361:218,1,60.0000022888184
192,84,21943,1,0,0:0:0:0:
336,92,22330,5,0,0:0:0:0:
256,212,22717,2,0,P|229:200|202:211,1,60.0000022888184
36,348,23491,1,0,0:0:0:0:
180,344,23878,5,0,0:0:0:0:
112,216,24266,2,0,P|92:194|93:164,1,60.0000022888184
216,92,24846,1,0,0:0:0:0:
256,152,25040,1,0,0:0:0:0:
360,252,25427,6,0,P|414:228|444:176,2,120.000004577637,0|0|0,0:0|0:0|0:0,0:0:0:0:
364,176,26588,2,0,P|320:136|315:75,1,120.000004577637
388,104,27169,1,0,0:0:0:0:
436,160,27362,2,0,L|364:180,1,60.0000022888184
332,232,27749,2,0,L|389:248,1,60.0000022888184
436,304,28136,2,0,L|364:324,1,60.0000022888184
307,332,28524,6,0,P|250:340|205:302,1,120.000004577637
112,196,29298,1,0,0:0:0:0:
206,88,29878,1,0,0:0:0:0:
260,140,30072,6,0,P|204:164|148:140,1,120.000004577637
204,88,30846,6,0,L|224:60,4,30.0000011444092,0|0|0|0|0,0:0|0:0|0:0|0:0|0:0,0:0:0:0:
120,204,31620,5,0,0:0:0:0:
204,320,32007,2,0,L|272:312,1,60.0000022888184
400,268,32588,6,0,P|438:224|435:165,1,120.000004577637
372,200,33169,1,0,0:0:0:0:
236,156,33556,2,0,L|176:148,1,60.0000022888184,0|0,0:0|0:0,0:0:0:0:
320,172,34136,1,0,0:0:0:0:
460,204,34524,6,0,P|493:153|479:93,1,120.000004577637
424,140,35104,2,0,L|368:160,1,60.0000022888184,0|0,0:0|0:0,0:0:0:0:
304,192,35491,2,0,L|244:220,2,60.0000022888184,0|0|0,0:0|0:0|0:0,0:0:0:0:
288,120,36072,2,0,P|364:144|360:240,1,180.000006866455,0|0,0:0|0:0,0:0:0:0:
228,280,37040,1,0,0:0:0:0:
236,140,37427,1,0,0:0:0:0:
100,92,37814,6,0,L|168:76,1,60.0000022888184,0|0,0:0|0:0,0:0:0:0:
228,68,38201,1,0,0:0:0:0:
344,156,38588,1,0,0:0:0:0:
212,212,38975,1,0,0:0:0:0:
228,68,39362,2,0,L|296:84,1,60.0000022888184,0|0,0:0|0:0,0:0:0:0:
240,136,39749,6,0,L|181:149,1,60.0000022888184,0|0,0:0|0:0,0:0:0:0:
228,204,40136,2,0,L|296:220,1,60.0000022888184,0|0,0:0|0:0,0:0:0:0:
240,276,40524,1,0,0:0:0:0:
472,296,40911,6,0,L|413:309,1,60.0000022888184,0|0,0:0|0:0,0:0:0:0:
344,324,41298,1,0,0:0:0:0:
204,296,41685,1,0,0:0:0:0:
300,188,42072,1,0,0:0:0:0:
344,324,42459,2,0,L|280:312,1,60.0000022888184
244,256,42846,6,0,L|312:240,1,60.0000022888184,0|0,0:0|0:0,0:0:0:0:
344,184,43233,2,0,L|276:168,1,60.0000022888184,0|0,0:0|0:0,0:0:0:0:
244,112,43620,1,0,0:0:0:0:
56,56,44007,6,0,L|124:72,1,60.0000022888184,0|0,0:0|0:0,0:0:0:0:
184,92,44394,1,0,0:0:0:0:
248,56,44588,2,0,P|251:114|212:158,1,120.000004577637
144,184,45169,1,0,0:0:0:0:
404,128,45556,6,0,L|304:148,1,60.0000022888184
276,156,45943,1,0,0:0:0:0:
240,220,46136,2,0,P|206:172|215:114,1,120.000004577637
268,68,46717,1,0,0:0:0:0:
244,316,47104,5,0,0:0:0:0:
244,316,47298,1,0,0:0:0:0:
180,112,47878,1,0,0:0:0:0:
324,116,48265,1,0,0:0:0:0:
200,40,48653,5,0,0:0:0:0:
56,200,49233,2,0,L|240:236,1,180.000006866455
228,92,50201,1,0,0:0:0:0:
84,252,50782,2,0,L|268:288,1,180.000006866455
260,286,51749,5,0,0:0:0:0:
420,140,52330,2,0,L|243:105,1,180.000006866455
296,240,53298,1,0,0:0:0:0:
452,92,53878,2,0,L|275:57,1,180.000006866455
275,57,54653,5,0,0:0:0:0:
275,57,54846,1,0,0:0:0:0:
144,228,55427,1,0,0:0:0:0:
144,228,55620,1,0,0:0:0:0:
356,260,56201,5,0,0:0:0:0:
356,260,56394,2,0,L|476:192,1,120.000004577637
356,100,57169,2,0,L|476:168,1,120.000004577637
460,159,57749,1,0,0:0:0:0:
224,96,58136,6,0,L|296:96,1,60.0000022888184
284,288,58717,2,0,L|224:288,1,60.0000022888184
56,192,59298,2,0,L|180:192,1,120.000004577637
176,192,59878,1,0,0:0:0:0:
120,60,60265,5,0,0:0:0:0:
116,204,60653,2,0,L|188:224,1,60.0000022888184
212,290,61040,2,0,P|246:242|244:184,1,120.000004577637
184,52,61814,1,0,0:0:0:0:
116,180,62201,1,0,0:0:0:0:
184,308,62588,2,0,P|240:289|272:240,1,120.000004577637
368,132,63362,6,0,P|321:95|262:96,1,120.000004577637,0|0,0:0|0:0,0:0:0:0:
144,180,64136,1,0,0:0:0:0:
44,284,64523,2,0,P|73:335|128:357,1,120.000004577637,0|0,0:0|0:0,0:0:0:0:
242,271,65298,6,0,P|187:251|131:269,1,120.000004577637,0|0,0:0|0:0,0:0:0:0:
272,292,66072,1,0,0:0:0:0:
132,268,66459,2,0,L|72:256,1,60.0000022888184
73,256,66846,1,0,0:0:0:0:
88,112,67233,2,0,L|220:112,1,120.000004577637,0|0,0:0|0:0,0:0:0:0:
352,112,68007,2,0,L|288:112,1,60.0000022888184
320,180,68394,1,0,0:0:0:0:
248,304,68782,1,0,0:0:0:0:
176,180,69169,1,0,0:0:0:0:
320,180,69556,6,0,P|364:219|373:278,1,120.000004577637,0|0,0:0|0:0,0:0:0:0:
112,212,70330,5,0,0:0:0:0:
156,156,70523,1,0,0:0:0:0:
196,96,70717,1,0,0:0:0:0:
268,220,71104,1,0,0:0:0:0:
388,300,71491,6,0,L|336:264,1,60.0000022888184
256,192,71878,12,0,73233,0:0:0:0:
112,80,73427,6,0,L|184:68,1,60.0000022888184
244,64,73814,1,0,0:0:0:0:
288,200,74201,1,0,0:0:0:0:
148,172,74588,1,0,0:0:0:0:
288,200,74975,1,0,0:0:0:0:
244,64,75362,1,0,0:0:0:0:
388,72,75749,6,0,L|448:92,1,60.0000022888184
392,140,76136,1,0,0:0:0:0:
396,284,76523,2,0,P|360:331|305:352,1,120.000004577637
164,332,77298,1,0,0:0:0:0:
244,212,77685,1,0,0:0:0:0:
164,332,78072,1,0,0:0:0:0:
312,344,78459,1,0,0:0:0:0:
388,228,78846,2,0,L|340:192,1,60.0000022888184,0|0,0:0|0:0,0:0:0:0:
404,156,79233,5,0,0:0:0:0:
260,144,79620,1,0,0:0:0:0:
240,288,80007,1,0,0:0:0:0:
384,304,80394,2,0,L|344:260,1,60.0000022888184,0|0,0:0|0:0,0:0:0:0:
296,196,80781,1,0,0:0:0:0:
296,56,81169,2,0,L|296:120,1,60.0000022888184,0|0,0:0|0:0,0:0:0:0:
296,196,81556,1,0,0:0:0:0:
196,296,81943,2,0,L|252:244,1,60.0000022888184
296,196,82330,1,0,0:0:0:0:
396,92,82717,5,0,0:0:0:0:
280,64,82910,1,0,0:0:0:0:
308,176,83104,1,0,0:0:0:0:
180,324,83491,1,0,0:0:0:0:
88,264,83685,1,0,0:0:0:0:
192,212,83878,1,0,0:0:0:0:
372,124,84265,6,0,L|312:80,1,60.0000022888184
188,88,84652,2,0,L|140:124,1,60.0000022888184
140,260,85040,2,0,L|188:295,1,60.0000022888184
323,295,85427,2,0,L|372:260,1,60.0000022888184
400,192,85814,5,0,0:0:0:0:
368,52,86201,1,0,0:0:0:0:
368,52,86394,1,0,0:0:0:0:
228,84,86781,2,0,L|172:108,1,60.0000022888184,0|0,0:0|0:0,0:0:0:0:
256,192,87169,12,0,88136,0:0:0:0:
