osu file format v14

[General]
AudioFilename: rainbowww.mp3
AudioLeadIn: 1700
PreviewTime: 60766
Countdown: 0
SampleSet: Soft
StackLeniency: 0.7
Mode: 0
LetterboxInBreaks: 0
WidescreenStoryboard: 0

[Editor]
Bookmarks: 10570,35668,54492
DistanceSpacing: 0.9
BeatDivisor: 2
GridSize: 4
TimelineZoom: 1

[Metadata]
Title:Colorful.(AnimeVer.)
TitleUnicode:カラフル。(AnimeVer.)
Artist:Sawai Miku
ArtistUnicode:沢井美空
Creator:[Sc4v4ng3r]
Version:Easy
Source:冴えない彼女の育てかた
Tags:Saenai Heroine no Sodatekata tv_size ED ending Saekano How to raise a Boring Girlfriend -Sh1n1- walaowey
BeatmapID:837970
BeatmapSetID:383283

[Difficulty]
HPDrainRate:2
CircleSize:3
OverallDifficulty:2
ApproachRate:3
SliderMultiplier:0.999999999999999
SliderTickRate:1

[Events]
//Background and Video events
0,0,"Colorful BG.jpg",0,0
Video,0,"vid.avi"
//Break Periods
//Storyboard Layer 0 (Background)
//Storyboard Layer 1 (Fail)
//Storyboard Layer 2 (Pass)
//Storyboard Layer 3 (Foreground)
//Storyboard Sound Samples

[TimingPoints]
1159,392.156862745098,4,2,1,70,1,0
10570,-100,4,2,1,60,0,0
35668,-100,4,2,1,50,0,0
48217,-100,4,2,1,60,0,0
62335,-100,4,2,1,80,0,1
74786,-100,4,2,1,80,0,0
74884,-100,4,2,1,80,0,1
85864,-100,4,2,1,60,0,0

[Colours]
Combo1 : 248,237,31
Combo2 : 0,83,166
Combo3 : 138,0,0
Combo4 : 58,0,117
Combo5 : 240,0,0

[HitObjects]
48,68,1159,6,2,P|136:112|236:56,1,200,4|0,0:0|0:0,0:0:0:0:
300,28,2335,1,8,0:0:0:0:
388,20,2727,2,0,B|384:80|340:104|340:104|384:124|396:204,1,200,2|0,0:0|0:0,0:0:0:0:
392,272,3904,1,8,0:0:0:0:
304,272,4296,6,0,P|294:183|176:196,2,200,2|2|2,0:0|0:0|0:0,0:0:0:0:
244,340,6257,1,8,0:0:0:0:
156,364,6649,2,0,P|106:378|59:365,1,99.9999999999999,0|8,0:0|0:0,0:0:0:0:
104,288,7433,6,0,P|88:216|116:80,1,200,4|8,0:0|0:0,0:0:0:0:
224,20,8806,2,2,L|340:32,1,99.9999999999999
476,196,10178,1,8,0:0:0:0:
488,284,10570,6,0,P|420:264|420:128,1,200,4|0,0:0|0:0,0:0:0:0:
428,64,11747,1,8,0:0:0:0:
340,48,12139,2,0,P|320:116|184:116,1,200
120,100,13315,1,8,0:0:0:0:
136,188,13708,6,0,P|140:244|108:292,1,99.9999999999999,0|8,0:0|0:0,0:0:0:0:
84,364,14492,2,0,L|183:374,1,99.9999999999999,0|8,0:0|0:0,0:0:0:0:
272,380,15276,2,0,P|256:324|216:292,1,99.9999999999999,0|8,0:0|0:0,0:0:0:0:
236,208,16060,2,0,P|270:172|281:124,1,99.9999999999999,0|8,0:0|0:0,0:0:0:0:
304,36,16845,6,0,P|364:28|456:128,1,200,4|0,0:0|0:0,0:0:0:0:
400,192,18021,1,8,0:0:0:0:
456,264,18413,2,0,P|401:343|304:347,1,200
220,320,19590,1,8,0:0:0:0:
140,280,19982,6,0,P|170:245|242:231,1,99.9999999999999,0|8,0:0|0:0,0:0:0:0:
312,228,20766,2,0,P|359:213|392:176,1,99.9999999999999,0|8,0:0|0:0,0:0:0:0:
392,88,21551,2,0,P|344:102|311:139,1,99.9999999999999,4|8,0:0|0:0,0:0:0:0:
220,138,22335,2,0,P|188:102|141:87,1,99.9999999999999,0|8,0:0|0:0,0:0:0:0:
52,108,23119,6,0,B|81:175|139:177|139:177|136:232|92:260,1,200,4|0,0:0|0:0,0:0:0:0:
60,328,24296,1,8,0:0:0:0:
148,332,24688,2,0,P|256:372|336:328,1,200
392,272,25864,1,8,0:0:0:0:
436,192,26257,6,0,P|391:182|326:207,1,99.9999999999999,0|8,0:0|0:0,0:0:0:0:
252,175,27041,2,0,P|266:128|256:80,1,99.9999999999999,0|8,0:0|0:0,0:0:0:0:
168,72,27825,2,0,P|153:119|163:167,1,99.9999999999999,0|8,0:0|0:0,0:0:0:0:
196,252,28609,2,0,P|238:268|306:254,1,99.9999999999999,0|8,0:0|0:0,0:0:0:0:
372,216,29394,6,0,P|416:216|432:348,1,200,4|0,0:0|0:0,0:0:0:0:
356,376,30570,1,8,0:0:0:0:
268,356,30962,2,0,P|168:340|68:356,1,200
4,292,32139,1,8,0:0:0:0:
67,228,32531,6,0,P|87:182|82:133,1,99.9999999999999,0|8,0:0|0:0,0:0:0:0:
48,48,33315,2,0,P|97:43|142:63,1,99.9999999999999,0|8,0:0|0:0,0:0:0:0:
223,100,34100,2,0,P|269:120|318:115,1,99.9999999999999,0|8,0:0|0:0,0:0:0:0:
404,84,34884,2,0,P|453:79|498:99,1,99.9999999999999,2|2,0:0|0:0,0:0:0:0:
440,168,35668,6,0,P|476:220|368:316,1,200,4|8,0:0|0:0,0:0:0:0:
228,344,37237,2,0,P|159:279|195:192,1,200,2|8,0:0|0:0,0:0:0:0:
276,156,38413,1,0,0:0:0:0:
364,140,38806,6,0,P|330:83|209:97,1,200,2|8,0:0|0:0,0:0:0:0:
168,272,40374,2,0,P|202:329|323:315,1,200,2|8,0:0|0:0,0:0:0:0:
392,260,41551,1,8,0:0:0:0:
432,180,41943,6,0,B|347:156|312:227|312:227|256:216,1,200,4|8,0:0|0:0,0:0:0:0:
88,152,43511,2,0,B|173:176|208:105|208:105|264:116,1,200,2|8,0:0|0:0,0:0:0:0:
348,84,44688,1,8,0:0:0:0:
436,84,45080,6,0,B|428:144|380:164|380:164|432:196|440:260,1,200,2|8,0:0|0:0,0:0:0:0:
284,336,46649,2,0,B|292:276|340:256|340:256|288:224|280:160,1,200,2|8,0:0|0:0,0:0:0:0:
212,124,47825,1,2,0:0:0:0:
136,76,48217,6,0,P|65:43|-9:74,2,150,4|8|8,0:0|0:0|0:0,0:0:0:0:
136,168,49786,2,0,P|66:189|0:157,2,150,2|8|8,0:0|0:0|0:0,0:0:0:0:
212,124,51355,6,0,P|281:102|347:134,2,150,2|8|8,0:0|0:0|0:0,0:0:0:0:
216,212,52923,2,0,P|281:244|351:222,2,150,2|8|8,0:0|0:0|0:0,0:0:0:0:
136,168,54492,6,0,P|126:148|145:68,1,99.9999999999999,4|8,0:0|0:0,0:0:0:0:
220,40,55276,2,0,L|324:52,1,99.9999999999999,0|8,0:0|0:0,0:0:0:0:
400,96,56060,2,0,P|410:116|391:196,1,99.9999999999999,0|8,0:0|0:0,0:0:0:0:
316,228,56845,2,0,L|216:216,1,99.9999999999999,0|8,0:0|0:0,0:0:0:0:
136,168,57629,6,0,P|124:224|144:272,1,99.9999999999999,2|8,0:0|0:0,0:0:0:0:
216,308,58413,2,0,L|316:320,1,99.9999999999999,0|8,0:0|0:0,0:0:0:0:
400,292,59198,2,0,P|412:236|392:188,1,99.9999999999999,0|8,0:0|0:0,0:0:0:0:
328,140,59982,2,0,L|228:128,1,99.9999999999999,0|8,0:0|0:0,0:0:0:0:
140,116,60766,6,0,P|68:128|68:248,1,200,2|0,0:0|0:0,0:0:0:0:
108,312,61943,1,8,0:0:0:0:
188,272,62335,6,0,P|236:256|296:268,1,99.9999999999999,4|8,0:0|0:0,0:0:0:0:
360,312,63119,2,0,P|409:318|456:302,1,99.9999999999999,0|8,0:0|0:0,0:0:0:0:
500,224,63904,2,0,P|496:156|384:72,1,200,2|0,0:0|0:0,0:0:0:0:
320,112,65080,1,8,0:0:0:0:
231,83,65472,6,0,P|182:77|135:93,1,99.9999999999999,2|8,0:0|0:0,0:0:0:0:
95,176,66257,2,0,P|145:182|192:166,1,99.9999999999999,0|8,0:0|0:0,0:0:0:0:
276,200,67041,2,0,P|324:282|280:367,1,200,2|0,0:0|0:0,0:0:0:0:
196,336,68217,1,8,0:0:0:0:
112,368,68609,6,0,P|72:324|116:196,1,200,2|0,0:0|0:0,0:0:0:0:
192,236,69786,1,8,0:0:0:0:
276,200,70178,2,0,L|388:192,1,99.9999999999999,2|8,0:0|0:0,0:0:0:0:
396,104,70962,2,0,L|296:111,1,99.9999999999999,0|8,0:0|0:0,0:0:0:0:
208,128,71747,6,0,P|141:127|88:64,2,150,2|0|8,0:0|0:0|0:0,0:0:0:0:
176,44,73315,2,0,L|275:36,1,99.9999999999999,4|8,0:0|0:0,0:0:0:0:
364,56,74100,2,0,L|463:48,1,99.9999999999999,2|8,0:0|0:0,0:0:0:0:
512,124,74884,6,0,P|524:172|476:316,1,200,4|0,0:0|0:0,0:0:0:0:
392,300,76060,1,8,0:0:0:0:
304,327,76453,2,0,P|256:340|208:327,1,99.9999999999999,2|8,0:0|0:0,0:0:0:0:
156,248,77237,2,0,P|204:235|252:248,1,99.9999999999999,0|8,0:0|0:0,0:0:0:0:
320,188,78021,6,0,P|374:107|322:21,1,200,2|0,0:0|0:0,0:0:0:0:
284,104,79198,1,8,0:0:0:0:
208,56,79590,2,0,L|100:64,1,99.9999999999999,2|8,0:0|0:0,0:0:0:0:
80,148,80374,2,0,L|179:155,1,99.9999999999999,0|8,0:0|0:0,0:0:0:0:
264,192,81158,6,0,P|352:163|357:52,1,200,4|0,0:0|0:0,0:0:0:0:
444,24,82335,1,8,0:0:0:0:
476,108,82727,2,0,L|488:224,1,99.9999999999999,2|8,0:0|0:0,0:0:0:0:
404,244,83511,2,0,L|393:343,1,99.9999999999999,0|8,0:0|0:0,0:0:0:0:
308,368,84296,6,0,P|256:376|140:276,1,200,2|8,0:0|0:0,0:0:0:0:
116,208,85472,1,8,0:0:0:0:
256,192,85864,12,2,87433,0:0:0:0:
