osu file format v13

[General]
AudioFilename: mp333.MP3
AudioLeadIn: 1900
PreviewTime: 60473
Countdown: 0
SampleSet: Soft
StackLeniency: 0.3
Mode: 0
LetterboxInBreaks: 0
WidescreenStoryboard: 0

[Editor]
DistanceSpacing: 1
BeatDivisor: 4
GridSize: 4
TimelineZoom: 1.1

[Metadata]
Title:Colorful.(Anime ver.)
TitleUnicode:カラフル。(Anime ver.)
Artist:Sawai Miku
ArtistUnicode:沢井美空
Creator:No Dap
Version:scanter's Normal
Source:Saenai Heroine no Sodatekata
Tags:ending sekai-nyan momochikun scanter 冴えない彼女の育てかた tv_size size saekano
BeatmapID:601721
BeatmapSetID:260115

[Difficulty]
HPDrainRate:3.5
CircleSize:3.5
OverallDifficulty:4
ApproachRate:4.5
SliderMultiplier:1.1
SliderTickRate:1

[Events]
//Background and Video events
Video,0,"vvviidddddeeeoeoeooeo.AVI"
0,0,"bbgbbggbgb.jpg",0,0
//Break Periods
//Storyboard Layer 0 (Background)
//Storyboard Layer 1 (Fail)
//Storyboard Layer 2 (Pass)
//Storyboard Layer 3 (Foreground)
//Storyboard Sound Samples

[TimingPoints]
964,392.156862745098,4,2,1,60,1,0
10375,-100,4,2,1,65,0,0
12336,-100,4,2,11,55,0,0
12532,-100,4,2,1,65,0,0
29591,-100,4,2,11,55,0,0
29787,-100,4,2,1,65,0,0
33905,-100,4,2,1,50,0,0
35473,-100,4,2,1,55,0,0
39395,-100,4,2,22,45,0,0
39591,-100,4,2,1,55,0,0
60571,-100,4,2,1,70,0,0
60963,-100,4,2,84,45,0,0
61748,-100,4,2,1,70,0,0
62140,-100,4,2,1,70,0,1
73120,-100,4,2,1,60,0,0
74689,-100,4,2,1,70,0,1
75081,-100,4,2,11,60,0,1
75277,-100,4,2,1,70,0,1
82140,-100,4,2,11,60,0,1
82336,-100,4,2,1,70,0,1
84885,-100,4,2,1,50,0,1
85277,-100,4,2,1,40,0,1
85669,-100,4,2,1,55,0,0
87238,-100,4,2,1,80,0,0

[Colours]
Combo1 : 255,134,134
Combo2 : 38,147,255
Combo3 : 255,128,255
Combo4 : 238,238,0
Combo5 : 0,255,0

[HitObjects]
124,188,179,6,0,L|116:124,2,55,8|2|8,0:0|0:0|0:0,0:0:0:0:
80,288,964,6,0,P|136:296|192:272,1,110,6|8,0:0|0:0,0:0:0:0:
228,244,1552,1,2,0:0:0:0:
272,144,1944,1,2,0:0:0:0:
272,144,2140,1,8,0:0:0:0:
360,80,2532,2,0,B|416:80|416:80|472:96,2,110,2|8|2,0:0|0:0|0:0,0:0:0:0:
252,64,3709,1,8,0:0:0:0:
144,72,4101,6,0,L|136:16,2,55,2|2|8,0:0|0:0|0:0,0:0:0:0:
68,152,4885,2,0,L|60:208,2,55,2|2|8,0:0|0:0|0:0,0:0:0:0:
176,176,5669,2,0,P|208:220|256:244,1,110,2|8,0:0|0:0,0:0:0:0:
312,252,6258,1,2,0:0:0:0:
420,280,6650,2,0,P|423:312|416:344,2,55,2|8|2,0:0|0:0|0:0,0:0:0:0:
460,240,7238,6,0,P|448:184|464:128,1,110,6|8,0:0|0:0,0:0:0:0:
488,84,7826,1,2,0:0:0:0:
488,84,8022,2,0,B|440:60|420:104|368:72,1,110,8|2,0:0|0:0,0:0:0:0:
332,56,8611,5,8,0:0:0:0:
224,56,9003,1,8,0:0:0:0:
224,56,9983,1,4,0:3:0:0:
120,84,10375,6,0,P|96:140|104:192,1,110,6|8,0:0|0:0,0:0:0:0:
116,240,10964,2,0,P|121:294|98:343,1,110,0|0,3:0|3:0,0:0:0:0:
56,376,11552,1,8,0:0:0:0:
36,268,11944,2,0,L|200:308,1,165,0|0,3:0|3:0,0:0:0:0:
304,328,12924,1,0,3:0:0:0:
304,328,13120,1,8,0:0:0:0:
408,292,13513,6,0,P|413:329|410:357,2,55,0|0|8,3:0|0:0|0:0,0:0:0:0:
400,184,14297,1,0,3:0:0:0:
420,78,14689,1,8,0:0:0:0:
318,36,15081,2,0,P|296:31|216:88,1,110,0|8,3:0|0:0,0:0:0:0:
185,110,15669,2,0,B|119:97|119:97|80:57,1,110,0|0,3:0|3:0,0:0:0:0:
48,28,16258,1,8,0:0:0:0:
8,130,16650,6,0,L|15:239,1,110,6|8,0:0|0:0,0:0:0:0:
19,294,17238,2,0,P|64:277|123:295,1,110,0|0,3:0|3:0,0:0:0:0:
166,325,17826,1,8,0:0:0:0:
270,358,18218,2,0,L|383:348,1,110,0|8,3:0|0:0,0:0:0:0:
432,365,18807,2,0,P|431:315|465:265,1,110,0|0,3:0|3:0,0:0:0:0:
509,236,19395,1,8,0:0:0:0:
493,127,19787,5,0,3:0:0:0:
398,70,20179,1,8,0:0:0:0:
398,70,20375,2,0,B|349:80|349:80|291:69|291:69|231:82,1,165,0|8,3:0|0:0,0:0:0:0:
126,77,21356,2,0,P|119:43|124:18,2,55,4|8|8,1:2|0:0|0:0,0:0:0:0:
137,130,21944,2,0,B|141:189|141:189|131:246,1,110,8|0,0:0|1:0,0:0:0:0:
120,292,22532,1,8,0:0:0:0:
226,318,22924,6,0,L|234:377,2,55,6|0|8,0:0|0:0|0:0,0:0:0:0:
256,272,23513,2,0,P|311:263|361:285,1,110,0|0,3:0|3:0,0:0:0:0:
405,313,24101,1,8,0:0:0:0:
475,228,24493,2,0,L|465:118,1,110,0|8,3:0|0:0,0:0:0:0:
410,121,25081,2,0,P|356:119|310:83,1,110,0|0,3:0|3:0,0:0:0:0:
292,35,25669,1,8,0:0:0:0:
182,50,26062,6,0,L|71:66,2,110,0|8|0,3:0|0:0|3:0,0:0:0:0:
292,35,27238,2,0,L|346:51,1,55,8|0,0:0|0:0,0:0:0:0:
365,101,27630,2,0,L|482:88,1,110,0|8,3:0|0:0,0:0:0:0:
501,136,28218,2,0,P|513:193|495:260,1,110,0|0,3:0|3:0,0:0:0:0:
452,266,28807,2,0,L|461:327,1,55,8|0,0:0|0:0,0:0:0:0:
423,361,29199,6,0,B|389:382|345:368|345:368|306:329|247:348,1,165,6|0,0:0|3:0,0:0:0:0:
162,314,30179,2,0,L|153:372,2,55,0|8|0,3:0|0:0|3:0,0:0:0:0:
202,277,30767,2,0,P|173:212|182:165,1,110,0|8,3:0|0:0,0:0:0:0:
200,125,31356,1,0,3:0:0:0:
263,35,31748,1,0,3:0:0:0:
263,35,31944,6,0,P|205:19|143:24,2,110,8|0|8,0:0|3:0|0:0,0:0:0:0:
307,67,32924,2,0,L|420:58,1,110,0|0,3:0|3:0,0:0:0:0:
435,110,33513,2,0,P|443:154|443:174,1,55,8|6,0:0|0:0,0:0:0:0:
256,192,33905,12,6,35473,0:0:0:0:
160,231,36258,6,0,B|220:232|256:280|256:280|288:232|352:228,1,220,0|0,1:0|3:0,0:0:0:0:
256,28,37826,1,0,1:0:0:0:
132,208,38611,6,0,C|206:234|256:108|306:234|380:208,1,440,0|0,3:0|3:0,0:0:0:0:
196,332,40964,2,0,P|148:332|92:368,2,110,0|4|6,1:0|3:0|0:0,0:0:0:0:
305,331,42140,6,0,B|362:342|362:342|421:333,1,110,0|0,1:0|3:0,0:0:0:0:
442,228,42924,1,0,1:0:0:0:
442,228,43120,2,0,B|359:206|359:206|266:233,1,165,0|0,3:0|0:0,0:0:0:0:
180,264,44101,2,0,P|172:312|180:352,2,82.5,0|0|0,1:0|1:0|1:0,0:0:0:0:
152,216,44885,6,0,P|88:196|44:204,2,110,0|0|0,3:0|3:0|1:0,0:0:0:0:
224,132,46062,2,0,L|232:76,1,55,0|0,3:0|1:0,0:0:0:0:
288,72,46454,2,0,L|312:12,1,55,0|0,3:0|1:0,0:0:0:0:
416,44,47042,1,0,3:0:0:0:
416,44,47238,1,0,1:0:0:0:
492,120,47630,1,4,3:0:0:0:
504,228,48022,6,0,P|480:288|336:300,1,220,6|0,0:0|3:0,0:0:0:0:
256,236,49199,1,0,1:0:0:0:
152,272,49591,2,0,B|132:212|180:172|156:108,1,165,0|0,3:0|1:0,0:0:0:0:
53,146,50571,1,0,3:0:0:0:
53,146,50767,1,0,1:0:0:0:
113,238,51160,6,0,B|176:252|208:200|208:200|276:216|312:152,1,220,0|0,3:0|3:0,0:0:0:0:
378,83,52336,1,0,1:0:0:0:
466,148,52728,2,0,B|481:203|481:203|471:258,2,110,0|0|0,3:0|1:0|3:0,0:0:0:0:
378,83,53905,1,0,1:0:0:0:
272,108,54297,6,0,P|220:120|160:96,1,110,6|0,0:0|1:0,0:0:0:0:
116,80,54885,2,0,P|72:104|44:168,1,110,0|0,3:0|3:0,0:0:0:0:
40,212,55473,1,0,1:0:0:0:
100,304,55865,2,0,P|44:324|-16:308,2,110,0|0|0,3:0|1:0|3:0,0:0:0:0:
208,288,57042,2,0,L|264:296,1,55,0|0,1:0|0:0,0:0:0:0:
288,344,57434,6,0,L|400:332,1,110,0|0,3:0|1:0,0:0:0:0:
452,328,58022,2,0,B|444:284|444:284|452:260|452:260|444:212,1,110,0|0,3:0|3:0,0:0:0:0:
436,168,58611,1,0,1:0:0:0:
480,68,59003,2,0,L|492:12,2,55,0|0|0,3:0|1:0|3:0,0:0:0:0:
372,84,59787,2,0,L|368:28,2,55,0|0|0,1:0|0:0|1:0,0:0:0:0:
288,156,60571,6,0,B|232:168|192:120|192:120|168:172|108:184|108:184|160:224|140:292|140:292,1,330,2|0,0:0|1:0,0:0:0:0:
249,261,62140,6,0,P|280:313|329:330,1,110,6|8,0:0|0:0,0:0:0:0:
379,326,62728,2,0,L|440:322,1,55,2|2,0:0|0:0,0:0:0:0:
502,236,63316,2,0,L|441:223,1,55,8|0,0:0|0:0,0:0:0:0:
405,189,63709,2,0,B|387:130|387:130|400:105|398:72,1,110,2|8,0:0|0:0,0:0:0:0:
288,80,64493,2,0,P|224:77|173:99,1,110,2|8,0:0|0:0,0:0:0:0:
135,122,65081,1,2,0:0:0:0:
135,122,65277,6,0,B|105:72|105:72|99:7,2,110,2|8|2,0:0|0:0|0:0,0:0:0:0:
139,232,66454,1,8,0:0:0:0:
139,232,66650,2,0,P|119:279|53:212,1,165,2|8,0:0|0:0,0:0:0:0:
93,133,67630,2,0,L|94:23,2,110,2|8|6,0:0|0:0|0:0,0:0:0:0:
147,228,68807,5,8,0:0:0:0:
147,228,69003,2,0,B|229:263|229:185|308:227,1,165,2|8,0:0|0:0,0:0:0:0:
405,269,69983,2,0,P|404:321|382:380,2,110,2|8|2,0:0|0:0|0:0,0:0:0:0:
447,167,71160,2,0,P|443:132|447:107,1,55,8|0,0:0|0:0,0:0:0:0:
478,68,71552,2,0,P|438:85|363:80,1,110,2|8,0:0|0:0,0:0:0:0:
318,70,72140,1,2,0:0:0:0:
216,28,72532,1,2,0:0:0:0:
216,28,72728,1,8,0:0:0:0:
116,72,73120,5,2,0:0:0:0:
46,157,73513,1,8,0:0:0:0:
137,218,73905,1,2,0:0:0:0:
207,133,74297,1,8,0:0:0:0:
116,72,74689,6,0,P|152:38|268:43,1,165,6|0,0:0|0:0,0:0:0:0:
309,66,75473,2,0,P|361:80|414:58,1,110,2|8,0:0|0:0,0:0:0:0:
499,125,76258,2,0,B|504:183|504:183|498:241,1,110,2|8,0:0|0:0,0:0:0:0:
406,294,77042,2,0,B|401:236|401:236|407:178,1,110,2|8,0:0|0:0,0:0:0:0:
356,161,77630,1,2,0:0:0:0:
356,161,77826,6,0,P|297:148|245:170,1,110,2|8,0:0|0:0,0:0:0:0:
308,259,78611,1,2,0:0:0:0:
231,337,79003,1,8,0:0:0:0:
231,337,79199,2,0,B|177:342|177:342|128:309|128:309|55:320,1,165,2|8,0:0|0:0,0:0:0:0:
1,238,80179,2,0,P|-9:187|27:128,1,110,2|8,0:0|0:0,0:0:0:0:
110,79,80963,5,6,0:0:0:0:
219,64,81356,1,8,0:0:0:0:
316,115,81748,2,0,P|401:104|451:42,1,165,2|2,0:0|0:0,0:0:0:0:
506,140,82728,2,0,P|516:198|512:253,1,110,2|2,0:0|0:0,0:0:0:0:
414,297,83513,1,2,0:0:0:0:
414,297,83709,2,0,B|366:314|346:259|291:295,1,110,8|2,0:0|0:0,0:0:0:0:
200,312,84493,5,8,0:0:0:0:
98,353,84885,2,0,B|91:310|91:310|99:288|99:288|93:238,1,110,8|0,0:0|0:0,0:0:0:0:
80,136,85669,1,2,0:0:0:0:
256,192,85865,12,2,87238,0:0:0:0:
