osu file format v13

[General]
AudioFilename: mp333.MP3
AudioLeadIn: 1900
PreviewTime: 60473
Countdown: 0
SampleSet: Soft
StackLeniency: 0.7
Mode: 0
LetterboxInBreaks: 0
WidescreenStoryboard: 0

[Editor]
Bookmarks: 48022,53905,87238
DistanceSpacing: 1.1
BeatDivisor: 4
GridSize: 4
TimelineZoom: 1.1

[Metadata]
Title:Colorful.(Anime ver.)
TitleUnicode:カラフル。(Anime ver.)
Artist:Sawai Miku
ArtistUnicode:沢井美空
Creator:No Dap
Version:Sekai's Easy
Source:Saenai Heroine no Sodatekata
Tags:ending sekai-nyan momochikun scanter 冴えない彼女の育てかた tv_size size saekano
BeatmapID:598561
BeatmapSetID:260115

[Difficulty]
HPDrainRate:2
CircleSize:3
OverallDifficulty:2
ApproachRate:2
SliderMultiplier:0.8
SliderTickRate:1

[Events]
//Background and Video events
Video,0,"vvviidddddeeeoeoeooeo.AVI"
0,0,"bggggbbb.jpg",0,0
//Break Periods
//Storyboard Layer 0 (Background)
//Storyboard Layer 1 (Fail)
//Storyboard Layer 2 (Pass)
//Storyboard Layer 3 (Foreground)
//Storyboard Sound Samples

[TimingPoints]
964,392.156862745098,4,2,55,60,1,0
1356,-100,4,2,22,60,0,0
1454,-100,4,2,55,60,0,0
4493,-100,4,2,22,60,0,0
4591,-100,4,2,55,60,0,0
6062,-100,4,2,22,60,0,0
6160,-100,4,2,55,60,0,0
7630,-100,4,2,22,60,0,0
7728,-100,4,2,55,60,0,0
10375,-100,4,2,55,65,0,0
10767,-100,4,2,22,65,0,0
10865,-100,4,2,55,65,0,0
12336,-100,4,2,22,65,0,0
12434,-100,4,2,55,65,0,0
13905,-100,4,2,22,65,0,0
14003,-100,4,2,55,65,0,0
15473,-100,4,2,22,65,0,0
15571,-100,4,2,55,65,0,0
17042,-100,4,2,22,65,0,0
17140,-100,4,2,55,65,0,0
18611,-100,4,2,22,65,0,0
18709,-100,4,2,55,65,0,0
20179,-100,4,2,22,65,0,0
20277,-100,4,2,55,65,0,0
21748,-100,4,2,22,65,0,0
21846,-100,4,2,55,65,0,0
23316,-100,4,2,22,65,0,0
23414,-100,4,2,55,65,0,0
24885,-100,4,2,22,65,0,0
24983,-100,4,2,55,65,0,0
26454,-100,4,2,22,65,0,0
26552,-100,4,2,55,65,0,0
28022,-100,4,2,22,65,0,0
28120,-100,4,2,55,65,0,0
29591,-100,4,2,22,65,0,0
29689,-100,4,2,55,65,0,0
32728,-100,4,2,22,65,0,0
32826,-100,4,2,55,65,0,0
34297,-100,4,2,22,65,0,0
34395,-100,4,2,55,65,0,0
40964,-100,4,2,22,65,0,0
41062,-100,4,2,55,65,0,0
45669,-100,4,2,22,65,0,0
45767,-100,4,2,55,65,0,0
47238,-100,4,2,22,65,0,0
47336,-100,4,2,55,65,0,0
50375,-100,4,2,22,65,0,0
50473,-100,4,2,55,65,0,0
54297,-100,4,2,55,55,0,0
54689,-100,4,2,22,55,0,0
54787,-100,4,2,55,55,0,0
56258,-100,4,2,22,55,0,0
56356,-100,4,2,55,55,0,0
57826,-100,4,2,22,55,0,0
57924,-100,4,2,55,55,0,0
59395,-100,4,2,22,55,0,0
59493,-100,4,2,55,55,0,0
60571,-100,4,2,84,55,0,0
60963,-100,4,2,55,55,0,0
61356,-100,4,2,84,55,0,0
61748,-100,4,2,55,55,0,0
62140,-100,4,2,55,70,0,1
64101,-100,4,2,22,70,0,1
64199,-100,4,2,55,70,0,1
67238,-100,4,2,22,70,0,1
67336,-100,4,2,55,70,0,1
71944,-100,4,2,22,70,0,1
72042,-100,4,2,55,70,0,1
73120,-100,4,2,55,70,0,0
73513,-100,4,2,22,70,0,0
73611,-100,4,2,55,70,0,0
74689,-100,4,2,55,70,0,1
75081,-100,4,2,22,70,0,1
75179,-100,4,2,55,70,0,1
76650,-100,4,2,22,70,0,1
76748,-100,4,2,55,70,0,1
78218,-100,4,2,22,70,0,1
78316,-100,4,2,55,70,0,1
79787,-100,4,2,22,70,0,1
79885,-100,4,2,55,70,0,1
81356,-100,4,2,22,70,0,1
81454,-100,4,2,55,70,0,1
84493,-100,4,2,22,70,0,1
84591,-100,4,2,55,70,0,1
85669,-100,4,2,55,70,0,0

[Colours]
Combo1 : 255,134,134
Combo2 : 38,147,255
Combo3 : 255,128,255
Combo4 : 238,238,0
Combo5 : 0,255,0

[HitObjects]
132,192,179,6,0,P|128:240|140:280,1,80,8|8,0:0|0:0,0:0:0:0:
196,336,964,2,0,B|248:344|284:312|284:312|316:332|348:332,1,160,4|0,0:0|0:0,0:0:0:0:
432,340,2140,1,8,0:0:0:0:
456,256,2532,6,0,L|476:164,1,80,2|8,0:0|0:0,0:0:0:0:
400,128,3316,2,0,L|383:206,1,80,2|8,0:0|0:0,0:0:0:0:
308,160,4101,2,0,L|336:32,2,120,4|2|8,0:0|0:0|0:0,0:0:0:0:
220,172,5669,6,0,P|148:160|64:216,1,160,4|2,0:0|0:0,0:0:0:0:
40,284,6846,1,8,0:0:0:0:
100,348,7238,2,0,B|140:328|192:332|192:332|180:296|192:256,1,160,4|8,0:0|0:0,0:0:0:0:
256,152,8611,2,0,L|340:128,1,80,4|4,0:0|0:0,0:0:0:0:
428,328,9983,5,4,3:0:0:0:
348,292,10375,2,0,P|276:284|200:332,1,160,4|2,3:0|0:0,0:0:0:0:
116,348,11552,1,8,0:0:0:0:
68,276,11944,2,0,P|36:228|44:160,2,120,2|2|8,0:0|0:0|0:0,0:0:0:0:
120,204,13513,6,0,L|260:104,1,160,2|2,0:0|0:0,0:0:0:0:
328,72,14689,1,8,0:0:0:0:
340,160,15081,2,0,L|231:237,2,120,2|2|8,0:0|0:0|0:0,0:0:0:0:
424,192,16650,6,0,P|436:268|396:344,1,160,4|2,0:0|0:0,0:0:0:0:
316,312,17826,1,8,0:0:0:0:
228,304,18218,2,0,L|104:304,2,120,2|2|8,0:0|0:0|0:0,0:0:0:0:
256,220,19787,6,0,P|256:180|160:100,1,160,2|2,0:0|0:0,0:0:0:0:
116,36,20964,1,8,0:0:0:0:
84,120,21356,2,0,P|44:112|0:36,2,120,2|2|8,0:0|0:0|0:0,0:0:0:0:
160,164,22924,6,0,B|89:164|89:164|29:164|15:202,1,160,4|2,0:0|0:0,0:0:0:0:
20,292,24101,1,8,0:0:0:0:
108,292,24493,2,0,B|178:292|178:292|238:292|252:253,1,160,0|2,0:0|0:0,0:0:0:0:
256,164,25669,1,8,0:0:0:0:
340,192,26062,6,0,P|388:188|460:220,2,120,2|2|8,0:0|0:0|0:0,0:0:0:0:
256,164,27630,2,0,P|252:116|284:44,2,120,2|2|8,0:0|0:0|0:0,0:0:0:0:
172,192,29199,6,0,P|96:208|36:144,1,160,4|2,0:0|0:0,0:0:0:0:
24,68,30375,1,8,0:0:0:0:
108,40,30767,2,0,L|192:20,1,80,4|8,0:0|0:0,0:0:0:0:
240,92,31552,2,0,L|162:110,1,80,2|8,0:0|0:0,0:0:0:0:
208,184,32336,6,0,L|336:153,2,120,2|2|8,0:0|0:0|0:0,0:0:0:0:
248,264,33905,2,0,P|176:224|96:264,1,160,4|2,0:0|0:0,0:0:0:0:
172,320,35081,1,8,0:0:0:0:
256,348,35473,6,0,P|324:302|325:212,1,160,4|8,0:0|0:0,0:0:0:0:
316,144,36650,1,0,0:0:0:0:
232,120,37042,2,0,B|184:104|140:120|140:120|124:88|76:76,1,160,8|8,0:0|0:0,0:0:0:0:
64,164,38218,1,0,0:0:0:0:
88,248,38611,6,0,B|122:239|138:207|138:207|182:223|230:207,1,160,2|8,0:0|0:0,0:0:0:0:
316,192,39787,1,2,0:0:0:0:
404,192,40179,2,0,P|416:248|388:312,2,120,8|2|0,0:0|0:0|0:0,0:0:0:0:
316,192,41748,6,0,L|464:124,1,160,4|8,0:0|0:0,0:0:0:0:
424,48,42924,1,0,0:0:0:0:
340,68,43316,2,0,L|194:134,1,160,8|8,0:0|0:0,0:0:0:0:
128,196,44493,1,0,0:0:0:0:
60,140,44885,6,0,P|48:92|64:24,2,120,4|0|0,0:0|0:0|0:0,0:0:0:0:
48,228,46454,2,0,L|28:348,2,120,4|0|8,0:0|0:0|0:0,0:0:0:0:
128,196,48022,6,0,B|208:196|208:196|288:240,1,160,4|0,0:0|0:0,0:0:0:0:
356,280,49199,1,8,0:0:0:0:
404,208,49591,2,0,P|428:160|416:88,2,120,8|2|0,0:0|0:0|0:0,0:0:0:0:
356,280,51160,6,0,P|312:344|228:340,1,160,4|0,0:0|0:0,0:0:0:0:
148,360,52336,1,8,0:0:0:0:
96,288,52728,2,0,L|40:224,1,80,2|8,0:0|0:0,0:0:0:0:
124,192,53513,2,0,L|68:128,1,80,0|8,0:0|0:0,0:0:0:0:
120,60,54297,6,0,P|192:88|268:48,1,160,4|2,0:0|0:0,0:0:0:0:
348,36,55473,1,8,0:0:0:0:
408,100,55865,2,0,P|452:164|420:248,1,160,2|2,0:0|0:0,0:0:0:0:
364,180,57042,1,8,0:0:0:0:
276,184,57434,6,0,P|256:184|184:116,2,120,4|2|8,0:0|0:0|0:0,0:0:0:0:
364,180,59003,2,0,P|384:180|456:248,2,120,4|2|8,0:0|0:0|0:0,0:0:0:0:
368,268,60571,6,0,P|264:324|164:268,1,240,2|8,0:0|0:0,0:0:0:0:
124,192,62140,6,0,L|40:192,1,80,4|8,0:0|0:0,0:0:0:0:
76,112,62924,2,0,L|156:112,1,80,2|8,0:0|0:0,0:0:0:0:
244,104,63709,2,0,P|308:96|368:112,2,120,2|2|8,0:0|0:0|0:0,0:0:0:0:
256,192,65277,6,0,P|216:200|164:188,1,80,4|8,0:0|0:0,0:0:0:0:
108,140,66062,2,0,L|44:204,1,80,2|8,0:0|0:0,0:0:0:0:
116,256,66846,2,0,L|24:344,2,120,4|2|8,0:0|0:0|0:0,0:0:0:0:
204,268,68414,5,4,0:0:0:0:
280,312,68807,2,0,P|320:324|416:256,1,160,8|8,0:0|0:0,0:0:0:0:
460,192,69983,1,2,0:0:0:0:
408,120,70375,2,0,L|324:136,1,80,8|2,0:0|0:0,0:0:0:0:
256,188,71160,1,8,0:0:0:0:
168,192,71552,6,0,P|92:184|48:112,1,160,4|2,0:0|0:0,0:0:0:0:
136,100,72728,1,8,0:0:0:0:
220,120,73120,2,0,L|188:288,1,160,2|2,0:0|0:0,0:0:0:0:
164,360,74297,1,8,0:0:0:0:
252,352,74689,6,0,P|328:336|412:360,1,160,4|2,0:0|0:0,0:0:0:0:
464,292,75865,1,8,0:0:0:0:
460,204,76258,2,0,L|316:108,1,160,2|2,0:0|0:0,0:0:0:0:
256,60,77434,1,8,0:0:0:0:
200,128,77826,6,0,L|304:200,2,120,2|2|8,0:0|0:0|0:0,0:0:0:0:
112,144,79395,2,0,P|92:188|128:296,1,160,2|2,0:0|0:0,0:0:0:0:
168,364,80571,1,8,0:0:0:0:
248,324,80963,6,0,B|328:324|328:324|400:268,1,160,4|2,0:0|0:0,0:0:0:0:
424,192,82140,1,8,0:0:0:0:
336,192,82532,2,0,L|248:192,1,80,2|8,0:0|0:0,0:0:0:0:
232,108,83316,2,0,L|312:108,1,80,2|8,0:0|0:0,0:0:0:0:
276,28,84101,6,0,L|112:28,1,160,2|8,0:0|0:0,0:0:0:0:
56,92,85277,1,8,0:0:0:0:
72,268,86062,6,0,P|100:296|148:308,1,80,0|2,0:0|0:0,0:0:0:0:
212,264,86846,2,0,P|184:236|136:224,1,80,0|2,0:0|0:0,0:0:0:0:
