osu file format v13

[General]
AudioFilename: mp333.MP3
AudioLeadIn: 1900
PreviewTime: 60473
Countdown: 0
SampleSet: Soft
StackLeniency: 0.3
Mode: 0
LetterboxInBreaks: 0
WidescreenStoryboard: 0

[Editor]
DistanceSpacing: 1.3
BeatDivisor: 4
GridSize: 8
TimelineZoom: 1.1

[Metadata]
Title:Colorful.(Anime ver.)
TitleUnicode:カラフル。(Anime ver.)
Artist:Sawai Miku
ArtistUnicode:沢井美空
Creator:No Dap
Version:Mochi's Hard
Source:Saenai Heroine no Sodatekata
Tags:ending sekai-nyan momochikun scanter 冴えない彼女の育てかた tv_size size saekano
BeatmapID:598255
BeatmapSetID:260115

[Difficulty]
HPDrainRate:5.5
CircleSize:4
OverallDifficulty:6
ApproachRate:7.5
SliderMultiplier:1.42
SliderTickRate:1

[Events]
//Background and Video events
Video,0,"vvviidddddeeeoeoeooeo.AVI"
0,0,"bbgbbggbgb.jpg",0,0
//Break Periods
//Storyboard Layer 0 (Background)
//Storyboard Layer 1 (Fail)
//Storyboard Layer 2 (Pass)
//Storyboard Layer 3 (Foreground)
//Storyboard Sound Samples

[TimingPoints]
964,392.156862745098,4,2,1,60,1,0
10375,-100,4,2,1,65,0,0
33905,-100,4,2,1,50,0,0
35473,-117.647058823529,4,2,1,55,0,0
40964,-117.647058823529,4,2,1,35,0,0
41748,-117.647058823529,4,2,1,55,0,0
47238,-117.647058823529,4,2,1,35,0,0
48022,-100,4,2,1,55,0,0
54297,-100,4,2,1,55,0,0
60571,-100,4,2,1,70,0,0
60963,-100,4,2,1,45,0,0
62140,-100,4,2,1,70,0,1
68316,-100,4,2,1,50,0,1
68414,-100,4,2,1,70,0,1
73022,-100,4,2,1,50,0,1
73120,-100,4,2,1,60,0,0
74689,-100,4,2,1,70,0,1
84885,-100,4,2,1,50,0,1
85277,-100,4,2,1,40,0,1
85669,-100,4,2,1,55,0,0
87238,-100,4,2,1,80,0,0

[Colours]
Combo1 : 255,134,134
Combo2 : 38,147,255
Combo3 : 255,128,255
Combo4 : 238,238,0
Combo5 : 0,255,0

[HitObjects]
414,133,179,6,0,L|374:137,3,35.5,8|8|8|8,1:2|1:2|1:2|1:2,0:0:0:0:
351,169,571,2,0,L|315:165,3,35.5,8|10|8|10,0:0|0:0|0:0|0:0,0:0:0:0:
273,159,964,6,0,B|244:255|244:255|249:309,1,142,4|8,0:0|0:0,0:0:0:0:
326,329,1552,1,0,0:0:0:0:
326,329,1748,2,0,P|261:330|195:367,1,142,2|10,0:0|0:0,0:0:0:0:
112,345,2336,1,0,0:0:0:0:
140,264,2532,6,0,P|141:224|126:190,2,71,2|0|8,0:0|0:0|0:0,0:0:0:0:
112,345,3120,1,0,0:0:0:0:
112,345,3218,1,8,0:0:0:0:
112,345,3316,2,0,L|40:356,1,71,2|0,0:0|0:0,0:0:0:0:
140,264,3709,2,0,L|210:253,1,71,10|0,0:0|0:0,0:0:0:0:
319,277,4101,6,0,P|340:228|330:141,2,142,2|10|2,0:0|0:0|0:0,0:0:0:0:
264,342,5081,1,0,0:0:0:0:
264,342,5277,2,0,L|193:352,1,71,10|0,0:0|0:0,0:0:0:0:
121,307,5669,6,0,P|105:263|110:234,1,71,2|0,0:0|0:0,0:0:0:0:
142,161,6062,1,8,0:0:0:0:
176,83,6258,1,0,0:0:0:0:
214,6,6454,2,0,L|267:25,3,35.5,2|0|0|0,0:0|0:0|0:0|0:0,0:0:0:0:
289,25,6846,2,0,L|313:75,3,35.5,10|2|8|8,0:0|0:0|0:0|0:0,0:0:0:0:
322,95,7238,6,0,B|379:97|421:70|421:70|448:87|476:86,1,142,4|8,0:0|0:0,0:0:0:0:
492,161,7826,1,0,0:0:0:0:
406,215,8022,2,0,P|392:250|381:289,1,71,8|8,0:0|0:0,0:0:0:0:
380,303,8316,1,8,0:0:0:0:
381,324,8414,1,4,0:3:0:0:
272,334,8611,5,2,0:0:0:0:
251,337,9003,1,2,0:0:0:0:
230,340,9983,1,4,0:3:0:0:
230,340,10375,6,0,P|195:341|156:322,1,71,4|0,0:0|0:0,0:0:0:0:
101,267,10767,1,8,0:0:0:0:
101,267,10964,2,0,B|120:170|120:170|156:140,1,142,2|2,0:0|0:0,0:0:0:0:
227,100,11552,1,8,0:0:0:0:
173,33,11748,1,0,0:0:0:0:
227,100,11944,6,0,P|290:91|306:87,1,71,2|0,0:0|0:0,0:0:0:0:
360,146,12336,1,8,0:0:0:0:
289,193,12532,2,0,P|229:180|146:170,1,142,2|2,0:0|0:0,0:0:0:0:
65,184,13120,1,8,0:0:0:0:
65,184,13316,1,0,0:0:0:0:
129,275,13513,6,0,P|144:309|147:345,2,71,2|0|8,0:0|0:0|0:0,0:0:0:0:
44,265,14101,1,2,0:0:0:0:
65,184,14297,2,0,L|53:114,1,71,0|2,0:0|0:0,0:0:0:0:
174,58,14689,2,0,L|162:128,1,71,8|0,0:0|0:0,0:0:0:0:
211,215,15081,6,0,B|286:233|280:201|354:221,1,142,2|8,0:0|0:0,0:0:0:0:
412,279,15669,2,0,P|387:232|400:143,1,142,2|2,0:0|0:0,0:0:0:0:
451,75,16258,1,8,0:0:0:0:
466,66,16356,1,8,0:0:0:0:
481,57,16454,1,4,0:3:0:0:
339,83,16650,6,0,P|303:78|257:72,1,71,4|0,0:0|0:0,0:0:0:0:
174,58,17042,1,8,0:0:0:0:
184,142,17238,1,2,0:0:0:0:
184,142,17630,1,2,0:0:0:0:
195,226,17826,1,8,0:0:0:0:
140,291,18022,1,0,0:0:0:0:
261,327,18218,6,0,P|275:294|273:254,1,71,2|0,0:0|0:0,0:0:0:0:
195,226,18611,1,8,0:0:0:0:
300,151,18807,2,0,B|360:135|360:135|386:143|386:143|440:131,1,142,2|2,0:0|0:0,0:0:0:0:
481,58,19395,1,8,0:0:0:0:
397,40,19591,1,0,0:0:0:0:
312,30,19787,6,0,L|241:46,1,71,2|0,0:0|0:0,0:0:0:0:
190,112,20179,1,8,0:0:0:0:
128,52,20375,2,0,P|74:38|5:89,1,142,2|2,0:0|0:0,0:0:0:0:
71,185,20964,2,0,P|87:150|82:117,1,71,8|0,0:0|0:0,0:0:0:0:
19,256,21356,6,0,P|43:273|64:280,3,35.5,2|2|8|0,0:0|0:0|0:0|0:0,0:0:0:0:
89,287,21748,1,8,0:0:0:0:
171,308,21944,1,2,0:0:0:0:
254,326,22140,1,2,0:0:0:0:
254,326,22336,2,0,L|235:246,1,71,4|8,0:0|0:0,0:0:0:0:
283,155,22728,6,0,L|288:109,2,35.5,8|8|4,0:0|0:0|0:0,0:0:0:0:
202,183,23120,1,0,0:0:0:0:
237,256,23316,1,8,0:0:0:0:
138,235,23513,2,0,P|89:225|-4:201,1,142,2|2,0:0|0:0,0:0:0:0:
36,125,24101,2,0,P|70:117|105:108,1,71,8|0,0:0|0:0,0:0:0:0:
202,41,24493,5,2,0:0:0:0:
196,126,24689,2,0,P|200:162|203:201,1,71,0|8,0:0|0:0,0:0:0:0:
246,269,25081,2,0,P|314:280|369:234,1,142,2|2,0:0|0:0,0:0:0:0:
450,257,25669,2,0,P|447:214|443:179,1,71,8|0,0:0|0:0,0:0:0:0:
440,76,26062,5,2,0:0:0:0:
364,155,26258,2,0,P|328:154|291:138,1,71,0|8,0:0|0:0,0:0:0:0:
227,90,26650,2,0,P|166:130|173:195,1,142,2|2,0:0|0:0,0:0:0:0:
230,252,27238,2,0,B|181:242|134:222|134:222|111:237|79:234,1,142,8|2,0:0|0:0,0:0:0:0:
25,185,27826,5,0,0:0:0:0:
50,103,28022,1,8,0:0:0:0:
76,22,28218,1,2,0:0:0:0:
241,62,28611,1,2,0:0:0:0:
323,83,28807,2,0,L|374:77,2,35.5,8|8|4,0:0|0:0|0:3,0:0:0:0:
247,179,29199,6,0,P|221:148|225:80,1,106.5,4|2,0:0|3:2,0:0:0:0:
241,62,29591,1,8,0:0:0:0:
326,212,29787,2,0,P|284:256|193:245,1,142,2|2,0:0|0:0,0:0:0:0:
125,232,30375,1,8,0:0:0:0:
157,153,30571,1,0,0:0:0:0:
125,232,30767,6,0,B|140:326|140:326|125:341|118:371,1,142,2|8,0:0|0:0,0:0:0:0:
203,378,31356,1,2,0:0:0:0:
362,318,31748,1,2,0:0:0:0:
425,261,31944,2,0,L|415:189,1,71,8|0,0:0|0:0,0:0:0:0:
344,143,32336,6,0,P|291:152|219:98,1,142,2|8,0:0|0:0,0:0:0:0:
175,32,32924,2,0,P|228:23|300:77,1,142,2|2,0:0|0:0,0:0:0:0:
233,174,33513,2,0,L|221:103,1,71,8|4,0:0|0:0,0:0:0:0:
343,158,33905,6,0,L|331:228,1,71,4|8,0:3|0:0,0:0:0:0:
317,249,34199,2,0,L|322:289,1,35.5,2|8,0:0|0:0,0:0:0:0:
247,327,34493,1,4,0:3:0:0:
163,341,34689,2,0,P|105:338|30:315,1,106.5,4|4,0:3|0:3,0:0:0:0:
21,348,35081,2,0,L|6:270,1,71,4|4,0:3|0:3,0:0:0:0:
78,186,35473,6,0,P|101:142|92:60,1,120.70000230217,4|0,0:0|0:0,0:0:0:0:
39,19,36062,1,2,0:0:0:0:
39,19,36258,2,0,P|150:36|175:38,1,120.70000230217,8|0,0:0|0:0,0:0:0:0:
236,46,36846,2,0,L|228:106,1,60.3500011510849,2|0,0:0|0:0,0:0:0:0:
217,193,37238,1,10,0:0:0:0:
349,276,37630,1,2,0:0:0:0:
411,229,37826,2,0,L|403:169,1,60.3500011510849,8|0,0:0|0:0,0:0:0:0:
477,144,38218,2,0,L|469:84,1,60.3500011510849,2|0,0:0|0:0,0:0:0:0:
397,51,38611,6,0,P|349:39|264:31,1,120.70000230217,2|0,0:0|0:0,0:0:0:0:
201,48,39199,1,2,0:0:0:0:
210,125,39395,2,0,P|218:169|222:198,1,60.3500011510849,8|2,0:0|0:0,0:0:0:0:
163,239,39787,1,2,0:3:0:0:
107,293,39983,1,2,0:0:0:0:
181,317,40179,1,0,0:0:0:0:
256,339,40375,2,0,B|331:353|331:353|373:341,1,120.70000230217,8|2,0:0|0:0,0:0:0:0:
429,262,40964,2,0,L|442:233,3,30.1750005755425,10|8|8|8,0:0|0:0|0:3|0:3,0:0:0:0:
423,199,41356,2,0,L|436:170,3,30.1750005755425,8|8|8|8,0:3|0:0|0:3|0:0,0:0:0:0:
452,136,41748,5,4,0:0:0:0:
321,222,42140,1,0,0:0:0:0:
321,222,42336,1,2,0:0:0:0:
270,162,42532,2,0,P|212:162|142:180,1,120.70000230217,8|2,0:0|0:0,0:0:0:0:
17,232,43120,2,0,P|46:232|81:223,1,60.3500011510849,0|2,0:0|0:0,0:0:0:0:
151,176,43513,2,0,L|144:110,2,60.3500011510849,8|0|0,0:0|0:0|0:0,0:0:0:0:
209,228,44101,2,0,L|202:329,1,90.5250017266274,8|8,0:0|0:0,0:0:0:0:
202,342,44493,1,0,0:0:0:0:
279,352,44689,1,0,0:0:0:0:
356,362,44885,6,0,P|411:355|478:341,1,120.70000230217,2|0,0:0|0:0,0:0:0:0:
494,265,45473,1,2,0:0:0:0:
428,221,45669,2,0,L|415:91,1,120.70000230217,8|0,0:0|0:0,0:0:0:0:
339,82,46258,1,2,0:0:0:0:
262,64,46454,1,0,0:0:0:0:
262,64,46650,2,0,L|194:72,2,60.3500011510849,8|0|0,0:0|0:0|0:0,0:0:0:0:
240,156,47238,2,0,L|191:168,3,30.1750005755425,8|8|8|8,2:0|2:0|2:0|2:0,0:0:0:0:
206,202,47630,2,0,L|161:226,3,30.1750005755425,8|8|8|8,2:2|2:2|2:2|2:2,0:0:0:0:
145,247,48022,6,0,B|101:287|51:264|51:264|35:220,1,142,4|2,0:0|0:0,0:0:0:0:
37,226,48611,2,0,B|69:333|69:333|95:360,1,142,8|0,0:0|0:0,0:0:0:0:
171,380,49199,1,8,0:0:0:0:
324,316,49591,2,0,P|387:305|403:302,1,71,0|2,0:0|0:0,0:0:0:0:
465,257,49983,1,0,0:0:0:0:
400,200,50179,2,0,P|362:148|381:68,1,142,10|0,0:0|0:0,0:0:0:0:
434,125,50767,2,0,B|369:136|369:136|344:126|344:126|280:138,1,142,8|0,0:0|0:0,0:0:0:0:
207,148,51356,5,2,0:0:0:0:
245,72,51552,1,0,0:0:0:0:
254,212,51748,2,0,P|191:223|131:158,1,142,10|0,0:0|0:0,0:0:0:0:
68,121,52336,2,0,P|95:183|107:263,1,142,8|0,0:0|0:0,0:0:0:0:
205,337,53022,5,8,0:0:0:0:
205,337,53120,2,0,L|279:325,1,71,2|8,0:0|0:0,0:0:0:0:
310,220,53513,2,0,L|239:231,1,71,2|8,0:0|0:0,0:0:0:0:
169,184,53905,1,8,0:0:0:0:
236,113,54101,5,8,0:0:0:0:
236,113,54199,1,8,0:0:0:0:
236,113,54297,2,0,B|277:81|277:81|327:94|369:63,1,142,4|8,0:0|0:0,0:0:0:0:
427,10,54885,2,0,P|394:60|389:142,1,142,8|0,0:0|0:0,0:0:0:0:
468,170,55473,2,0,P|400:165|345:219,1,142,8|2,0:0|0:0,0:0:0:0:
244,347,56258,1,8,0:0:0:0:
199,121,56650,2,0,P|182:153|184:204,2,71,2|0|8,0:0|0:0|0:0,0:0:0:0:
263,65,57238,5,0,0:0:0:0:
263,65,57434,2,0,L|123:86,1,142,2|8,0:0|0:0,0:0:0:0:
39,165,58022,2,0,L|179:186,1,142,8|0,0:0|0:0,0:0:0:0:
240,245,58611,2,0,P|210:265|161:265,1,71,8|0,0:0|0:0,0:0:0:0:
289,179,59003,2,0,L|279:101,2,71,2|0|8,0:0|0:0|0:0,0:0:0:0:
413,294,59787,2,0,L|403:364,2,71,8|8|8,0:0|0:0|0:0,0:0:0:0:
427,202,60375,1,0,3:0:0:0:
419,186,60473,1,0,3:0:0:0:
410,170,60571,1,2,0:0:0:0:
141,73,60963,6,0,L|111:66,8,17.75,2|0|0|0|0|0|0|0|0,0:0|0:0|0:0|0:0|0:0|0:0|0:0|0:0|0:0,0:0:0:0:
234,109,61552,1,0,3:0:0:0:
242,122,61650,1,8,0:0:0:0:
250,135,61748,2,0,P|236:247|233:276,2,142,12|4|8,0:0|0:0|0:0,0:0:0:0:
320,87,62728,5,0,0:0:0:0:
320,87,62924,2,0,P|359:80|392:70,1,71,2|0,0:0|0:0,0:0:0:0:
463,147,63316,2,0,P|424:154|391:164,1,71,8|0,0:0|0:0,0:0:0:0:
323,211,63709,6,0,P|288:220|253:226,1,71,2|0,0:0|0:0,0:0:0:0:
175,259,64101,2,0,L|184:140,1,106.5,10|8,0:0|0:0,0:0:0:0:
155,120,64493,2,0,L|147:206,1,71,2|0,0:0|0:0,0:0:0:0:
269,160,64885,2,0,L|262:89,1,71,8|0,0:0|0:0,0:0:0:0:
326,33,65277,6,0,P|397:20|455:68,1,142,2|8,0:0|0:0,0:0:0:0:
485,136,65865,1,0,0:0:0:0:
417,213,66062,2,0,P|370:158|382:83,1,142,2|8,0:0|0:0,0:0:0:0:
485,136,66650,1,0,0:0:0:0:
417,213,66846,6,0,B|368:227|368:227|264:206,1,142,2|8,0:0|0:0,0:0:0:0:
155,90,67630,2,0,P|167:124|163:158,1,71,2|0,0:0|0:0,0:0:0:0:
49,231,68022,2,0,P|37:197|51:127,1,106.5,8|8,0:0|0:0,0:0:0:0:
65,114,68414,6,0,P|30:131|-3:130,1,71,2|0,0:0|0:0,0:0:0:0:
93,32,68807,2,0,L|245:52,1,142,8|2,0:0|0:0,0:0:0:0:
315,26,69395,1,0,0:0:0:0:
335,108,69591,2,0,L|327:181,2,71,8|0|2,0:0|0:0|0:0,0:0:0:0:
165,122,70375,1,8,0:0:0:0:
206,197,70571,6,0,L|214:270,1,71,2|0,0:0|0:0,0:0:0:0:
268,332,70963,1,2,0:0:0:0:
351,312,71160,1,8,0:0:0:0:
295,247,71356,1,2,0:0:0:0:
351,312,71552,6,0,P|406:322|462:257,1,142,2|8,0:0|0:0,0:0:0:0:
494,185,72140,2,0,P|426:179|383:232,1,142,2|2,0:0|0:0,0:0:0:0:
414,145,72728,2,0,P|416:97|376:51,1,106.5,8|8,0:0|0:0,0:0:0:0:
353,26,73120,1,12,0:0:0:0:
306,133,73316,1,8,0:0:0:0:
354,202,73513,6,0,P|385:224|430:223,1,71,10|8,0:0|0:0,0:0:0:0:
469,93,73905,2,0,L|519:80,2,35.5,10|8|4,0:0|0:0|0:3,0:0:0:0:
417,226,74297,1,12,0:0:0:0:
512,191,74493,1,4,0:3:0:0:
428,301,74689,2,0,P|384:304|300:247,1,142,4|8,0:0|0:0,0:0:0:0:
234,203,75277,5,0,0:0:0:0:
234,203,75473,2,0,L|158:210,1,71,2|0,0:0|0:0,0:0:0:0:
85,175,75865,1,8,0:0:0:0:
79,89,76062,1,0,0:0:0:0:
157,56,76258,6,0,L|227:49,1,71,2|0,0:0|0:0,0:0:0:0:
311,61,76650,2,0,B|344:111|392:117|392:117|397:145|402:158,1,142,8|2,0:0|0:0,0:0:0:0:
409,241,77238,1,0,0:0:0:0:
326,223,77434,2,0,P|283:223|248:240,1,71,8|0,0:0|0:0,0:0:0:0:
161,346,77826,6,0,P|211:360|283:295,1,142,2|8,0:0|0:0,0:0:0:0:
326,223,78414,1,0,0:0:0:0:
232,162,78611,2,0,P|194:198|215:293,1,142,2|8,0:0|0:0,0:0:0:0:
278,309,79199,1,0,0:0:0:0:
360,334,79395,6,0,L|507:312,1,142,2|8,0:0|0:0,0:0:0:0:
425,160,80179,2,0,L|335:141,1,71,2|0,0:0|0:0,0:0:0:0:
312,71,80571,2,0,L|242:85,1,71,8|8,0:0|0:0,0:0:0:0:
225,90,80865,1,8,0:0:0:0:
207,94,80963,2,0,P|192:57|194:20,1,71,2|0,0:0|0:0,0:0:0:0:
236,167,81356,6,0,B|186:179|141:139|141:139|102:158|138:185,1,142,8|2,0:0|0:0,0:0:0:0:
62,228,81944,1,0,0:0:0:0:
85,309,82140,1,8,0:0:0:0:
165,337,82336,1,0,0:0:0:0:
245,364,82532,6,0,B|283:346|283:346|327:378|393:350,1,142,2|8,0:0|0:0,0:0:0:0:
444,301,83120,2,0,P|468:251|446:153,1,142,2|2,0:0|0:0,0:0:0:0:
381,127,83709,1,8,0:0:0:0:
305,87,83905,5,8,0:0:0:0:
305,87,84003,1,8,0:0:0:0:
305,87,84101,2,0,P|254:93|232:95,1,71,2|0,0:0|0:0,0:0:0:0:
139,161,84493,2,0,P|181:168|287:185,1,142,8|8,0:0|0:0,0:0:0:0:
296,187,84983,1,8,0:0:0:0:
313,191,85081,1,8,0:0:0:0:
388,244,85277,2,0,P|389:281|368:317,1,71,4|4,0:3|0:3,0:0:0:0:
286,339,85669,6,0,P|215:350|145:361,1,142,0|2,3:0|0:0,0:0:0:0:
42,208,86454,2,0,P|25:177|26:134,1,71,2|0,0:0|0:0,0:0:0:0:
142,81,86846,2,0,P|159:112|158:155,1,71,2|0,0:0|0:0,0:0:0:0:
128,240,87238,1,2,0:0:0:0:
