osu file format v13

[General]
AudioFilename: mp333.MP3
AudioLeadIn: 1900
PreviewTime: 60473
Countdown: 0
SampleSet: Soft
StackLeniency: 0.7
Mode: 0
LetterboxInBreaks: 0
WidescreenStoryboard: 0

[Editor]
DistanceSpacing: 0.5
BeatDivisor: 4
GridSize: 4
TimelineZoom: 1.1

[Metadata]
Title:Colorful.(Anime ver.)
TitleUnicode:カラフル。(Anime ver.)
Artist:Sawai Miku
ArtistUnicode:沢井美空
Creator:No Dap
Version:Insane
Source:Saenai Heroine no Sodatekata
Tags:ending sekai-nyan momochikun scanter 冴えない彼女の育てかた tv_size size saekano
BeatmapID:609129
BeatmapSetID:260115

[Difficulty]
HPDrainRate:7
CircleSize:4
OverallDifficulty:7
ApproachRate:8
SliderMultiplier:1.6
SliderTickRate:1

[Events]
//Background and Video events
Video,0,"vvviidddddeeeoeoeooeo.AVI"
0,0,"bbgbbggbgb.jpg",0,0
//Break Periods
//Storyboard Layer 0 (Background)
//Storyboard Layer 1 (Fail)
//Storyboard Layer 2 (Pass)
//Storyboard Layer 3 (Foreground)
//Storyboard Sound Samples

[TimingPoints]
964,392.156862745098,4,2,1,60,1,0
6454,-100,4,2,1,40,0,0
6846,-100,4,2,1,60,0,0
6944,-100,4,2,1,40,0,0
7238,-100,4,2,1,60,0,0
10375,-100,4,2,1,65,0,0
35473,-142.857142857143,4,2,1,55,0,0
48022,-117.647058823529,4,2,1,55,0,0
54297,-100,4,2,1,55,0,0
60571,-100,4,2,1,70,0,0
60669,-100,4,2,1,40,0,0
62140,-100,4,2,1,70,0,1
73120,-100,4,2,1,70,0,0
74689,-100,4,2,1,70,0,1
84885,-100,4,2,1,50,0,1
85277,-100,4,2,1,40,0,1
85669,-133.333333333333,4,2,1,55,0,0
87238,-133.333333333333,4,2,1,80,0,0

[Colours]
Combo1 : 255,134,134
Combo2 : 38,147,255
Combo3 : 255,128,255
Combo4 : 238,238,0
Combo5 : 0,255,0

[HitObjects]
128,104,179,6,0,L|120:64,3,40,10|8|8|8,0:0|0:0|0:3|0:3,0:0:0:0:
184,168,571,2,0,L|240:156,1,40,4|2,0:3|0:0,0:0:0:0:
120,224,768,2,0,L|80:215,1,40,4|2,0:3|0:0,0:0:0:0:
192,280,964,6,0,P|284:288|336:240,1,160,4|8,0:0|0:0,0:0:0:0:
324,140,1552,1,0,0:0:0:0:
236,120,1748,2,0,P|242:162|250:198,1,80
408,144,2140,2,0,P|414:105|419:64,1,80,10|0,0:0|0:0,0:0:0:0:
448,256,2532,5,2,0:0:0:0:
488,128,2728,1,0,0:0:0:0:
352,228,2924,2,0,P|312:232|272:216,1,80,8|0,0:0|0:0,0:0:0:0:
256,192,3218,1,8,0:0:0:0:
256,192,3316,2,0,P|211:198|153:201,1,80,0|2,0:0|0:0,0:0:0:0:
324,140,3709,1,8,0:0:0:0:
272,296,3905,1,2,0:0:0:0:
352,372,4101,6,0,P|409:322|394:247,2,160,0|10|2,0:0|0:0|0:0,0:0:0:0:
308,200,5081,1,0,0:0:0:0:
272,296,5277,2,0,P|233:298|193:295,1,80,10|0,0:0|0:0,0:0:0:0:
144,208,5669,5,2,0:0:0:0:
88,320,5865,1,0,0:0:0:0:
24,220,6062,1,8,0:0:0:0:
88,320,6258,1,0,0:0:0:0:
125,157,6454,1,2,0:0:0:0:
147,137,6552,1,2,0:0:0:0:
175,125,6650,1,2,0:0:0:0:
204,120,6748,1,2,0:0:0:0:
234,124,6846,2,0,L|281:133,1,40,10|2,0:0|0:0,0:0:0:0:
268,224,7042,2,0,L|308:216,1,40,2|2,0:0|0:0,0:0:0:0:
352,140,7238,6,0,L|467:132,1,80,4|0,0:0|0:0,0:0:0:0:
340,296,7630,1,8,0:0:0:0:
480,220,7826,1,0,0:0:0:0:
424,360,8022,1,8,0:0:0:0:
388,184,8218,1,8,0:0:0:0:
388,184,8316,1,8,0:0:0:0:
388,184,8414,1,4,0:3:0:0:
232,248,8611,5,2,0:0:0:0:
340,52,9003,1,2,0:0:0:0:
340,52,9983,5,4,0:3:0:0:
146,176,10375,6,0,P|148:216|152:256,1,80,4|0,0:0|0:0,0:0:0:0:
200,80,10767,1,8,0:0:0:0:
64,136,10964,1,2,0:0:0:0:
64,136,11356,1,2,0:0:0:0:
132,207,11552,2,0,P|171:203|210:195,1,80,8|0,0:0|0:0,0:0:0:0:
292,128,11944,5,2,0:0:0:0:
272,248,12140,1,0,0:0:0:0:
208,120,12336,1,8,0:0:0:0:
336,208,12532,2,0,P|416:204|444:184,1,80,2|0,0:0|0:0,0:0:0:0:
440,120,12924,1,2,0:0:0:0:
368,56,13120,2,0,P|354:97|344:140,1,80,8|0,0:0|0:0,0:0:0:0:
264,40,13513,5,2,0:0:0:0:
244,144,13709,1,0,0:0:0:0:
92,76,13905,2,0,P|130:64|170:64,1,80,8|2,0:0|0:0,0:0:0:0:
92,240,14297,1,0,0:0:0:0:
160,156,14493,1,2,0:0:0:0:
264,328,14689,1,8,0:0:0:0:
196,248,14885,1,0,0:0:0:0:
327,167,15081,5,2,0:0:0:0:
392,276,15277,2,0,P|431:276|470:266,1,80,2|8,0:0|0:0,0:0:0:0:
448,115,15669,2,0,P|437:156|429:197,1,80,2|0,0:0|0:0,0:0:0:0:
392,276,16062,1,2,0:0:0:0:
327,167,16258,1,8,0:0:0:0:
319,149,16356,1,8,0:0:0:0:
311,130,16454,1,4,0:3:0:0:
304,112,16552,1,4,0:3:0:0:
296,93,16650,6,0,P|254:92|184:88,1,80,4|0,0:0|0:0,0:0:0:0:
100,48,17042,1,8,0:0:0:0:
164,176,17238,2,0,P|185:249|135:307,1,160,2|0,0:0|0:0,0:0:0:0:
164,176,17826,2,0,P|201:165|262:151,1,80,8|0,0:0|0:0,0:0:0:0:
420,64,18218,6,0,P|412:152|408:223,1,160,2|8,0:0|0:0,0:0:0:0:
232,304,18807,2,0,P|240:216|243:144,1,160,2|2,0:0|0:0,0:0:0:0:
180,64,19395,1,8,0:0:0:0:
144,160,19591,1,2,0:0:0:0:
16,76,19787,6,0,P|55:69|95:68,1,80,2|0,0:0|0:0,0:0:0:0:
236,132,20179,1,8,0:0:0:0:
160,240,20375,2,0,P|72:204|64:144,1,160,2|0,0:0|0:0,0:0:0:0:
180,64,20964,1,8,0:0:0:0:
144,160,21160,1,0,0:0:0:0:
268,116,21356,6,0,L|300:104,4,20,2|2|2|2|10,0:0|0:0|0:0|0:0|0:0,0:0:0:0:
252,248,21748,1,8,0:0:0:0:
252,248,21846,1,4,0:3:0:0:
252,248,21944,2,0,L|256:280,4,20,2|2|2|2|2,0:0|0:0|0:0|0:0|0:0,0:0:0:0:
308,320,22238,1,4,0:3:0:0:
308,320,22336,2,0,L|400:312,1,80,8|8,0:0|0:0,0:0:0:0:
168,308,22728,1,8,0:0:0:0:
168,308,22826,1,8,0:0:0:0:
168,308,22924,6,0,L|76:300,1,80,4|0,0:0|0:0,0:0:0:0:
160,196,23316,1,8,0:0:0:0:
236,360,23513,1,2,0:0:0:0:
236,359,23905,2,0,P|275:356|314:348,1,80,2|8,0:0|0:0,0:0:0:0:
336,256,24297,1,0,0:0:0:0:
254,196,24493,6,0,P|247:236|243:275,1,80,2|0,0:0|0:0,0:0:0:0:
148,348,24885,1,8,0:0:0:0:
148,348,25081,2,0,P|76:352|20:264,1,160,2|2,0:0|0:0,0:0:0:0:
76,200,25669,2,0,P|83:161|84:121,1,80,8|0,0:0|0:0,0:0:0:0:
0,124,26062,5,2,0:0:0:0:
76,200,26258,1,0,0:0:0:0:
160,120,26454,2,0,P|199:113|238:115,1,80,8|2,0:0|0:0,0:0:0:0:
248,280,26846,1,0,0:0:0:0:
200,200,27042,1,2,0:0:0:0:
316,56,27238,1,8,0:0:0:0:
280,200,27434,1,0,0:0:0:0:
412,140,27630,6,0,P|364:132|328:132,1,80,2|2,0:0|0:0,0:0:0:0:
248,280,28022,1,8,0:0:0:0:
336,368,28218,2,0,P|348:292|359:209,1,160,2|2,0:0|0:0,0:0:0:0:
292,64,28807,1,8,0:0:0:0:
277,78,28905,1,8,0:0:0:0:
260,88,29003,1,4,0:3:0:0:
241,94,29101,1,4,0:3:0:0:
224,96,29199,6,0,P|184:92|144:90,1,80,4|0,0:0|0:0,0:0:0:0:
80,164,29591,1,8,0:0:0:0:
160,247,29787,2,0,P|170:209|175:169,1,80,2|0,0:0|0:0,0:0:0:0:
156,72,30179,1,2,0:0:0:0:
248,172,30375,2,0,P|284:167|344:164,1,80,8|0,0:0|0:0,0:0:0:0:
160,248,30767,6,0,P|115:245|80:241,1,80,2|0,0:0|0:0,0:0:0:0:
212,336,31160,1,8,0:0:0:0:
312,232,31356,2,0,P|336:158|297:92,1,160,2|2,0:0|0:0,0:0:0:0:
208,40,31944,1,8,0:0:0:0:
156,140,32140,1,2,0:0:0:0:
24,84,32336,6,0,P|68:68|124:72,1,80,2|0,0:0|0:0,0:0:0:0:
208,40,32728,1,8,0:0:0:0:
156,140,32924,2,0,P|145:214|211:248,1,160,2|2,0:0|0:0,0:0:0:0:
260,124,33513,1,8,0:0:0:0:
316,208,33709,6,0,P|355:209|395:202,1,80,4|0,0:0|0:0,0:0:0:0:
376,40,34101,1,8,0:0:0:0:
376,40,34199,1,8,0:0:0:0:
376,40,34297,1,8,0:0:0:0:
260,124,34493,1,4,0:3:0:0:
260,124,34591,1,4,0:3:0:0:
260,124,34689,2,0,P|212:118|160:116,1,80,4|4,0:3|0:3,0:0:0:0:
136,112,34983,1,4,0:3:0:0:
136,112,35081,1,4,0:3:0:0:
200,208,35277,1,4,0:3:0:0:
300,56,35473,6,0,P|302:116|308:192,1,111.999996582031,4|0,0:0|0:0,0:0:0:0:
388,212,36062,1,2,0:0:0:0:
304,272,36258,2,0,P|236:268|180:248,1,111.999996582031,10|2,0:0|0:0,0:0:0:0:
104,264,36846,1,2,0:0:0:0:
35,128,37042,6,0,L|44:184,1,55.9999982910157,0|10,0:0|0:0,0:0:0:0:
168,88,37434,1,0,0:0:0:0:
84,56,37630,1,0,0:0:0:0:
144,176,37826,2,0,P|200:176|248:136,1,111.999996582031,8|0,0:0|0:0,0:0:0:0:
296,72,38414,1,2,0:0:0:0:
296,216,38611,6,0,P|352:204|408:200,1,111.999996582031,2|0,0:0|0:0,0:0:0:0:
472,272,39199,2,0,L|466:327,1,55.9999982910157,2|8,0:0|0:0,0:0:0:0:
468,136,39591,2,0,L|460:56,1,55.9999982910157,2|0,0:0|0:0,0:0:0:0:
332,180,39983,1,2,0:0:0:0:
332,180,40081,1,0,0:0:0:0:
332,180,40179,6,0,L|260:172,1,55.9999982910157,0|8,0:0|0:0,0:0:0:0:
200,116,40571,1,0,0:0:0:0:
156,204,40767,1,2,0:0:0:0:
232,268,40964,2,0,L|240:336,1,55.9999982910157,10|4,0:0|0:3,0:0:0:0:
204,364,41258,1,4,0:3:0:0:
204,364,41356,2,0,P|184:344|161:327,1,55.9999982910157,4|4,0:3|0:3,0:0:0:0:
48,256,41748,6,0,P|100:238|130:192,1,111.999996582031,4|0,0:0|0:0,0:0:0:0:
112,96,42336,1,2,0:0:0:0:
224,60,42532,2,0,L|212:140,1,55.9999982910157,8|0,0:0|0:0,0:0:0:0:
204,256,42924,1,2,0:0:0:0:
284,184,43120,1,2,0:0:0:0:
284,184,43218,1,0,0:0:0:0:
284,184,43316,6,0,L|348:176,1,55.9999982910157,0|8,0:0|0:0,0:0:0:0:
336,52,43709,1,0,0:0:0:0:
280,108,43905,1,0,0:0:0:0:
204,100,44101,2,0,P|171:73|152:68,1,55.9999982910157,8|0,0:0|0:0,0:0:0:0:
88,92,44395,2,0,L|76:56,1,27.9999991455078,8|0,0:0|0:0,0:0:0:0:
44,212,44689,1,2,0:0:0:0:
176,252,44885,6,0,P|136:204|132:140,1,111.999996582031,2|0,0:0|0:0,0:0:0:0:
224,168,45473,1,2,0:0:0:0:
60,248,45669,2,0,L|0:240,1,55.9999982910157,8|2,0:0|0:0,0:0:0:0:
112,336,46062,1,0,0:0:0:0:
176,252,46258,1,2,0:0:0:0:
176,252,46356,1,0,0:0:0:0:
176,252,46454,5,0,0:0:0:0:
144,152,46650,1,8,0:0:0:0:
176,252,46846,1,0,0:0:0:0:
60,156,47042,1,0,0:0:0:0:
232,120,47238,1,8,0:0:0:0:
232,120,47336,1,8,0:0:0:0:
232,120,47434,2,0,L|248:160,1,27.9999991455078,4|4,0:3|0:3,0:0:0:0:
304,200,47630,1,8,0:0:0:0:
331,202,47728,1,8,0:0:0:0:
358,194,47826,1,4,0:3:0:0:
381,178,47924,1,4,0:3:0:0:
397,155,48022,6,0,L|463:151,1,68.0000012969971,4|2,0:0|0:0,0:0:0:0:
316,108,48414,1,2,0:0:0:0:
392,300,48611,2,0,P|326:279|256:288,1,136.000002593994,10|0,0:0|0:0,0:0:0:0:
112,360,49199,2,0,P|145:352|176:338,1,68.0000012969971,8|0,0:0|0:0,0:0:0:0:
140,128,49591,6,0,P|131:160|128:194,1,68.0000012969971,0|2,0:0|0:0,0:0:0:0:
192,264,49983,1,2,0:0:0:0:
216,100,50179,2,0,P|172:50|106:51,1,136.000002593994,10|0,0:0|0:0,0:0:0:0:
200,184,50767,2,0,P|236:180|266:171,1,68.0000012969971,8|0,0:0|0:0,0:0:0:0:
344,28,51160,6,0,P|308:72|300:104,1,68.0000012969971,0|2,0:0|0:0,0:0:0:0:
344,172,51552,1,2,0:0:0:0:
216,100,51748,2,0,P|153:79|86:90,1,136.000002593994,10|0,0:0|0:0,0:0:0:0:
128,252,52336,2,0,P|135:218|141:185,1,68.0000012969971,8|0,0:0|0:0,0:0:0:0:
28,268,52728,6,0,P|34:303|41:334,1,68.0000012969971,0|2,0:0|0:0,0:0:0:0:
60,168,53120,1,2,0:0:0:0:
128,252,53316,1,10,0:0:0:0:
208,180,53513,2,0,P|248:172|304:176,1,68.0000012969971
216,332,53905,1,8,0:0:0:0:
128,252,54101,1,8,0:0:0:0:
128,252,54199,1,8,0:0:0:0:
128,252,54297,6,0,P|79:248|20:240,1,80,4|0,0:0|0:0,0:0:0:0:
80,64,54689,1,8,0:0:0:0:
16,152,54885,2,0,P|88:172|176:116,1,160,8|0,0:0|0:0,0:0:0:0:
264,100,55473,2,0,P|274:138|275:178,1,80,8|0,0:0|0:0,0:0:0:0:
240,312,55865,5,2,0:0:0:0:
180,224,56062,1,0,0:0:0:0:
328,260,56258,2,0,P|367:255|408:244,1,80,8|0,0:0|0:0,0:0:0:0:
236,180,56650,2,0,P|220:216|209:257,1,80,2|0,0:0|0:0,0:0:0:0:
348,132,57042,2,0,P|324:99|294:70,1,80,8|0,0:0|0:0,0:0:0:0:
328,260,57434,6,0,P|367:255|408:244,1,80,2|0,0:0|0:0,0:0:0:0:
440,132,57826,1,8,0:0:0:0:
264,120,58022,2,0,P|192:156|104:104,1,160,8|0,0:0|0:0,0:0:0:0:
248,32,58611,2,0,P|287:33|327:38,1,80,8|2,0:0|0:0,0:0:0:0:
172,216,59003,5,2,0:0:0:0:
144,64,59199,1,2,0:0:0:0:
320,144,59395,1,8,0:0:0:0:
236,288,59591,1,0,0:0:0:0:
176,136,59787,5,0,3:0:0:0:
324,264,59983,1,0,3:0:0:0:
152,256,60179,1,4,3:0:0:0:
252,108,60375,1,0,3:0:0:0:
252,108,60473,1,0,3:0:0:0:
252,108,60571,1,2,0:0:0:0:
256,192,60669,12,8,61748,0:0:0:0:
200,304,62140,6,0,P|124:252|112:176,1,160,4|8,0:0|0:0,0:0:0:0:
160,100,62728,1,2,0:0:0:0:
276,164,62924,2,0,P|244:187|208:205,1,80,2|0,0:0|0:0,0:0:0:0:
224,40,63316,1,8,0:0:0:0:
364,112,63513,1,2,0:0:0:0:
364,112,63611,1,0,0:0:0:0:
364,112,63709,6,0,P|406:105|448:102,1,80,2|0,0:0|0:0,0:0:0:0:
312,24,64101,1,10,0:0:0:0:
252,124,64297,1,0,0:0:0:0:
252,124,64395,1,8,0:0:0:0:
252,124,64493,2,0,P|236:168|228:208,1,80,2|0,0:0|0:0,0:0:0:0:
308,260,64885,1,8,0:0:0:0:
248,368,65081,1,2,0:0:0:0:
136,296,65277,6,0,P|174:286|216:280,1,80,2|0,0:0|0:0,0:0:0:0:
168,160,65669,1,8,0:0:0:0:
56,264,65865,1,2,0:0:0:0:
84,131,66062,2,0,P|83:91|76:48,1,80,2|0,0:0|0:0,0:0:0:0:
8,180,66454,1,8,0:0:0:0:
164,128,66650,1,2,0:0:0:0:
92,220,66846,6,0,P|80:258|79:298,1,80,0|0,0:0|0:0,0:0:0:0:
244,126,67238,2,0,P|243:86|232:48,1,80,8|0,0:0|0:0,0:0:0:0:
180,220,67630,1,2,0:0:0:0:
312,244,67826,1,0,0:0:0:0:
192,304,68022,1,8,0:0:0:0:
252,164,68218,1,8,0:0:0:0:
252,164,68316,1,8,0:0:0:0:
252,164,68414,6,0,P|295:162|335:155,1,80,2|0,0:0|0:0,0:0:0:0:
272,320,68807,1,8,0:0:0:0:
180,220,69003,2,0,B|129:200|93:228|93:228|53:204|53:168,1,160,2|0,0:0|0:0,0:0:0:0:
148,124,69591,1,8,0:0:0:0:
144,304,69787,1,2,0:0:0:0:
144,304,69885,1,2,0:0:0:0:
144,304,69983,6,0,P|146:349|152:384,1,80,2|0,0:0|0:0,0:0:0:0:
180,220,70375,1,8,0:0:0:0:
272,320,70571,1,2,0:0:0:0:
296,175,70767,2,0,P|334:164|376:164,1,80,2|0,0:0|0:0,0:0:0:0:
240,80,71160,1,8,0:0:0:0:
180,220,71356,1,2,0:0:0:0:
80,96,71552,6,0,P|118:86|157:87,1,80,2|0,0:0|0:0,0:0:0:0:
180,220,71944,1,8,0:0:0:0:
180,220,72140,2,0,P|113:219|38:206,1,120,2|0,0:0|0:0,0:0:0:0:
47,231,72532,1,2,0:0:0:0:
0,40,72728,1,8,0:0:0:0:
72,116,72924,1,8,0:0:0:0:
72,116,73022,1,8,0:0:0:0:
72,115,73120,6,0,P|111:107|151:95,1,80,8|8,0:0|0:0,0:0:0:0:
260,40,73513,1,8,0:0:0:0:
260,40,73611,1,8,0:0:0:0:
260,40,73709,1,8,0:0:0:0:
353,132,73905,5,8,0:0:0:0:
345,157,74003,1,8,0:0:0:0:
337,183,74101,1,4,0:3:0:0:
328,208,74199,1,4,0:3:0:0:
288,210,74297,5,8,0:0:0:0:
297,236,74395,1,8,0:0:0:0:
305,261,74493,1,4,0:3:0:0:
312,284,74591,1,4,0:3:0:0:
324,312,74689,6,0,B|281:300|241:312|241:312|201:324|149:312,1,160,4|8,0:0|0:0,0:0:0:0:
96,240,75277,1,2,0:0:0:0:
204,148,75473,2,0,P|204:187|200:227,1,80,2|0,0:0|0:0,0:0:0:0:
112,120,75865,1,8,0:0:0:0:
200,52,76062,1,2,0:0:0:0:
200,52,76160,1,0,0:0:0:0:
200,52,76258,6,0,P|238:63|273:82,1,80,2|0,0:0|0:0,0:0:0:0:
364,192,76650,2,0,P|348:116|412:72,2,160,8|2|8,0:0|0:0|0:0,0:0:0:0:
488,156,77630,1,2,0:0:0:0:
440,260,77826,6,0,P|435:299|442:338,1,80,2|0,0:0|0:0,0:0:0:0:
488,156,78218,1,8,0:0:0:0:
440,259,78414,1,2,0:0:0:0:
364,192,78611,2,0,P|321:185|285:188,1,80,2|0,0:0|0:0,0:0:0:0:
232,312,79003,1,8,0:0:0:0:
192,148,79199,1,2,0:0:0:0:
56,232,79395,6,0,P|99:239|135:236,1,80,0|0,0:0|0:0,0:0:0:0:
124,64,79787,2,0,P|104:120|104:176,1,80,8|0,0:0|0:0,0:0:0:0:
236,48,80179,1,2,0:0:0:0:
192,192,80375,1,0,0:0:0:0:
304,108,80571,1,8,0:0:0:0:
240,284,80767,1,8,0:0:0:0:
240,284,80865,1,8,0:0:0:0:
240,284,80963,6,0,P|256:324|268:384,1,80,2|0,0:0|0:0,0:0:0:0:
408,200,81356,2,0,P|366:191|320:184,1,80,8|0,0:0|0:0,0:0:0:0:
424,304,81748,2,0,P|484:272|508:180,1,160,2|8,0:0|0:0,0:0:0:0:
320,259,82336,6,0,P|315:303|316:363,1,80,2|0,0:0|0:0,0:0:0:0:
408,200,82728,2,0,P|417:156|420:120,1,80,2|8,0:0|0:0,0:0:0:0:
292,64,83120,2,0,P|297:106|304:143,1,80,2|0,0:0|0:0,0:0:0:0:
372,36,83513,1,2,0:0:0:0:
224,144,83709,1,8,0:0:0:0:
128,64,83905,1,2,0:0:0:0:
128,64,84003,1,2,0:0:0:0:
128,64,84101,6,0,P|89:63|50:72,1,80,2|0,0:0|0:0,0:0:0:0:
56,244,84493,1,8,0:0:0:0:
148,160,84689,1,0,0:0:0:0:
232,288,84885,1,8,0:0:0:0:
254,298,84983,1,8,0:0:0:0:
278,303,85081,1,8,0:0:0:0:
303,303,85179,1,8,0:0:0:0:
328,298,85277,1,4,0:3:0:0:
350,287,85375,1,4,0:3:0:0:
370,271,85473,1,4,0:3:0:0:
385,252,85571,1,4,0:3:0:0:
395,231,85669,6,0,P|384:174|418:127,2,120.000004577637,0|2|2,0:0|0:0|0:0,0:0:0:0:
496,188,86650,1,2,0:0:0:0:
480,296,86846,2,0,L|476:356,1,60.0000022888184,2|0,0:0|0:0,0:0:0:0:
504,108,87238,5,2,0:0:0:0:
