osu file format v14

[General]
AudioFilename: colorful.mp3
AudioLeadIn: 2000
PreviewTime: 88574
Countdown: 0
SampleSet: Soft
StackLeniency: 0.7
Mode: 0
LetterboxInBreaks: 0
WidescreenStoryboard: 0

[Editor]
DistanceSpacing: 1.7
BeatDivisor: 4
GridSize: 4
TimelineZoom: 1.900001

[Metadata]
Title:Colorful. (Asterisk DnB Remix)
TitleUnicode:カラフル。(Asterisk DnB Remix)
Artist:Sawai Miku
ArtistUnicode:沢井美空
Creator:Linada
Version:Heroine
Source:冴えない彼女の育てかた
Tags:How to Raise a Boring Girlfriend Saenai Heroine no Sodatekata Megumi drum and bass Saekano
BeatmapID:745591
BeatmapSetID:336947

[Difficulty]
HPDrainRate:6
CircleSize:4
OverallDifficulty:8.2
ApproachRate:9.3
SliderMultiplier:1.6
SliderTickRate:2

[Events]
//Background and Video events
0,0,"BG.jpg",0,0
//Break Periods
2,200973,211534
//Storyboard Layer 0 (Background)
//Storyboard Layer 1 (Fail)
//Storyboard Layer 2 (Pass)
//Storyboard Layer 3 (Foreground)
//Storyboard Sound Samples

[TimingPoints]
546,342.857142857143,4,2,1,45,1,0
546,-133.333333333333,4,2,1,55,0,0
4660,-133.333333333333,4,2,1,55,0,0
7403,-133.333333333333,4,2,1,55,0,0
10146,-133.333333333333,4,2,1,55,0,0
10488,-133.333333333333,4,2,1,100,0,0
10660,-133.333333333333,4,2,1,55,0,0
10831,-100,4,2,1,100,0,0
11003,-100,4,2,1,55,0,0
11174,-66.6666666666667,4,2,1,55,0,0
11517,-133.333333333333,4,2,1,80,0,0
11688,-133.333333333333,4,2,1,55,0,0
14260,-133.333333333333,4,2,1,55,0,0
17003,-133.333333333333,4,2,1,70,0,0
22488,-86.9565217391304,4,2,1,100,0,0
22660,-86.9565217391304,4,2,1,70,0,0
24031,-133.333333333333,4,2,1,70,0,0
25231,-86.9565217391304,4,2,1,70,0,0
29517,-133.333333333333,4,2,1,70,0,0
30717,-86.9565217391304,4,2,1,70,0,0
33460,-86.9565217391304,4,2,1,100,0,0
33631,-86.9565217391304,4,2,1,70,0,0
35003,-133.333333333333,4,2,1,70,0,0
36203,-86.9565217391304,4,2,1,70,0,0
37574,-66.6666666666667,4,2,1,70,0,0
38088,-86.9565217391304,4,2,1,70,0,0
44431,-80,4,2,1,70,0,0
44603,-80,4,2,1,70,0,0
64831,-133.333333333333,4,2,1,70,0,0
66374,-133.333333333333,4,2,1,50,0,0
72374,-117.647058823529,4,2,1,50,0,0
74431,-100,4,2,1,50,0,0
76317,-100,4,2,1,70,0,0
77346,-80,4,2,1,50,0,0
81803,-133.333333333333,4,2,1,50,0,0
82146,-100,4,2,1,70,0,0
82488,-80,4,2,1,70,0,0
85574,-80,4,2,1,50,0,0
85746,-80,4,2,1,55,0,0
85917,-80,4,2,1,60,0,0
86088,-80,4,2,1,65,0,0
86260,-80,4,2,1,70,0,0
86431,-80,4,2,1,75,0,0
88660,-100,4,2,1,70,0,0
88917,-100,4,2,1,5,0,0
89003,-76.9230769230769,4,2,1,80,0,0
89260,-76.9230769230769,4,2,1,10,0,0
89346,-50,4,2,1,90,0,0
89603,-50,4,2,1,15,0,0
89688,-68.9655172413793,4,2,1,100,0,1
89860,-68.9655172413793,4,2,1,85,0,1
94831,-80,4,2,1,85,0,1
106146,-86.9565217391304,4,2,1,70,0,0
111631,-66.6666666666667,4,2,1,70,0,0
121574,-100,4,2,1,70,0,0
122603,-100,4,2,1,100,0,0
122774,-100,4,2,1,70,0,0
123631,-86.9565217391304,4,2,1,70,0,0
124831,-80,4,2,1,70,0,0
127746,-80,4,2,1,100,0,0
133660,-80,4,2,1,70,0,0
137003,-74.0740740740741,4,2,1,70,0,0
137346,-66.6666666666667,4,2,1,70,0,0
137688,-76.9230769230769,4,2,1,70,0,0
149174,-100,4,2,1,70,0,0
149688,-76.9230769230769,4,2,1,70,0,0
151231,-100,4,2,1,80,0,0
151403,-76.9230769230769,4,2,1,70,0,0
153974,-166.666666666667,4,2,1,70,0,0
154660,-166.666666666667,4,2,1,5,0,0
154831,-166.666666666667,4,2,1,70,0,0
156031,-125,4,2,1,50,0,0
161003,-166.666666666667,4,2,1,50,0,0
161688,-125,4,2,1,50,0,0
165117,-95.2380952380952,4,2,1,60,0,0
166146,-76.9230769230769,4,2,1,70,0,0
170946,-100,4,2,1,70,0,0
171288,-133.333333333333,4,2,1,70,0,0
171631,-83.3333333333333,4,2,1,70,0,0
171974,-100,4,2,1,70,0,0
177803,-100,4,2,1,70,0,0
178060,-100,4,2,1,5,0,0
178146,-76.9230769230769,4,2,1,80,0,0
178403,-76.9230769230769,4,2,1,10,0,0
178488,-66.6666666666667,4,2,1,90,0,0
178746,-66.6666666666667,4,2,1,15,0,0
178831,-66.6666666666667,4,2,1,100,0,1
179003,-76.9230769230769,4,2,1,70,0,1
189460,-76.9230769230769,4,2,1,100,0,1
189803,-76.9230769230769,4,2,1,100,0,1
189974,-76.9230769230769,4,2,1,70,0,1
195288,-76.9230769230769,4,2,1,70,0,0
200431,-58.8235294117647,4,2,1,70,0,0
200774,-76.9230769230769,4,2,1,100,0,0
212088,-200,4,2,8,50,0,0
212174,-200,4,2,8,20,0,0
212431,-200,4,2,9,60,0,0
212774,-200,4,2,13,70,0,0
213117,-200,4,2,12,100,0,0
213203,-200,4,2,12,5,0,0
213631,-200,4,2,11,100,0,0
213803,-200,4,2,12,100,0,0
213888,-200,4,2,11,20,0,0
214317,-200,4,2,11,100,0,0
214488,-200,4,2,12,100,0,0
214660,-200,4,2,11,100,0,0
214831,-200,4,2,13,100,0,0
215003,-200,4,2,0,5,0,0
215174,-200,4,2,12,100,0,0
215517,-200,4,2,10,100,0,0
215688,-200,4,2,11,100,0,0
215860,-200,4,2,12,100,0,0
216031,-200,4,2,0,5,0,0
216203,-200,4,2,10,100,0,0
216374,-200,4,2,11,100,0,0
216546,-200,4,2,12,100,0,0
216717,-200,4,2,0,5,0,0
216888,-200,4,2,16,100,0,0
217060,-151.515151515152,4,2,14,100,0,0
217146,-151.515151515152,4,2,14,20,0,0
217574,-200,4,2,13,100,0,0
217917,-200,4,2,12,100,0,0
218003,-200,4,2,12,20,0,0
218260,-200,4,2,11,100,0,0
218603,-200,4,2,9,100,0,0
218688,-200,4,2,9,20,0,0
218946,-200,4,2,13,100,0,0
219203,-200,4,2,13,20,0,0
219803,-200,4,2,13,100,0,0
219974,-200,4,2,12,100,0,0
220060,-200,4,2,12,20,0,0
220488,-200,4,2,11,100,0,0
220660,-200,4,2,10,100,0,0
221174,-200,4,2,11,100,0,0
221346,-200,4,2,12,100,0,0
221431,-200,4,2,12,20,0,0
221688,-200,4,2,11,100,0,0
221860,-200,4,2,12,100,0,0
221946,-200,4,2,12,20,0,0
222203,-200,4,2,16,100,0,0
222374,-200,4,2,13,100,0,0
222546,-200,4,2,0,20,0,0
223060,-76.9230769230769,4,2,1,70,0,0
223317,-76.9230769230769,4,2,1,5,0,0
223403,-60.6060606060606,4,2,1,80,0,0
223660,-60.6060606060606,4,2,1,10,0,0
223746,-50,4,2,1,90,0,0
224003,-50,4,2,1,15,0,0
224088,-66.6666666666667,4,2,1,100,0,1
224260,-66.6666666666667,4,2,1,80,0,1
245688,-66.6666666666667,4,2,1,80,0,0
246031,-66.6666666666667,4,2,1,80,0,1
262317,-76.9230769230769,4,2,1,80,0,1
267974,-66.6666666666667,4,2,1,80,0,0
291288,-133.333333333333,4,3,1,60,0,0
295403,-133.333333333333,4,3,1,50,0,0
300888,-133.333333333333,4,3,1,40,0,0
306374,-133.333333333333,4,3,1,30,0,0
311688,-133.333333333333,4,3,1,50,0,0

[Colours]
Combo1 : 60,157,255
Combo2 : 255,155,106
Combo3 : 165,255,74
Combo4 : 255,128,255

[HitObjects]
72,184,546,6,0,P|79:212|94:238,1,60.0000022888184,4|0,0:1|0:0,0:0:0:0:
216,328,888,2,0,P|244:294|252:250,1,90.0000034332277,8|0,0:0|0:0,0:0:0:0:
248,176,1231,2,0,P|253:146|267:119,1,60.0000022888184,0|0,0:0|1:0,0:0:0:0:
324,52,1574,1,8,0:0:0:0:
160,92,1746,1,0,0:0:0:0:
328,172,1917,6,0,L|386:158,1,60.0000022888184
388,344,2260,2,0,L|296:292,1,90.0000034332277,8|0,0:0|0:0,0:0:0:0:
252,250,2603,2,0,L|184:256,1,60.0000022888184,0|0,0:0|1:0,0:0:0:0:
104,260,2946,1,8,0:0:0:0:
252,340,3117,1,0,0:0:0:0:
328,172,3288,6,0,P|307:150|280:136,1,60.0000022888184
152,60,3631,2,0,P|165:102|159:146,1,90.0000034332277,8|0,0:0|0:0,0:0:0:0:
106,201,3974,2,0,P|99:230|103:259,1,60.0000022888184,0|0,0:0|1:0,0:0:0:0:
147,39,4317,2,0,P|177:36|207:39,1,60.0000022888184,8|0,0:0|0:0,0:0:0:0:
339,114,4660,6,0,L|329:173,1,60.0000022888184
210,317,5003,2,0,P|197:274|202:229,1,90.0000034332277,8|0,0:0|0:0,0:0:0:0:
156,168,5346,2,0,L|123:218,1,60.0000022888184,0|0,0:0|1:0,0:0:0:0:
248,156,5688,1,8,0:0:0:0:
248,156,5860,1,0,3:0:0:0:
248,156,6031,6,0,L|244:84,1,60.0000022888184
372,176,6374,2,0,P|360:219|335:256,1,90.0000034332277,8|0,0:0|0:0,0:0:0:0:
276,304,6717,2,0,P|300:321|328:330,1,60.0000022888184,0|0,0:0|1:0,0:0:0:0:
200,120,7060,2,0,P|172:110|143:112,1,60.0000022888184,8|0,0:0|0:0,0:0:0:0:
172,196,7403,6,0,P|200:206|229:204,1,60.0000022888184
388,108,7746,2,0,L|378:197,1,90.0000034332277,8|0,0:0|0:0,0:0:0:0:
376,272,8088,2,0,L|421:311,1,60.0000022888184,0|0,0:0|1:0,0:0:0:0:
460,228,8431,1,8,0:0:0:0:
300,172,8603,1,0,0:0:0:0:
188,320,8774,6,0,L|205:262,1,60.0000022888184
320,164,9117,2,0,P|340:203|339:248,1,90.0000034332277,8|0,0:0|0:0,0:0:0:0:
312,320,9460,2,0,P|341:326|370:320,1,60.0000022888184,0|0,0:0|1:0,0:0:0:0:
304,88,9803,6,0,P|270:105|245:147,1,60.0000022888184,8|0,0:0|0:0,0:0:0:0:
232,208,10146,1,0,0:0:0:0:
112,140,10488,6,0,P|116:169|136:208,1,60.0000022888184,2|0,3:0|0:0,0:0:0:0:
354,287,10831,6,0,P|315:283|277:294,1,80,2|0,3:0|0:0,0:0:0:0:
376,72,11174,6,0,P|348:108|336:24,1,180.000006866455,8|0,1:2|0:0,0:0:0:0:
376,72,11517,6,0,L|380:148,1,60.0000022888184,6|0,1:0|0:0,0:0:0:0:
380,228,11860,1,8,0:0:0:0:
296,316,12031,1,0,0:0:0:0:
296,316,12203,2,0,L|372:352,1,60.0000022888184,0|0,0:0|1:0,0:0:0:0:
192,328,12546,1,8,0:0:0:0:
112,256,12717,5,0,0:0:0:0:
112,256,12888,2,0,L|36:292,1,60.0000022888184
164,164,13231,2,0,L|98:178,1,60.0000022888184,8|0,0:0|0:0,0:0:0:0:
216,68,13574,1,0,0:0:0:0:
112,76,13746,1,0,1:0:0:0:
235,173,13917,1,8,0:0:0:0:
280,31,14088,1,0,0:0:0:0:
280,31,14174,1,0,0:0:0:0:
280,31,14260,6,0,L|279:117,1,60.0000022888184,4|0,0:0|0:0,0:0:0:0:
388,145,14603,2,0,L|400:216,1,60.0000022888184,8|0,0:0|0:0,0:0:0:0:
412,300,14946,1,0,0:0:0:0:
472,196,15117,1,0,1:0:0:0:
448,80,15288,2,0,L|392:36,1,60.0000022888184,8|0,0:0|0:0,0:0:0:0:
400,42,15546,1,0,0:0:0:0:
400,42,15631,5,4,0:0:0:0:
216,56,15803,1,0,0:0:0:0:
91,161,15974,2,0,L|168:140,1,60.0000022888184,8|0,0:0|0:0,0:0:0:0:
148,145,16231,1,0,0:0:0:0:
148,145,16317,1,4,0:0:0:0:
184,304,16488,2,0,L|236:260,1,60.0000022888184,0|8,1:0|0:0,0:0:0:0:
388,272,16831,1,0,0:0:0:0:
352,124,17003,5,4,1:2:0:0:
240,84,17346,1,0,1:0:0:0:
200,200,17688,1,0,1:0:0:0:
316,240,18031,2,0,L|320:320,1,60.0000022888184,0|0,1:0|1:0,1:0:0:0:
314,63,18374,5,4,1:2:0:0:
174,89,18717,1,0,1:0:0:0:
202,233,19060,1,0,1:0:0:0:
347,205,19403,1,0,1:0:0:0:
347,205,19574,1,0,1:0:0:0:
332,308,19746,5,4,1:2:0:0:
256,208,19917,1,0,1:0:0:0:
136,199,20088,1,0,1:2:0:0:
75,95,20259,1,0,1:0:0:0:
92,298,20431,5,4,1:2:0:0:
227,307,20602,1,0,1:0:0:0:
175,147,20773,1,0,1:2:0:0:
356,222,20946,1,4,1:2:0:0:
360,96,21117,5,0,1:0:0:0:
367,236,21288,1,0,1:0:0:0:
227,307,21460,1,0,1:0:0:0:
216,133,21631,1,0,1:0:0:0:
83,268,21803,5,0,3:0:0:0:
111,295,21888,1,0,3:0:0:0:
147,307,21974,1,0,3:0:0:0:
187,311,22060,1,0,3:0:0:0:
227,307,22146,1,8,3:2:0:0:
251,99,22488,6,0,P|218:131|199:172,1,92.0000017547608,4|0,0:1|0:0,0:0:0:0:
227,307,22831,2,0,P|259:274|278:233,1,92.0000017547608,8|0,0:0|0:0,0:0:0:0:
251,99,23174,1,0,0:0:0:0:
355,191,23346,1,0,1:0:0:0:
239,85,23517,2,0,P|193:84|150:100,1,92.0000017547608,8|0,0:0|0:0,0:0:0:0:
355,191,23860,5,0,0:0:0:0:
176,236,24031,2,0,L|136:244,1,30.0000011444092
256,284,24203,2,0,L|296:292,1,30.0000011444092,8|0,0:0|0:0,0:0:0:0:
385,230,24374,2,0,L|356:236,1,30.0000011444092
268,164,24546,6,0,L|298:170,1,30.0000011444092
412,160,24717,2,0,L|404:120,1,30.0000011444092,0|0,1:0|0:0,0:0:0:0:
316,60,24888,2,0,L|324:100,1,30.0000011444092,8|0,0:0|0:0,0:0:0:0:
428,172,25060,2,0,L|420:132,1,30.0000011444092
300,48,25231,6,0,L|200:44,1,92.0000017547608,4|0,0:0|0:0,0:0:0:0:
72,120,25574,2,0,L|44:228,1,92.0000017547608,8|0,0:0|0:0,0:0:0:0:
128,300,25917,2,0,L|204:216,1,92.0000017547608,0|0,0:0|1:0,0:0:0:0:
296,176,26260,2,0,L|268:284,1,92.0000017547608,8|0,0:0|0:0,0:0:0:0:
416,160,26603,6,0,P|356:96|256:76,1,184.000003509522,2|8,0:0|0:0,0:0:0:0:
272,265,27117,2,0,P|344:234|304:158,1,184.000003509522,2|0,0:0|1:0,0:0:0:0:
119,103,27631,2,0,P|120:180|140:212,1,92.0000017547608,10|0,0:0|0:0,0:0:0:0:
264,75,27974,5,0,0:0:0:0:
350,125,28146,1,0,0:0:0:0:
410,205,28317,2,0,P|390:281|354:317,1,92.0000017547608,8|0,0:0|0:0,0:0:0:0:
264,75,28660,1,0,0:0:0:0:
363,75,28831,1,0,1:0:0:0:
455,114,29003,2,0,P|475:189|462:238,1,92.0000017547608,8|0,0:0|0:0,0:0:0:0:
380,312,29346,5,0,0:0:0:0:
268,208,29517,2,0,L|252:176,1,30.0000011444092
256,84,29688,2,0,L|269:110,1,30.0000011444092,8|0,0:0|0:0,0:0:0:0:
268,224,29860,2,0,L|252:192,1,30.0000011444092
256,60,30031,6,0,L|270:86,1,30.0000011444092
268,244,30203,2,0,L|254:217,1,30.0000011444092,0|0,1:0|0:0,0:0:0:0:
256,40,30374,2,0,L|270:67,1,30.0000011444092
268,264,30546,2,0,L|254:237,1,30.0000011444092
256,16,30717,6,0,P|302:14|342:35,1,92.0000017547608,4|0,0:0|0:0,0:0:0:0:
200,172,31060,1,8,0:0:0:0:
84,40,31231,1,0,0:0:0:0:
8,215,31403,2,0,P|46:191|96:184,1,92.0000017547608,0|0,0:0|1:0,0:0:0:0:
200,172,31746,1,8,0:0:0:0:
308,220,31917,6,0,P|355:265|364:298,1,92.0000017547608
224,304,32260,1,0,0:0:0:0:
204,184,32431,1,8,0:0:0:0:
320,131,32603,2,0,P|364:119|408:128,1,92.0000017547608
408,128,32946,1,0,1:0:0:0:
276,40,33117,5,0,1:0:0:0:
248,76,33203,1,0,1:0:0:0:
232,120,33288,1,0,1:0:0:0:
232,168,33374,1,0,1:0:0:0:
244,212,33460,6,0,P|276:256|328:288,1,92.0000017547608,4|0,1:1|0:0,0:0:0:0:
244,376,33803,1,8,0:0:0:0:
168,256,33974,1,0,0:0:0:0:
306,277,34146,1,0,0:0:0:0:
230,157,34317,1,0,1:0:0:0:
340,76,34488,2,0,P|378:100|406:135,1,92.0000017547608,8|0,0:0|0:0,0:0:0:0:
412,276,34831,5,0,0:0:0:0:
244,212,35003,2,0,L|257:185,1,30.0000011444092
226,65,35174,2,0,L|210:97,1,30.0000011444092,8|0,0:0|0:0,0:0:0:0:
144,196,35346,2,0,L|117:182,1,30.0000011444092
0,224,35517,6,0,L|26:237,1,30.0000011444092
128,308,35688,2,0,L|135:279,1,30.0000011444092,0|0,1:0|0:0,0:0:0:0:
244,212,35860,2,0,L|251:242,1,30.0000011444092,8|0,0:0|0:0,0:0:0:0:
312,132,36031,2,0,L|294:108,1,30.0000011444092
400,60,36203,6,0,P|419:102|422:147,1,92.0000017547608,4|0,0:0|0:0,0:0:0:0:
321,226,36546,2,0,P|305:269|275:303,1,92.0000017547608,8|0,0:0|0:0,0:0:0:0:
124,228,36888,1,0,0:0:0:0:
208,84,37060,1,0,1:0:0:0:
348,163,37231,1,8,0:0:0:0:
276,304,37403,1,0,0:0:0:0:
397,90,37574,6,0,P|294:93|361:162,1,240.000009155274,0|8,0:0|0:0,0:0:0:0:
447,167,38088,2,0,L|397:90,1,92.0000017547608
252,68,38431,1,0,1:2:0:0:
252,68,38517,1,0,1:2:0:0:
252,68,38603,1,8,1:2:0:0:
144,176,38774,1,0,1:0:0:0:
352,148,38946,5,4,1:2:0:0:
208,304,39288,1,0,1:0:0:0:
236,40,39631,1,0,1:0:0:0:
436,204,39974,1,0,1:2:0:0:
212,308,40317,5,4,1:2:0:0:
212,308,40488,1,0,1:0:0:0:
132,208,40660,1,0,1:0:0:0:
132,208,40831,1,0,1:0:0:0:
236,132,41003,1,0,1:0:0:0:
236,132,41174,1,0,1:0:0:0:
164,24,41346,1,0,1:0:0:0:
164,24,41517,1,0,1:0:0:0:
48,92,41688,5,4,1:2:0:0:
132,208,41860,1,0,1:0:0:0:
236,132,42031,1,0,1:0:0:0:
204,308,42203,1,0,1:0:0:0:
236,132,42374,5,4,1:2:0:0:
60,132,42546,1,0,1:0:0:0:
204,308,42717,1,4,1:2:0:0:
392,180,42888,1,4,1:2:0:0:
144,224,43231,5,0,1:0:0:0:
260,140,43403,1,0,1:0:0:0:
376,216,43574,1,0,1:0:0:0:
244,132,43746,5,0,3:2:0:0:
228,124,43831,1,0,3:2:0:0:
212,116,43917,1,0,3:2:0:0:
196,108,44003,1,0,3:2:0:0:
180,100,44088,1,8,3:2:0:0:
340,60,44431,6,0,P|372:124|364:192,1,100,4|0,0:3|0:0,0:0:0:0:
348,268,44774,1,8,0:0:0:0:
244,328,44946,1,0,0:0:0:0:
244,328,45117,1,0,0:0:0:0:
260,208,45288,1,0,1:1:0:0:
380,228,45460,1,8,0:0:0:0:
368,348,45631,1,0,0:0:0:0:
464,224,45803,6,0,P|416:156|392:136,1,100
232,20,46146,1,8,0:0:0:0:
144,116,46317,2,0,P|184:137|248:152,1,100
376,172,46660,1,0,1:1:0:0:
292,284,46831,2,0,P|236:292|192:276,1,100,8|0,0:0|0:0,0:0:0:0:
86,181,47174,6,0,P|100:134|89:86,1,100
32,268,47517,2,0,P|79:282|127:271,1,100,8|0,0:0|0:0,0:0:0:0:
236,150,47860,1,0,0:0:0:0:
368,304,48031,1,0,1:1:0:0:
396,168,48203,1,8,0:0:0:0:
340,312,48374,1,0,0:0:0:0:
468,256,48546,5,0,0:0:0:0:
359,99,48717,2,0,P|310:91|264:110,1,100,0|8,0:0|0:0,0:0:0:0:
311,212,49060,2,0,P|395:182|360:100,1,200,0|0,0:0|1:1,0:0:0:0:
188,28,49574,1,8,0:0:0:0:
48,100,49746,1,0,0:0:0:0:
48,100,49831,1,0,0:0:0:0:
48,100,49917,6,0,P|43:171|84:226,1,100,2|0,0:3|0:0,0:0:0:0:
108,308,50260,1,8,0:0:0:0:
217,250,50431,2,0,P|288:252|312:372,1,200,0|0,0:1|1:1,0:1:0:0:
217,250,50946,2,0,P|235:175|259:135,1,100,8|0,0:0|0:0,0:0:0:0:
246,155,51203,1,0,0:0:0:0:
246,155,51288,5,0,0:0:0:0:
376,140,51460,1,0,0:0:0:0:
468,228,51631,1,8,0:0:0:0:
500,100,51803,2,0,P|460:52|340:40,1,150
324,36,52146,2,0,L|288:104,1,50,0|0,1:0|0:0,0:0:0:0:
250,159,52317,1,8,0:0:0:0:
250,159,52488,2,0,L|190:123,1,50
114,79,52660,5,0,0:0:0:0:
30,163,52831,1,0,0:0:0:0:
6,47,53003,1,8,0:0:0:0:
228,47,53174,2,0,P|301:101|254:179,1,200,0|0,0:0|1:0,0:0:0:0:
228,47,53688,2,0,P|269:20|317:6,1,100,8|0,0:0|0:0,0:0:0:0:
464,44,54031,5,2,0:0:0:0:
332,123,54203,1,2,0:0:0:0:
488,144,54374,1,10,0:0:0:0:
360,220,54546,2,0,L|328:109,1,100
452,48,54888,1,2,1:3:0:0:
360,220,55060,2,0,P|284:272|240:264,1,100,8|0,0:0|0:0,0:0:0:0:
280,272,55403,5,4,0:1:0:0:
260,112,55574,1,0,0:0:0:0:
208,228,55746,1,8,0:0:0:0:
168,48,55917,2,0,P|104:112|104:128,1,100
140,280,56260,1,0,1:1:0:0:
100,132,56431,1,8,0:0:0:0:
276,164,56603,1,0,0:0:0:0:
88,140,56774,5,0,0:0:0:0:
120,316,56946,1,0,0:0:0:0:
76,152,57117,1,8,0:0:0:0:
212,35,57288,2,0,P|306:49|338:139,1,200,0|0,0:0|1:0,0:0:0:0:
151,106,57803,2,0,P|169:60|211:34,1,100,8|0,0:0|0:0,0:0:0:0:
392,48,58146,5,4,0:0:0:0:
452,168,58317,1,0,0:0:0:0:
264,144,58488,1,8,0:0:0:0:
264,144,58831,2,0,L|152:160,1,100,0|0,0:0|1:0,0:0:0:0:
20,220,59174,1,8,0:2:0:0:
160,88,59346,1,0,0:2:0:0:
0,124,59517,5,8,1:2:0:0:
248,228,59689,1,8,1:2:0:0:
412,168,60031,2,0,B|404:212|364:228|364:228|284:200|244:232,1,200,8|0,1:2|1:2,1:2:0:0:
200,296,60546,1,8,0:0:0:0:
200,296,60717,1,8,0:0:0:0:
164,172,60888,5,8,0:0:0:0:
284,124,61060,1,0,0:0:0:0:
172,56,61231,1,8,0:0:0:0:
340,28,61403,1,0,0:0:0:0:
376,192,61574,1,8,0:0:0:0:
204,228,61746,1,0,0:0:0:0:
172,56,61917,1,8,0:0:0:0:
340,28,62088,1,0,0:0:0:0:
440,164,62260,6,0,P|451:231|442:273,1,100,12|0,0:0|0:0,0:0:0:0:
296,228,62603,1,8,0:0:0:0:
260,64,62774,1,0,0:0:0:0:
116,156,62946,1,8,0:0:0:0:
296,228,63117,1,0,1:2:0:0:
324,216,63203,1,0,1:2:0:0:
348,200,63288,1,8,0:0:0:0:
260,64,63460,1,0,0:0:0:0:
268,252,63631,5,12,1:2:0:0:
120,168,63803,1,0,1:2:0:0:
176,328,63974,1,0,1:2:0:0:
230,176,64146,1,0,1:2:0:0:
364,248,64317,1,4,1:2:0:0:
336,80,64488,1,0,1:2:0:0:
488,156,64660,1,0,1:2:0:0:
257,47,64831,6,0,P|164:95|230:176,1,240.000009155274,0|0,1:0|0:0,1:0:0:0:
320,192,65688,1,2,0:3:0:0:
320,192,66031,1,8,0:0:0:0:
108,76,66374,6,0,P|139:124|219:148,1,120.000004577637,6|0,0:1|0:0,0:0:0:0:
208,52,66888,1,0,0:0:0:0:
128,240,67060,2,0,P|203:256|240:256,1,90.0000034332277
248,260,67403,1,8,0:0:0:0:
208,52,67574,1,0,0:0:0:0:
272,103,67746,6,0,L|327:170,2,60.0000022888184
216,256,68260,1,0,0:0:0:0:
287,307,68431,2,0,P|316:316|346:320,1,60.0000022888184,2|0,0:3|0:0,0:0:0:0:
436,320,68774,1,8,0:0:0:0:
326,199,68946,1,0,0:0:0:0:
360,61,69117,6,0,L|434:135,1,90.0000034332277,2|0,0:3|0:0,0:0:0:0:
448,150,69460,1,0,0:0:0:0:
390,263,69631,1,0,0:0:0:0:
390,263,69803,2,0,L|316:189,1,90.0000034332277
300,172,70146,2,0,P|272:160|242:159,1,60.0000022888184,8|0,0:0|0:0,0:0:0:0:
179,243,70488,6,0,P|140:200|136:141,1,120.000004577637,2|0,0:3|0:0,0:0:0:0:
248,23,71003,1,0,0:0:0:0:
248,23,71174,2,0,P|292:56|304:104,1,90.0000034332277
312,124,71517,2,0,P|345:164|387:187,1,90.0000034332277,8|0,0:0|0:0,0:0:0:0:
406,194,71860,5,2,0:3:0:0:
406,194,72374,1,0,0:0:0:0:
392,297,72546,2,0,P|358:300|324:293,1,68.0000012969971
233,268,72888,1,8,0:0:0:0:
307,201,73060,1,0,0:0:0:0:
307,201,73146,1,0,0:0:0:0:
307,201,73231,6,0,L|230:151,1,68.0000012969971,2|0,0:3|0:0,0:0:0:0:
200,98,73574,1,0,0:0:0:0:
369,83,73746,1,0,0:0:0:0:
369,83,73831,1,0,0:0:0:0:
369,82,73917,2,0,P|363:116|349:146,1,68.0000012969971
307,217,74260,1,8,0:0:0:0:
216,248,74431,1,0,0:0:0:0:
216,248,74517,1,0,0:0:0:0:
215,247,74603,6,0,P|179:232|139:227,2,80,2|0|0,0:1|0:0|0:0,0:0:0:0:
280,292,75117,1,0,0:0:0:0:
356,320,75288,2,0,P|395:314|432:299,1,80
476,232,75631,1,8,0:0:0:0:
487,137,75803,1,0,0:0:0:0:
487,137,75888,1,0,0:0:0:0:
487,137,75974,6,0,P|427:92|391:80,1,80
319,79,76317,2,0,L|368:149,1,80,8|0,0:0|0:0,0:0:0:0:
333,244,76660,2,0,L|284:174,1,80,8|0,0:0|0:0,0:0:0:0:
191,136,77003,1,10,0:0:0:0:
110,231,77174,1,10,0:0:0:0:
68,74,77346,6,0,P|122:63|194:81,1,100,2|0,0:1|0:0,0:0:0:0:
270,102,77688,1,8,0:0:0:0:
270,102,77860,2,0,P|281:156|263:228,1,100
262,309,78203,1,0,1:0:0:0:
262,309,78288,1,0,0:0:0:0:
262,309,78374,2,0,P|212:302|164:313,1,100,8|0,0:0|0:0,0:0:0:0:
60,200,78717,6,0,P|94:151|102:102,1,100
301,100,79060,2,0,P|252:89|214:59,1,100,8|0,0:0|0:0,0:0:0:0:
380,24,79403,2,0,P|410:62|421:111,1,100
365,271,79746,2,0,P|334:232|323:183,1,100,8|0,0:0|0:0,0:0:0:0:
124,291,80088,6,0,P|152:188|204:151,1,150,4|0,0:0|0:0,0:0:0:0:
204,139,80431,1,8,0:0:0:0:
124,291,80603,2,0,P|66:263|42:220,1,100
124,119,80946,1,0,1:0:0:0:
236,64,81117,1,8,0:0:0:0:
124,119,81288,2,0,P|160:160|232:177,1,100
324,184,81631,1,0,0:0:0:0:
361,61,81803,6,0,P|394:33|415:16,1,60.0000022888184,2|0,1:0|3:0,3:0:0:0:
201,176,82146,6,0,L|136:117,1,80,2|0,1:3|3:0,0:0:0:0:
420,280,82488,6,0,L|320:325,1,100,2|0,1:3|3:0,0:0:0:0:
182,295,82831,5,4,1:2:0:0:
111,86,83174,1,0,1:2:0:0:
322,25,83517,1,0,1:2:0:0:
407,227,83860,1,0,1:2:0:0:
130,212,84203,5,4,1:2:0:0:
130,212,84374,1,0,1:2:0:0:
236,66,84546,1,0,1:2:0:0:
236,66,84717,1,0,1:2:0:0:
382,172,84888,1,0,1:2:0:0:
382,172,85060,1,0,1:2:0:0:
276,318,85231,1,0,1:2:0:0:
276,318,85403,1,0,1:2:0:0:
153,118,85574,5,4,1:2:0:0:
313,115,85746,1,0,1:2:0:0:
153,138,85917,1,0,1:2:0:0:
357,194,86088,1,0,1:2:0:0:
153,157,86260,5,4,1:2:0:0:
388,304,86431,1,0,1:2:0:0:
384,104,86603,1,0,1:2:0:0:
196,264,86774,1,0,1:2:0:0:
300,40,86946,5,2,3:2:0:0:
339,23,87031,1,0,3:2:0:0:
379,15,87117,1,0,3:2:0:0:
420,24,87203,1,0,3:2:0:0:
451,51,87288,1,2,3:2:0:0:
474,84,87374,1,0,3:2:0:0:
484,124,87460,1,0,3:2:0:0:
476,168,87546,1,0,3:2:0:0:
452,204,87631,5,2,3:2:0:0:
414,226,87717,1,0,3:2:0:0:
374,228,87803,1,0,3:2:0:0:
342,195,87888,1,0,3:2:0:0:
302,164,87974,1,2,3:2:0:0:
255,145,88060,1,0,3:2:0:0:
205,143,88146,1,0,3:2:0:0:
160,165,88231,1,0,3:2:0:0:
177,284,88660,6,0,L|160:158,1,120,2|0,0:3|0:0,0:0:0:0:
164,88,89003,6,0,P|236:88|260:16,1,155.999992858887,2|0,0:1|0:0,0:0:0:0:
178,14,89346,6,0,P|93:81|161:165,1,240,2|0,1:2|0:0,0:0:0:0:
340,112,89688,6,0,P|396:144|440:208,1,116.000003540039,4|0,1:1|0:0,0:0:0:0:
428,183,89946,1,0,0:0:0:0:
428,183,90031,1,8,0:0:0:0:
348,328,90203,1,0,0:0:0:0:
272,184,90374,1,0,0:0:0:0:
188,324,90546,1,0,1:0:0:0:
188,324,90717,1,8,0:0:0:0:
92,196,90888,1,0,0:0:0:0:
166,50,91060,5,0,0:0:0:0:
272,172,91231,1,0,0:0:0:0:
388,100,91403,2,0,P|456:100|504:116,1,116.000003540039,8|0,0:0|0:0,0:0:0:0:
269,250,91746,2,0,P|201:250|153:234,1,116.000003540039,0|0,0:0|1:0,0:0:0:0:
416,203,92088,1,8,0:0:0:0:
336,336,92260,1,0,0:0:0:0:
416,203,92431,6,0,P|394:134|360:79,1,116.000003540039
308,296,92774,1,8,0:0:0:0:
156,236,92946,1,0,0:0:0:0:
308,296,93117,2,0,P|332:236|332:172,1,116.000003540039,0|0,0:0|1:0,0:0:0:0:
333,185,93374,1,0,0:0:0:0:
333,185,93460,1,8,0:0:0:0:
236,92,93631,1,0,0:0:0:0:
83,185,93803,6,0,B|196:128|196:240|303:167,1,232.000007080078,2|8,0:3|0:0,0:0:0:0:
416,40,94317,1,0,0:0:0:0:
452,136,94488,2,0,P|452:200|404:280,1,116.000003540039,0|0,0:0|1:0,0:0:0:0:
296,344,94831,2,0,L|272:232,1,100,8|0,0:0|0:0,0:0:0:0:
80,91,95174,6,0,P|168:104|150:191,1,200,0|8,0:0|0:0,0:0:0:0:
295,344,95688,2,0,P|207:331|225:244,1,200,0|0,0:0|1:0,0:0:0:0:
412,128,96203,1,8,0:0:0:0:
240,64,96374,1,0,0:0:0:0:
412,128,96546,6,0,P|408:180|296:136,1,200,0|8,0:0|0:0,0:0:0:0:
176,92,97060,1,0,0:0:0:0:
108,240,97231,1,0,0:0:0:0:
220,200,97403,1,0,1:0:0:0:
104,108,97574,1,8,0:0:0:0:
284,72,97746,1,0,0:0:0:0:
40,48,97917,6,0,P|32:136|72:208,1,150
72,208,98260,1,8,0:0:0:0:
216,56,98431,1,0,0:0:0:0:
300,184,98603,1,0,0:0:0:0:
368,48,98774,1,0,1:0:0:0:
469,237,98946,2,0,L|364:260,1,100,8|0,0:0|0:0,0:0:0:0:
184,124,99288,2,0,L|100:48,1,100,0|0,0:1|0:0,0:0:0:0:
316,80,99631,5,8,0:0:0:0:
356,108,99717,1,0,0:0:0:0:
380,152,99803,1,0,0:0:0:0:
292,272,99974,1,0,0:0:0:0:
208,148,100146,1,0,1:0:0:0:
395,199,100317,2,0,P|400:249|385:297,1,100,8|0,0:0|0:0,0:0:0:0:
480,104,100660,6,0,P|400:44|288:44,1,200,6|8,0:1|0:0,0:0:0:0:
160,60,101174,1,0,0:0:0:0:
112,237,101346,2,0,P|103:140|160:60,1,200,0|8,0:0|0:0,0:0:0:0:
254,213,101860,6,0,L|252:164,2,50
348,164,102203,1,0,0:0:0:0:
182,49,102374,2,0,P|182:146|253:212,1,200,8|0,0:0|0:0,0:0:0:0:
340,80,102888,1,0,1:0:0:0:
254,213,103060,1,8,0:0:0:0:
392,156,103231,6,0,P|440:142|490:140,2,100,0|4|0,0:0|0:0|0:0,0:0:0:0:
191,119,103746,1,8,0:0:0:0:
328,264,103917,2,0,P|360:302|383:346,2,100,0|0|0,0:0|0:0|1:0,0:0:0:0:
424,64,104431,2,0,L|419:113,2,50,8|0|0,0:0|3:0|0:0,0:0:0:0:
464,184,104774,6,0,P|418:193|348:164,1,100,0|0,1:2|0:2,0:0:0:0:
188,100,105117,1,8,0:0:0:0:
336,92,105288,1,0,0:0:0:0:
208,192,105460,1,0,0:0:0:0:
367,178,105631,1,0,1:0:0:0:
228,56,105803,1,8,0:0:0:0:
92,84,105974,2,0,L|92:160,1,50,0|0,1:0|1:0,0:0:0:0:
92,256,106146,5,6,1:2:0:0:
228,56,106488,1,0,1:0:0:0:
379,195,106831,1,0,1:0:0:0:
182,209,107174,1,0,1:0:0:0:
182,209,107346,1,0,1:0:0:0:
260,28,107517,6,0,P|209:28|136:48,1,92.0000017547608,4|0,1:2|1:2,1:2:0:0:
88,148,107860,1,0,1:2:0:0:
32,24,108031,1,0,1:2:0:0:
215,127,108203,2,0,P|208:172|182:210,1,92.0000017547608,2|0,1:2|1:2,1:2:0:0:
56,264,108546,2,0,L|144:352,1,92.0000017547608,0|0,1:2|1:2,1:2:0:0:
232,208,108888,5,4,1:2:0:0:
352,284,109060,1,0,1:0:0:0:
372,156,109231,1,0,1:0:0:0:
232,296,109403,1,0,1:0:0:0:
96,184,109574,1,4,1:2:0:0:
272,160,109746,1,0,1:0:0:0:
108,272,109917,1,4,1:2:0:0:
177,124,110088,6,0,B|227:98|270:111|311:150|311:150|276:163,1,184.000003509522,4|0,1:2|1:0,0:0:0:0:
76,196,110603,1,0,1:0:0:0:
144,40,110774,1,0,1:0:0:0:
344,88,110946,5,0,1:0:0:0:
344,88,111031,1,0,1:2:0:0:
344,88,111117,1,0,1:2:0:0:
344,88,111203,1,0,1:2:0:0:
344,88,111288,1,8,1:2:0:0:
164,300,111631,5,2,1:0:0:0:
304,308,111803,1,0,0:0:0:0:
152,352,111974,1,8,0:0:0:0:
312,264,112146,1,0,0:0:0:0:
368,92,112317,2,0,P|444:92|504:140,1,120.000004577637,0|0,0:0|1:0,0:0:0:0:
468,268,112660,1,8,0:0:0:0:
412,164,112831,1,0,0:0:0:0:
136,152,113003,5,0,0:0:0:0:
216,280,113174,1,0,0:0:0:0:
368,248,113346,1,8,0:0:0:0:
232,328,113517,1,0,0:0:0:0:
288,184,113688,1,0,0:0:0:0:
320,336,113860,2,0,P|376:352|464:336,2,120.000004577637,0|8|0,1:0|0:0|0:0,0:0:0:0:
168,244,114374,5,0,0:0:0:0:
168,244,114460,1,0,0:0:0:0:
168,244,114546,2,0,L|144:140,1,60.0000022888184
217,117,114717,2,0,L|232:176,1,60.0000022888184,8|0,0:0|0:0,0:0:0:0:
308,188,114888,2,0,P|388:136|296:112,1,240.000009155274,0|0,0:0|1:0,0:0:0:0:
280,300,115403,2,0,P|329:332|386:351,1,120.000004577637,8|0,0:0|0:0,0:0:0:0:
476,268,115746,5,0,0:0:0:0:
465,142,115917,2,0,P|451:84|412:40,1,120.000004577637,0|8,0:0|0:0,0:0:0:0:
292,224,116260,1,0,0:0:0:0:
292,224,116431,2,0,P|236:240|180:220,1,120.000004577637,0|0,0:0|1:0,0:0:0:0:
56,120,116774,1,8,0:0:0:0:
212,52,116946,1,0,0:0:0:0:
212,52,117031,1,0,0:0:0:0:
212,52,117117,6,0,P|288:76|340:160,1,180.000006866455
384,224,117460,2,0,L|418:175,1,60.0000022888184,8|0,0:0|0:0,0:0:0:0:
414,296,117631,2,0,L|356:312,1,60.0000022888184
184,280,117803,1,0,0:0:0:0:
272,144,117974,1,0,1:0:0:0:
248,344,118146,1,8,0:0:0:0:
173,124,118317,6,0,P|74:151|78:48,1,240.000009155274,2|0,0:3|0:0,0:0:0:0:
200,36,118831,1,8,0:0:0:0:
328,36,119003,1,0,0:0:0:0:
224,144,119174,1,0,0:0:0:0:
364,192,119346,1,0,1:0:0:0:
232,268,119517,1,8,0:0:0:0:
388,384,119688,1,0,0:0:0:0:
228,148,119860,6,0,B|232:268|232:268|304:224,1,180.000006866455,2|0,1:3|0:0,0:0:0:0:
364,192,120203,6,0,P|416:260|348:256,1,180.000006866455,8|0,1:2|0:0,0:0:0:0:
152,227,120546,6,0,P|148:152|196:60,1,180.000006866455,2|0,1:3|0:0,0:0:0:0:
194,61,120888,1,8,1:2:0:0:
190,304,121060,6,0,P|93:303|152:227,1,240.000009155274,2|2,1:3|1:2,0:0:0:0:
312,268,121574,5,8,0:0:0:0:
312,268,121660,1,0,0:0:0:0:
312,268,121746,2,0,L|264:140,1,120
269,155,122088,1,0,0:0:0:0:
404,132,122260,5,8,1:2:0:0:
408,156,122346,1,0,1:2:0:0:
412,180,122431,1,0,1:2:0:0:
416,204,122517,1,0,1:2:0:0:
420,228,122603,5,6,1:1:0:0:
360,332,122774,1,2,0:3:0:0:
300,248,122946,1,8,0:0:0:0:
244,336,123117,1,0,0:0:0:0:
276,212,123288,1,0,0:0:0:0:
176,312,123460,1,0,1:0:0:0:
128,168,123631,2,0,L|96:72,1,92.0000017547608,8|0,0:0|0:0,0:0:0:0:
232,88,123974,5,0,0:0:0:0:
404,132,124146,1,0,0:0:0:0:
271,196,124317,1,8,0:0:0:0:
456,268,124488,2,0,P|403:309|338:296,1,138.000002632141
271,196,124831,2,0,P|308:229|324:276,1,100,0|8,1:0|0:0,0:0:0:0:
64,164,125174,1,0,0:0:0:0:
64,164,125346,6,0,P|92:112|136:84,1,100,4|0,0:0|0:0,0:0:0:0:
119,297,125688,2,0,P|74:276|40:240,2,100,8|0|0,0:0|0:0|0:0,0:0:0:0:
48,88,126203,1,0,1:0:0:0:
204,64,126374,1,8,0:0:0:0:
148,216,126546,1,0,0:0:0:0:
148,216,126717,1,0,0:0:0:0:
340,97,126888,5,0,0:0:0:0:
225,211,127060,1,8,0:0:0:0:
152,68,127231,1,0,0:0:0:0:
152,68,127403,1,0,0:0:0:0:
225,211,127574,2,0,L|296:228,1,50,0|0,1:0|1:0,0:0:0:0:
388,244,127746,1,8,1:2:0:0:
452,128,127917,1,0,0:0:0:0:
368,39,128088,6,0,P|329:70|305:113,1,100,0|0,1:0|0:0,0:0:0:0:
325,318,128431,2,0,P|363:286|387:243,1,100,0|0,1:0|0:0,0:0:0:0:
160,123,128774,2,0,P|121:155|97:198,1,100,0|0,1:0|0:0,0:0:0:0:
112,332,129117,1,0,1:0:0:0:
24,212,129288,1,0,0:0:0:0:
224,216,129460,6,0,P|264:200|312:156,1,100,4|0,1:2|0:0,0:0:0:0:
136,168,129803,2,0,P|126:216|141:263,1,100,0|0,1:0|0:0,0:0:0:0:
216,132,130146,1,0,1:0:0:0:
376,216,130317,1,0,0:0:0:0:
312,92,130488,1,0,1:2:0:0:
280,280,130660,1,0,0:0:0:0:
216,132,130831,5,4,1:2:0:0:
53,85,131003,1,0,1:0:0:0:
212,28,131174,1,0,1:0:0:0:
128,208,131346,1,0,1:0:0:0:
325,129,131517,5,4,1:2:0:0:
157,97,131688,1,0,1:0:0:0:
301,5,131860,1,4,1:2:0:0:
261,241,132031,6,0,B|233:289|233:289|181:241|189:177|241:141,1,200,4|0,1:2|1:0,1:0:0:0:
219,160,132546,1,0,1:0:0:0:
101,213,132717,1,0,1:0:0:0:
21,109,132888,2,0,L|5:25,1,50,0|0,1:0|1:0,1:0:0:0:
101,213,133060,2,0,L|73:277,1,50,0|0,1:0|1:0,1:0:0:0:
157,97,133231,1,8,1:2:0:0:
380,72,133574,6,0,L|368:184,1,100,4|0,0:1|0:0,0:0:0:0:
268,288,133917,1,8,0:0:0:0:
268,288,134088,2,0,P|224:244|200:180,1,100
152,92,134431,1,0,1:0:0:0:
152,92,134517,1,0,0:0:0:0:
152,92,134603,1,8,0:0:0:0:
300,76,134774,1,0,0:0:0:0:
300,228,134946,5,0,0:0:0:0:
412,128,135117,1,0,0:0:0:0:
264,144,135288,1,8,0:0:0:0:
381,258,135460,2,0,P|315:309|299:227,1,200,0|0,0:0|1:0,0:0:0:0:
488,144,135974,1,8,0:0:0:0:
356,72,136146,1,0,0:0:0:0:
356,72,136231,1,0,0:0:0:0:
356,72,136317,6,0,P|308:96|280:136,1,100
172,260,136660,2,0,P|217:239|248:200,1,100,8|0,0:0|0:0,0:0:0:0:
45,176,137003,2,0,P|46:230|68:280,1,108.000000411987,0|0,0:0|1:0,0:0:0:0:
152,66,137346,2,0,P|99:39|40:40,1,120.000004577637,8|0,0:0|0:0,0:0:0:0:
264,156,137688,5,0,0:0:0:0:
352,36,137860,1,0,0:0:0:0:
232,56,138031,1,8,0:0:0:0:
440,144,138203,2,0,P|416:228|348:264,1,155.999992858887
360,261,138546,1,0,1:0:0:0:
256,160,138717,1,8,0:0:0:0:
60,152,138888,1,0,0:0:0:0:
88,268,139060,6,0,P|99:291|220:316,1,155.999992858887
214,319,139403,1,8,0:0:0:0:
356,272,139574,2,0,B|360:212|360:212|332:172|332:172|330:125,1,155.999992858887
330,125,139917,1,0,1:0:0:0:
143,104,140088,2,0,B|139:164|139:164|167:204|167:204|168:250,1,155.999992858887
168,250,140431,5,0,0:0:0:0:
143,104,140603,1,0,0:0:0:0:
92,248,140774,1,8,0:0:0:0:
92,248,140860,1,0,0:0:0:0:
92,248,140946,2,0,P|120:320|192:324,1,155.999992858887
248,260,141288,2,0,P|244:208|219:162,1,103.999995239258,0|8,1:0|0:0,0:0:0:0:
304,336,141631,1,0,0:0:0:0:
456,248,141803,5,0,0:0:0:0:
391,133,141974,2,0,P|338:98|296:82,1,103.999995239258,0|8,0:0|0:0,0:0:0:0:
330,192,142317,2,0,P|464:176|391:47,1,311.999985717774,0|8,0:0|0:0,0:0:0:0:
132,48,143003,1,0,0:0:0:0:
251,164,143174,5,0,0:0:0:0:
140,300,143346,1,0,0:0:0:0:
140,300,143431,1,0,0:0:0:0:
140,300,143517,1,8,0:0:0:0:
272,316,143688,2,0,P|352:292|260:276,1,207.999990478516,0|0,0:0|1:0,0:0:0:0:
404,360,144203,2,0,P|427:314|427:262,1,103.999995239258,8|0,0:0|0:0,0:0:0:0:
496,152,144546,5,4,0:1:0:0:
312,96,144717,1,0,0:0:0:0:
460,80,144888,1,8,0:0:0:0:
460,80,145060,1,0,0:0:0:0:
312,208,145231,1,0,0:0:0:0:
160,160,145403,1,0,1:0:0:0:
160,160,145488,1,0,0:0:0:0:
160,160,145574,1,8,0:0:0:0:
152,320,145746,1,0,0:0:0:0:
256,160,145917,5,0,0:0:0:0:
328,336,146088,1,0,0:0:0:0:
368,140,146260,1,8,0:0:0:0:
464,312,146431,2,0,P|468:260|460:204,1,103.999995239258
388,68,146774,1,0,1:0:0:0:
364,64,146860,1,0,0:0:0:0:
340,60,146946,2,0,L|232:88,1,103.999995239258,8|0,0:0|0:0,0:0:0:0:
108,148,147288,5,4,0:0:0:0:
144,44,147460,1,0,0:0:0:0:
212,208,147631,1,8,0:0:0:0:
396,255,147974,2,0,P|446:199|443:123,1,155.999992858887
400,68,148317,1,8,0:0:0:0:
276,120,148488,1,0,0:0:0:0:
400,68,148660,5,8,1:2:0:0:
256,244,148831,1,8,1:2:0:0:
101,244,149174,2,0,B|203:223|203:223|255:243,1,160,8|8,1:2|1:2,0:2:0:0:
204,56,149688,1,8,0:0:0:0:
204,56,149860,1,8,0:0:0:0:
348,120,150031,6,0,P|368:184|344:280,1,155.999992858887,8|0,0:0|0:0,0:0:0:0:
304,332,150374,1,8,0:0:0:0:
452,276,150546,1,0,0:0:0:0:
288,200,150717,1,8,0:0:0:0:
436,156,150888,1,0,0:0:0:0:
324,48,151060,1,8,0:0:0:0:
350,269,151231,1,0,0:0:0:0:
349,269,151403,6,0,P|276:289|209:253,1,155.999992858887,8|0,0:0|0:0,0:0:0:0:
288,200,151746,1,8,0:0:0:0:
460,228,151917,1,0,0:0:0:0:
352,88,152088,1,8,0:0:0:0:
349,269,152260,2,0,L|396:336,2,51.999997619629,0|0|8,3:0|3:0|3:2,3:0:0:0:
224,200,152603,1,0,0:0:0:0:
428,200,152774,5,4,1:2:0:0:
228,112,152946,1,0,1:2:0:0:
432,44,153117,1,8,0:0:0:0:
228,112,153288,1,4,1:2:0:0:
428,200,153460,1,0,1:2:0:0:
224,276,153631,1,8,0:0:0:0:
108,112,153802,1,4,1:2:0:0:
300,261,153974,6,0,P|388:279|428:199,1,191.999994140625,4|0,0:0|0:0,0:0:0:0:
324,124,154831,1,2,2:3:0:0:
324,124,155174,1,8,1:2:0:0:
228,44,155517,6,0,P|160:56|132:76,1,95.9999970703126,6|0,0:1|0:3,0:3:0:0:
76,172,156031,1,0,1:3:0:0:
76,172,156203,2,0,P|136:224|184:228,1,128,2|8,0:0|0:0,0:0:0:0:
160,144,156717,1,2,0:0:0:0:
248,44,156888,6,0,L|262:106,1,64,2|0,0:0|0:0,0:0:0:0:
408,116,157231,1,2,0:0:0:0:
408,116,157403,2,0,L|372:172,1,64,2|0,0:0|0:0,0:0:0:0:
239,258,157746,1,0,0:0:0:0:
239,258,157917,2,0,L|164:276,1,64,8|0,0:0|0:0,0:0:0:0:
104,292,158260,5,2,0:0:0:0:
268,260,158603,1,2,0:0:0:0:
272,129,158774,1,2,0:0:0:0:
268,260,158946,2,0,P|328:248|376:192,1,128,2|8,0:0|0:0,0:0:0:0:
448,104,159460,1,2,0:0:0:0:
448,104,159631,6,0,P|476:141|488:228,1,128,2|0,0:0|0:0,0:0:0:0:
385,235,160146,1,0,0:0:0:0:
388,328,160317,2,0,P|376:272|400:212,1,96,2|0,0:0|0:0,0:0:0:0:
335,175,160660,2,0,P|291:158|224:176,1,96,10|0,0:0|0:0,0:0:0:0:
160,184,161003,6,0,P|178:227|175:275,1,95.9999970703126,6|0,0:1|0:0,0:0:0:0:
102,241,161517,1,0,0:0:0:0:
152,96,161688,2,0,P|198:102|235:132,1,96
236,132,162031,1,8,0:0:0:0:
312,264,162203,1,0,0:0:0:0:
312,263,162374,2,0,P|370:240|430:256,1,128,2|0,0:0|0:0,0:0:0:0:
376,324,162888,1,2,0:0:0:0:
288,344,163060,2,0,P|233:274|241:235,1,128,2|8,0:0|0:0,0:0:0:0:
204,80,163574,5,0,0:0:0:0:
204,80,163660,1,0,0:0:0:0:
204,80,163746,2,0,L|140:148,1,64,2|0,0:1|0:0,0:0:0:0:
172,256,164088,1,0,0:0:0:0:
92,172,164260,1,2,0:0:0:0:
100,328,164431,2,0,L|56:264,1,64,2|0,0:0|0:0,0:0:0:0:
217,210,164774,2,0,L|172:256,1,64,8|0,0:0|0:0,0:0:0:0:
352,336,165117,6,0,L|332:228,1,83.9999974365235,2|0,0:0|0:0,0:0:0:0:
376,67,165460,2,0,P|325:104|264:113,1,125.999996154785,10|0,0:0|0:0,0:0:0:0:
180,63,165803,2,0,P|168:124|192:181,1,125.999996154785,10|0,0:0|0:0,0:0:0:0:
264,220,166146,1,14,1:2:0:0:
376,67,166317,1,10,1:2:0:0:
184,44,166488,6,0,P|124:60|80:116,1,103.999995239258,6|0,0:1|0:0,0:0:0:0:
80,240,166831,1,8,0:0:0:0:
140,176,167003,2,0,P|90:157|39:162,1,103.999995239258
268,60,167346,2,0,P|264:112|280:160,1,103.999995239258,0|8,1:0|0:0,0:0:0:0:
280,160,167603,1,0,0:0:0:0:
280,160,167688,1,0,0:0:0:0:
376,284,167860,5,2,0:3:0:0:
420,136,168031,1,0,0:0:0:0:
376,284,168203,2,0,P|276:308|184:224,1,207.999990478516,8|2,0:0|0:3,0:0:0:0:
116,312,168717,1,0,1:0:0:0:
96,159,168888,2,0,P|105:109|133:65,1,103.999995239258,8|0,0:0|0:0,0:0:0:0:
320,52,169231,5,4,0:0:0:0:
176,136,169403,1,0,0:0:0:0:
328,60,169574,1,8,0:0:0:0:
328,60,169660,1,0,0:0:0:0:
328,60,169746,2,0,P|384:104|400:148,1,103.999995239258
376,288,170088,1,0,1:0:0:0:
284,188,170260,1,8,0:0:0:0:
208,307,170431,2,0,B|209:256|153:228|153:228|152:172|214:152,1,207.999990478516
356,88,170946,6,0,P|367:145|343:199,1,120,8|0,0:0|0:0,0:0:0:0:
230,241,171288,6,0,L|214:152,1,90.0000034332277,2|0,0:3|0:0,0:0:0:0:
48,64,171631,6,0,P|59:132|116:192,1,143.999995605469,8|0,0:0|0:0,0:0:0:0:
192,260,171974,6,0,L|196:168,1,80,2|0,1:0|0:0,0:0:0:0:
204,272,172317,2,0,L|208:372,1,80,0|0,1:0|0:0,0:0:0:0:
296,196,172660,2,0,L|284:96,1,80,0|0,1:0|0:0,0:0:0:0:
344,264,173003,2,0,L|364:368,1,80,0|0,1:0|0:0,0:0:0:0:
214,151,173346,6,0,L|118:119,1,80,4|0,1:2|0:0,0:0:0:0:
344,264,173688,2,0,L|444:280,1,80,0|0,1:0|0:0,0:0:0:0:
160,280,174031,2,0,L|68:352,1,80,0|0,1:0|0:0,0:0:0:0:
280,80,174374,2,0,L|321:11,1,80,0|0,1:0|0:0,0:0:0:0:
364,296,174717,5,2,1:1:0:0:
392,180,174888,1,0,1:2:0:0:
324,80,175060,1,0,1:2:0:0:
212,40,175231,1,0,1:2:0:0:
414,175,175403,5,2,1:1:0:0:
336,60,175574,1,0,1:2:0:0:
216,36,175746,1,0,1:2:0:0:
104,76,175917,1,0,1:2:0:0:
344,40,176088,5,2,3:1:0:0:
388,45,176174,1,0,3:2:0:0:
425,65,176260,1,0,3:2:0:0:
454,97,176346,1,0,3:2:0:0:
464,140,176431,1,2,3:2:0:0:
464,184,176517,1,0,3:2:0:0:
444,224,176603,1,0,3:2:0:0:
416,256,176688,1,0,3:2:0:0:
372,268,176774,5,2,3:2:0:0:
328,263,176860,1,0,3:2:0:0:
291,243,176946,1,0,3:2:0:0:
262,211,177032,1,0,3:2:0:0:
252,168,177117,1,2,3:2:0:0:
252,124,177203,1,0,3:2:0:0:
264,84,177288,2,0,P|276:74|316:60,1,40,0|0,3:0|3:0,3:0:0:0:
80,104,177803,6,0,P|144:112|208:84,1,120,2|0,0:3|0:0,0:0:0:0:
298,64,178146,6,0,B|342:56|342:56|278:92|274:156,1,155.999992858887,2|0,0:1|0:0,0:0:0:0:
240,228,178488,6,0,P|272:280|296:196,1,180.000006866455,2|0,1:2|0:0,0:0:0:0:
146,151,178831,6,0,L|152:292,1,120.000004577637,4|0,1:1|0:0,0:0:0:0:
151,270,179088,1,0,0:0:0:0:
151,270,179174,1,8,0:0:0:0:
275,140,179346,1,0,0:0:0:0:
360,292,179517,1,0,0:0:0:0:
360,292,179603,1,0,0:0:0:0:
360,292,179688,2,0,P|424:300|468:292,1,103.999995239258,0|8,1:0|0:0,0:0:0:0:
408,192,180031,1,0,0:0:0:0:
220,96,180203,5,0,0:0:0:0:
352,68,180374,1,0,0:0:0:0:
152,200,180546,2,0,P|96:220|56:208,1,103.999995239258,8|0,0:0|0:0,0:0:0:0:
220,96,180888,2,0,P|276:76|316:88,1,103.999995239258,0|0,0:0|1:0,0:0:0:0:
432,172,181231,2,0,L|404:60,1,103.999995239258,8|0,0:0|0:0,0:0:0:0:
421,307,181574,5,0,0:0:0:0:
421,307,181660,1,0,0:0:0:0:
421,307,181746,1,0,0:0:0:0:
360,180,181917,1,8,0:0:0:0:
288,316,182088,1,0,0:0:0:0:
204,180,182260,1,0,0:0:0:0:
204,180,182346,1,0,0:0:0:0:
204,180,182431,1,0,1:0:0:0:
224,316,182603,1,8,0:0:0:0:
76,272,182774,1,0,0:0:0:0:
204,180,182946,6,0,P|152:132|108:120,1,103.999995239258
272,80,183288,1,8,0:0:0:0:
272,80,183460,2,0,L|336:68,2,51.999997619629
428,52,183803,1,0,1:0:0:0:
488,244,183974,2,0,P|412:228|376:292,1,155.999992858887,8|0,0:0|0:0,0:0:0:0:
368,308,184317,6,0,L|276:224,1,103.999995239258
124,232,184660,1,8,0:0:0:0:
212,104,184831,2,0,P|184:44|140:16,1,103.999995239258
344,148,185174,1,0,1:0:0:0:
344,148,185260,1,0,0:0:0:0:
344,148,185346,2,0,P|373:136|404:120,1,51.999997619629,8|0,0:0|0:0,0:0:0:0:
424,228,185517,1,0,0:0:0:0:
288,304,185688,2,0,P|200:264|268:208,1,207.999990478516,0|8,0:0|0:0,0:0:0:0:
120,88,186203,1,0,0:0:0:0:
111,260,186374,5,0,0:0:0:0:
224,112,186546,1,0,1:0:0:0:
24,184,186717,1,8,0:0:0:0:
236,208,186888,1,0,0:0:0:0:
72,116,187060,6,0,P|108:176|108:272,1,155.999992858887
104,284,187403,1,8,0:0:0:0:
336,264,187574,2,0,P|276:316|180:312,1,155.999992858887
176,316,187917,1,0,1:0:0:0:
24,184,188088,1,8,0:0:0:0:
24,184,188174,1,0,0:0:0:0:
24,184,188260,2,0,B|70:179|126:199,1,103.999995239258
152,64,188603,1,0,0:0:0:0:
361,61,188774,6,0,B|396:92|396:92|398:149,1,103.999995239258,8|0,0:0|0:0,0:0:0:0:
360,332,189117,2,0,L|312:220,1,103.999995239258,0|0,0:0|1:0,0:0:0:0:
151,61,189460,1,8,3:2:0:0:
144,104,189546,1,0,3:2:0:0:
148,144,189631,1,0,3:2:0:0:
168,180,189717,1,0,3:2:0:0:
192,216,189803,6,0,P|276:236|320:220,1,103.999995239258,6|0,3:1|0:0,0:0:0:0:
416,184,190146,1,8,0:0:0:0:
312,68,190317,1,0,0:0:0:0:
191,237,190488,2,0,P|244:307|290:232,1,207.999990478516,0|8,0:0|0:0,0:0:0:0:
204,72,191003,5,0,0:0:0:0:
172,248,191174,1,0,0:0:0:0:
88,128,191346,1,0,0:0:0:0:
290,232,191517,2,0,P|320:191|327:140,1,103.999995239258,8|0,0:0|0:0,0:0:0:0:
254,317,191860,2,0,P|305:320|351:297,1,103.999995239258,0|0,0:0|1:0,0:0:0:0:
440,240,192203,5,8,0:0:0:0:
360,92,192374,1,0,0:0:0:0:
264,260,192546,1,4,0:0:0:0:
264,260,192631,1,0,0:0:0:0:
264,260,192717,1,0,0:0:0:0:
192,104,192888,1,8,0:0:0:0:
348,188,193060,1,0,0:0:0:0:
196,284,193231,5,4,0:0:0:0:
156,292,193317,1,0,0:0:0:0:
116,288,193403,1,0,1:0:0:0:
40,148,193574,1,8,0:0:0:0:
200,36,193746,1,0,0:0:0:0:
264,260,193917,6,0,P|289:184|278:107,1,155.999992858887,0|0,0:1|0:0,0:0:0:0:
356,56,194260,2,0,P|377:132|357:185,1,103.999995239258,8|0,0:0|0:0,0:0:0:0:
376,328,194603,2,0,L|344:208,1,103.999995239258,0|0,0:0|1:0,0:0:0:0:
176,40,194946,2,0,L|144:160,1,103.999995239258,8|0,0:0|0:0,0:0:0:0:
300,48,195288,5,4,1:2:0:0:
288,344,195631,1,0,1:0:0:0:
104,224,195974,1,0,1:0:0:0:
264,124,196317,1,0,1:0:0:0:
264,124,196488,1,0,1:0:0:0:
324,200,196660,5,4,1:2:0:0:
300,48,196831,1,0,1:2:0:0:
288,344,197003,1,0,1:0:0:0:
180,260,197174,1,0,1:0:0:0:
324,268,197346,5,0,1:0:0:0:
104,224,197517,1,0,1:0:0:0:
324,200,197688,1,0,1:0:0:0:
172,92,197860,1,0,1:2:0:0:
328,96,198031,5,4,1:2:0:0:
248,264,198203,1,0,1:0:0:0:
400,236,198374,1,0,1:0:0:0:
240,148,198546,1,0,1:2:0:0:
376,276,198717,5,4,1:2:0:0:
172,324,198888,1,0,1:0:0:0:
396,136,199060,1,4,1:2:0:0:
452,312,199231,6,0,B|480:360|480:360|532:312|528:252|472:212,1,207.999990478516,4|0,1:2|1:0,1:0:0:0:
396,136,199746,1,0,1:0:0:0:
328,236,199917,1,0,1:0:0:0:
255,119,200088,2,0,P|248:95|246:69,1,51.999997619629,0|0,1:0|1:0,1:0:0:0:
327,236,200260,2,0,P|317:259|300:279,1,51.999997619629,0|0,1:0|1:0,1:0:0:0:
396,135,200431,6,0,P|502:139|423:211,1,272.000005187988,8|4,1:2|3:1,0:0:0:0:
152,108,212088,6,0,L|156:187,1,80
288,88,212774,1,0,0:0:0:0:
268,200,213117,38,0,P|214:177|155:186,1,120
256,276,213803,2,0,P|313:266|343:216,1,120
152,108,214488,6,0,L|144:52,1,40
263,161,214831,2,0,L|271:217,1,40
376,96,215174,1,0,0:0:0:0:
144,140,215517,1,0,0:0:0:0:
144,140,215688,1,0,0:0:0:0:
144,140,215860,38,0,L|136:188,1,40
248,240,216203,1,0,0:0:0:0:
248,240,216374,1,0,0:0:0:0:
248,240,216546,2,0,L|240:288,1,40
344,148,216888,1,0,0:0:0:0:
344,148,217060,6,0,P|281:101|203:97,1,158.399999516602
338,226,217917,2,0,P|338:187|343:147,1,80
207,17,218603,38,0,P|208:56|203:96,1,80
195,177,219117,2,0,P|244:232|302:188,1,160
305,167,219888,1,0,0:0:0:0:
305,167,219974,6,0,B|310:125|310:125|296:84|296:84|305:39,1,120
400,64,220660,2,0,L|376:112,1,40
408,208,221003,2,0,L|432:160,1,40
456,280,221346,38,0,L|451:359,1,80
304,240,221860,6,0,P|345:236|385:255,1,80
204,321,222374,38,0,P|240:336|280:332,1,80
212,120,223060,6,0,P|142:131|153:201,1,155.999992858887,2|0,0:3|0:0,0:0:0:0:
203,320,223403,6,0,P|292:300|287:209,1,198.000001888275,2|0,0:1|0:0,0:0:0:0:
244,49,223746,6,0,P|140:90|152:200,1,240,6|0,1:2|0:0,0:0:0:0:
388,295,224088,6,0,P|417:244|421:184,1,120.000004577637,4|0,1:1|0:0,0:0:0:0:
421,184,224346,1,0,0:0:0:0:
421,184,224431,1,8,0:0:0:0:
286,70,224603,1,0,0:0:0:0:
240,220,224774,2,0,L|196:352,1,120.000004577637,0|0,0:0|1:0,0:0:0:0:
64,218,225117,1,8,0:0:0:0:
64,218,225288,1,0,0:0:0:0:
250,124,225460,5,0,0:0:0:0:
112,136,225631,1,0,0:0:0:0:
299,258,225803,1,8,0:0:0:0:
299,258,225974,1,0,0:0:0:0:
344,126,226146,1,0,0:0:0:0:
344,126,226317,1,0,1:0:0:0:
160,180,226488,1,8,0:0:0:0:
250,297,226660,1,0,0:0:0:0:
160,180,226831,6,0,B|115:129|115:129|60:130,1,120.000004577637
352,204,227174,1,8,0:0:0:0:
262,87,227346,1,0,0:0:0:0:
352,204,227517,2,0,B|397:255|397:255|452:254,1,120.000004577637,0|0,0:0|1:0,0:0:0:0:
448,254,227774,1,0,0:0:0:0:
448,254,227860,1,8,0:0:0:0:
408,140,228031,6,0,P|323:118|308:268,1,240.000009155274
408,140,228546,2,0,P|352:76|308:56,1,120.000004577637,8|0,0:0|0:0,0:0:0:0:
180,32,228888,1,0,0:0:0:0:
321,60,229060,1,0,1:0:0:0:
168,232,229231,2,0,P|150:158|166:102,1,120.000004577637,8|0,0:0|0:0,0:0:0:0:
352,121,229574,6,0,P|321:220|234:163,1,240.000009155274,0|8,0:0|0:0,0:0:0:0:
424,56,230088,2,0,P|464:166|419:274,1,240.000009155274,0|0,0:0|1:0,0:0:0:0:
188,276,230603,1,8,0:0:0:0:
316,160,230774,1,0,0:0:0:0:
108,113,230946,2,0,P|165:95|224:86,1,120.000004577637
224,86,231203,1,0,0:0:0:0:
224,86,231288,1,8,0:0:0:0:
403,111,231460,5,0,0:0:0:0:
351,270,231631,1,0,0:0:0:0:
264,197,231803,1,0,1:0:0:0:
447,218,231974,1,8,0:0:0:0:
340,364,232146,1,0,0:0:0:0:
160,331,232317,6,0,B|128:352|128:352|112:292|156:248|156:248|155:206|105:166,1,240.000009155274,0|8,0:0|0:0,0:0:0:0:
67,76,232831,2,0,P|13:161|113:172,1,240.000009155274,0|0,0:0|1:0,0:0:0:0:
267,97,233346,2,0,P|357:52|358:153,1,240.000009155274,8|0,0:0|0:0,0:0:0:0:
238,272,233860,1,0,0:0:0:0:
197,156,234031,6,0,P|179:100|192:42,1,120.000004577637,8|0,0:0|0:0,0:0:0:0:
348,80,234374,1,0,0:0:0:0:
348,80,234460,1,0,0:0:0:0:
348,80,234546,1,0,1:0:0:0:
408,212,234717,1,8,0:0:0:0:
472,72,234888,1,0,0:0:0:0:
418,229,235060,5,6,0:1:0:0:
290,339,235231,1,0,0:0:0:0:
268,196,235403,1,8,0:0:0:0:
368,108,235574,1,0,0:0:0:0:
500,112,235746,2,0,B|488:180|448:228,1,120.000004577637,0|0,0:0|1:0,0:0:0:0:
296,192,236088,1,8,0:0:0:0:
362,319,236260,1,0,0:0:0:0:
200,256,236431,5,0,0:0:0:0:
388,220,236603,1,0,0:0:0:0:
280,64,236774,2,0,P|220:152|251:205,1,180.000006866455,8|0,0:0|0:0,0:0:0:0:
203,336,237117,2,0,P|253:305|272:250,1,120.000004577637,0|0,0:0|1:0,0:0:0:0:
51,199,237460,1,8,0:0:0:0:
200,256,237631,1,0,0:0:0:0:
184,108,237802,5,4,0:0:0:0:
200,256,237974,1,0,0:0:0:0:
184,108,238146,1,8,0:0:0:0:
325,43,238317,1,0,0:0:0:0:
360,196,238488,1,0,0:0:0:0:
280,344,238660,1,0,1:0:0:0:
188,204,238831,6,0,P|155:192|124:160,1,60.0000022888184,8|0,0:0|0:0,0:0:0:0:
244,112,239003,2,0,P|316:144|264:272,1,240.000009155274
244,112,239517,2,0,P|324:96|380:112,1,120.000004577637,10|0,0:0|0:0,0:0:0:0:
237,342,239860,5,0,0:0:0:0:
200,312,239946,1,0,0:0:0:0:
176,272,240031,1,0,1:0:0:0:
168,224,240117,1,0,0:0:0:0:
171,176,240203,2,0,P|235:122|303:171,1,180.000006866455,8|0,0:0|0:2,0:0:0:0:
311,221,240546,5,4,1:2:0:0:
96,220,240717,1,0,1:2:0:0:
237,304,240888,2,0,P|289:275|312:221,1,120.000004577637,0|0,1:2|1:2,1:2:0:0:
242,23,241231,2,0,P|134:103|194:187,1,240.000009155274,0|0,1:2|1:2,1:2:0:0:
378,270,241746,1,0,1:2:0:0:
378,270,241917,6,0,P|436:266|484:231,1,120.000004577637,0|0,1:2|1:2,1:2:0:0:
346,104,242260,2,0,P|269:116|220:181,1,120.000004577637,0|0,1:2|1:2,1:2:0:0:
90,217,242603,1,0,1:2:0:0:
239,142,242774,1,0,1:2:0:0:
54,249,242946,2,0,P|126:281|202:253,1,120.000004577637,0|0,1:2|1:2,1:2:0:0:
356,224,243288,5,4,1:2:0:0:
196,176,243460,1,0,1:2:0:0:
352,112,243631,1,0,1:2:0:0:
152,176,243803,1,0,1:2:0:0:
252,72,243974,5,4,1:2:0:0:
220,252,244146,1,0,1:2:0:0:
68,120,244317,1,4,1:2:0:0:
268,55,244488,2,0,P|363:107|313:204,1,240.000009155274,4|0,1:2|1:0,0:0:0:0:
208,224,245003,1,0,1:2:0:0:
116,284,245174,1,0,1:2:0:0:
313,204,245346,5,0,3:2:0:0:
360,208,245431,1,0,3:2:0:0:
404,232,245517,1,0,3:2:0:0:
440,272,245603,1,0,3:2:0:0:
464,328,245688,1,8,3:2:0:0:
132,124,246031,6,0,P|200:72|256:60,1,120.000004577637,6|0,1:1|0:3,0:3:0:0:
231,62,246288,1,0,0:0:0:0:
231,62,246374,1,8,0:0:0:0:
391,101,246546,1,0,0:0:0:0:
272,212,246717,1,0,0:0:0:0:
429,257,246888,1,0,1:0:0:0:
429,257,247060,2,0,P|352:308|308:320,1,120.000004577637,8|0,0:0|0:0,0:0:0:0:
208,292,247403,5,0,0:0:0:0:
178,134,247574,1,0,0:0:0:0:
101,279,247746,1,8,0:0:0:0:
240,196,247917,1,0,0:0:0:0:
56,144,248088,1,0,0:0:0:0:
248,61,248260,1,0,1:0:0:0:
248,61,248346,1,0,0:0:0:0:
248,61,248431,1,8,0:0:0:0:
402,111,248603,1,0,0:0:0:0:
248,61,248774,6,0,P|184:100|142:147,1,120.000004577637
371,148,249117,1,8,0:0:0:0:
352,311,249288,1,0,0:0:0:0:
371,148,249460,2,0,P|308:140|245:156,1,120.000004577637,0|0,0:0|1:0,0:0:0:0:
253,152,249717,1,0,0:0:0:0:
253,152,249803,5,8,0:0:0:0:
193,301,249974,1,0,0:0:0:0:
68,200,250146,2,0,P|49:257|36:316,2,120.000004577637,0|0|8,0:0|0:0|0:0,0:0:0:0:
224,224,250660,1,0,0:0:0:0:
364,156,250831,2,0,P|314:122|262:92,1,120.000004577637,0|0,0:0|1:0,0:0:0:0:
262,92,251088,1,0,0:0:0:0:
262,92,251174,1,8,0:0:0:0:
304,284,251346,1,0,0:0:0:0:
306,287,251517,6,0,P|359:346|408:284,1,180.000006866455
407,283,251860,1,8,0:0:0:0:
292,116,252031,2,0,P|228:112|308:180,1,240.000009155274,0|0,0:0|1:0,0:0:0:0:
408,284,252546,2,0,L|455:246,1,60.0000022888184,8|0,0:0|0:0,0:0:0:0:
392,128,252717,2,0,L|408:60,1,60.0000022888184
227,57,252888,2,0,P|207:77|295:101,1,180.000006866455
284,231,253231,6,0,P|301:175|292:116,1,120.000004577637,8|0,0:0|0:0,0:0:0:0:
176,88,253574,1,0,0:0:0:0:
132,240,253746,1,0,1:0:0:0:
76,60,253917,1,8,0:0:0:0:
0,208,254088,1,0,0:0:0:0:
220,220,254260,5,0,0:0:0:0:
220,220,254431,1,0,0:0:0:0:
168,368,254603,1,8,0:0:0:0:
368,280,254774,1,0,0:0:0:0:
368,280,254946,1,0,0:0:0:0:
452,148,255117,1,0,1:0:0:0:
288,8,255288,5,8,0:0:0:0:
264,36,255374,1,0,0:0:0:0:
248,68,255460,1,0,0:0:0:0:
236,104,255546,1,0,0:0:0:0:
232,140,255631,2,0,P|248:192|296:112,1,180.000006866455
408,172,255974,6,0,B|395:105|395:105|364:63,2,120.000004577637,8|0|0,0:0|0:0|0:0,0:0:0:0:
316,308,256488,1,0,1:0:0:0:
151,323,256660,1,8,3:2:0:0:
136,276,256746,1,0,3:2:0:0:
140,228,256831,1,0,3:2:0:0:
160,184,256917,1,0,3:2:0:0:
196,152,257003,6,0,P|248:132|312:160,1,120.000004577637,6|0,3:1|0:3,0:0:0:0:
408,260,257346,1,8,0:0:0:0:
460,112,257517,1,0,0:0:0:0:
231,68,257688,2,0,P|284:41|344:44,1,120.000004577637,0|0,0:0|1:0,0:0:0:0:
144,172,258031,1,8,0:0:0:0:
88,68,258203,1,0,0:0:0:0:
80,224,258374,5,0,0:0:0:0:
172,96,258546,1,0,0:0:0:0:
24,148,258717,1,8,0:0:0:0:
172,200,258888,1,0,0:0:0:0:
72,79,259060,2,0,P|127:57|186:48,1,120.000004577637,0|0,0:0|1:0,0:0:0:0:
332,104,259403,5,8,0:0:0:0:
186,47,259574,1,0,0:0:0:0:
328,196,259746,2,0,P|380:168|423:126,1,120.000004577637,4|0,0:0|0:0,0:0:0:0:
200,192,260088,1,8,0:0:0:0:
52,144,260260,1,0,0:0:0:0:
116,324,260431,2,0,L|268:328,1,120.000004577637,0|0,0:0|1:0,0:0:0:0:
284,328,260688,1,0,0:0:0:0:
332,328,260774,5,8,0:0:0:0:
372,232,260946,2,0,P|336:136|244:204,1,240.000009155274
452,220,261460,2,0,P|448:156|416:104,1,120.000004577637,8|0,0:0|0:0,0:0:0:0:
172,152,261803,2,0,P|172:224|204:276,1,120.000004577637,0|0,0:0|1:1,0:0:0:0:
425,114,262146,1,8,0:0:0:0:
240,84,262317,2,0,L|249:135,1,51.999997619629,0|0,0:0|3:0,0:0:0:0:
268,240,262488,5,4,1:2:0:0:
380,112,262831,1,0,1:0:0:0:
216,112,263174,1,0,1:0:0:0:
272,248,263517,1,0,1:2:0:0:
272,248,263688,1,0,1:0:0:0:
101,298,263860,6,0,P|152:311|204:312,1,103.999995239258,4|0,1:2|1:2,1:2:0:0:
88,108,264203,1,0,1:2:0:0:
32,232,264374,1,0,1:2:0:0:
216,111,264546,2,0,P|205:61|176:18,1,103.999995239258,0|0,1:2|1:2,1:2:0:0:
64,204,264888,2,0,P|74:254|103:297,1,103.999995239258,0|0,1:2|1:2,1:2:0:0:
232,176,265231,5,4,1:2:0:0:
352,100,265403,1,0,1:0:0:0:
372,228,265574,1,0,1:0:0:0:
232,88,265746,1,0,1:0:0:0:
96,200,265917,5,4,1:2:0:0:
272,224,266089,1,0,1:0:0:0:
108,112,266260,1,4,1:2:0:0:
404,112,266431,2,0,B|464:172|420:256|420:256|386:217,1,207.999990478516,4|0,1:2|1:2,0:0:0:0:
172,208,266946,1,0,1:3:0:0:
308,76,267117,1,0,1:3:0:0:
108,112,267288,5,0,3:2:0:0:
85,162,267373,1,0,3:2:0:0:
86,216,267459,1,0,3:2:0:0:
103,264,267545,1,0,3:2:0:0:
137,297,267631,1,8,3:2:0:0:
348,84,267974,5,6,1:0:0:0:
208,76,268146,1,0,0:0:0:0:
340,16,268317,1,8,0:0:0:0:
212,156,268489,1,0,0:0:0:0:
348,252,268660,1,0,0:0:0:0:
380,88,268831,1,0,1:0:0:0:
248,192,269003,1,8,0:0:0:0:
208,76,269174,1,0,0:0:0:0:
252,276,269346,5,0,0:0:0:0:
116,116,269517,1,0,0:0:0:0:
76,108,269603,1,0,0:0:0:0:
36,112,269688,1,8,0:0:0:0:
44,260,269860,2,0,P|145:286|153:181,1,240.000009155274,0|0,0:0|1:0,0:0:0:0:
346,147,270374,2,0,P|311:99|256:80,1,120.000004577637,8|0,0:0|0:0,0:0:0:0:
332,316,270717,5,0,0:0:0:0:
428,180,270888,1,0,0:0:0:0:
300,216,271060,1,8,0:0:0:0:
400,88,271231,2,0,P|365:40|309:20,1,120.000004577637
144,116,271574,2,0,P|192:122|172:77,2,120.000004577637,0|8|0,1:0|0:0|0:0,0:0:0:0:
136,236,272088,1,0,0:0:0:0:
296,176,272260,2,0,L|360:196,1,60.0000022888184
424,172,272431,5,8,0:0:0:0:
344,32,272603,1,0,0:0:0:0:
344,32,272688,1,0,0:0:0:0:
344,32,272774,2,0,P|272:32|224:56,1,120.000004577637,0|0,0:0|1:0,0:0:0:0:
176,200,273117,1,8,0:0:0:0:
84,76,273288,1,0,0:0:0:0:
80,280,273460,6,0,P|149:357|207:271,1,240.000009155274,0|8,0:0|0:0,0:0:0:0:
216,96,273974,1,0,0:0:0:0:
284,272,274146,1,0,0:0:0:0:
308,88,274317,1,0,1:0:0:0:
156,200,274488,1,8,0:0:0:0:
392,144,274660,2,0,L|452:164,2,60.0000022888184
356,308,275003,5,0,0:0:0:0:
208,264,275174,1,8,0:0:0:0:
356,308,275346,1,0,0:0:0:0:
184,256,275517,1,0,0:0:0:0:
356,308,275688,1,0,1:0:0:0:
160,248,275860,1,8,0:0:0:0:
356,308,276031,1,0,0:0:0:0:
136,240,276203,6,0,P|88:168|168:136,1,180.000006866455
356,96,276546,2,0,P|357:182|272:165,1,180.000006866455,8|0,0:0|0:0,0:0:0:0:
224,94,276888,1,0,0:0:0:0:
368,72,277060,1,0,1:0:0:0:
452,188,277231,5,8,0:0:0:0:
249,240,277403,2,0,P|190:167|283:179,1,240.000009155274
316,312,277917,1,8,0:0:0:0:
283,179,278088,1,0,0:0:0:0:
227,346,278260,1,0,0:0:0:0:
372,224,278431,1,0,1:0:0:0:
152,248,278603,1,8,0:0:0:0:
396,344,278774,1,0,0:0:0:0:
424,112,278946,6,0,P|340:64|260:56,1,120.000004577637,6|0,0:1|0:0,0:0:0:0:
144,120,279288,2,0,P|184:180|184:224,1,60.0000022888184,8|0,0:2|0:2,0:2:0:0:
212,272,279460,1,0,0:2:0:0:
340,184,279631,1,0,0:0:0:0:
364,300,279803,1,0,1:0:0:0:
440,136,279974,2,0,P|417:107|388:88,1,60.0000022888184,8|0,0:0|0:0,0:0:0:0:
320,56,280146,2,0,P|296:74|278:98,1,60.0000022888184
187,40,280317,2,0,P|134:64|101:114,1,120.000004577637
120,268,280660,5,8,0:0:0:0:
368,324,280831,2,0,P|396:236|276:280,1,240.000009155274,0|0,0:0|1:0,0:0:0:0:
476,292,281346,2,0,P|475:232|447:180,1,120.000004577637,8|0,0:0|0:0,0:0:0:0:
336,88,281688,2,0,L|380:48,1,60.0000022888184
164,120,281860,2,0,L|164:60,1,60.0000022888184
252,84,282031,6,0,L|277:29,1,60.0000022888184,8|0,0:0|0:0,0:0:0:0:
88,168,282203,2,0,P|104:232|160:264,1,120.000004577637
304,316,282546,1,0,1:0:0:0:
348,180,282717,1,8,0:0:0:0:
424,308,282888,2,0,P|480:256|500:208,1,120.000004577637
384,88,283231,1,0,0:0:0:0:
256,156,283402,1,8,0:0:0:0:
208,24,283574,2,0,P|148:72|112:136,1,120.000004577637
252,236,283916,5,0,1:0:0:0:
252,236,284002,1,0,1:0:0:0:
252,236,284088,2,0,L|304:176,1,60.0000022888184,8|0,1:2|1:2,1:2:0:0:
176,320,284259,1,0,1:2:0:0:
88,204,284431,2,0,P|140:140|172:116,1,120.000004577637,4|0,1:1|1:2,1:2:0:0:
276,48,284774,1,0,1:2:0:0:
396,88,284946,1,0,1:2:0:0:
448,284,285117,5,0,1:2:0:0:
396,164,285288,1,0,1:2:0:0:
336,288,285460,1,0,1:2:0:0:
396,140,285631,1,0,1:2:0:0:
468,280,285803,5,0,1:2:0:0:
396,116,285974,1,0,1:2:0:0:
316,300,286146,1,0,1:2:0:0:
184,252,286317,1,0,1:2:0:0:
292,140,286488,5,0,1:2:0:0:
104,176,286660,1,0,1:2:0:0:
220,24,286831,1,0,1:2:0:0:
216,216,287003,1,0,1:2:0:0:
392,312,287174,5,4,1:2:0:0:
316,140,287346,1,0,1:2:0:0:
236,308,287517,1,0,1:2:0:0:
188,128,287689,1,0,1:2:0:0:
324,256,287860,5,4,1:2:0:0:
392,80,288031,1,0,1:2:0:0:
168,268,288203,1,0,1:2:0:0:
148,124,288374,2,0,B|244:68|244:68|224:152|276:228,1,240.000009155274,4|0,1:2|1:2,1:2:0:0:
424,212,288889,37,0,1:2:0:0:
352,73,289060,1,0,1:2:0:0:
256,192,289231,2,0,P|247:221|241:251,1,60.0000022888184,0|0,1:2|1:2,1:2:0:0:
352,73,289403,2,0,P|343:44|329:17,1,60.0000022888184,0|0,1:2|1:2,1:2:0:0:
425,213,289574,5,8,1:2:0:0:
424,212,289917,5,6,3:1:0:0:
372,116,291288,5,0,3:0:0:0:
144,108,292660,5,0,3:0:0:0:
167,304,294031,6,0,P|180:244|176:192,1,90.0000034332277,2|0,0:3|0:3,0:3:0:0:
295,138,294546,2,0,P|339:125|384:124,2,90.0000034332277,0|0|0,0:3|0:3|0:3,0:3:0:0:
395,284,295403,5,0,0:3:0:0:
272,288,296774,5,0,0:0:0:0:
172,220,298146,5,0,0:0:0:0:
408,112,299346,6,0,L|300:132,1,90.0000034332277,2|0,0:3|0:3,0:3:0:0:
204,124,299860,1,0,0:3:0:0:
104,272,300031,6,0,L|212:252,1,90.0000034332277,2|0,0:3|0:3,0:3:0:0:
308,260,300545,1,0,0:3:0:0:
220,60,300888,5,0,0:0:0:0:
252,88,302260,5,0,0:0:0:0:
284,116,303631,5,0,0:0:0:0:
112,220,305003,6,0,L|204:176,1,90.0000034332277,2|0,0:3|0:3,0:3:0:0:
320,176,305517,1,0,0:3:0:0:
420,100,305774,2,0,L|444:192,1,90.0000034332277,0|2,0:3|0:3,0:3:0:0:
228,316,306374,5,0,0:0:0:0:
196,292,307746,5,0,0:0:0:0:
152,152,309117,5,2,0:0:0:0:
281,116,309374,1,0,0:0:0:0:
260,240,309631,1,0,0:0:0:0:
385,122,309888,2,0,P|421:150|449:194,1,90.0000034332277
260,240,310317,6,0,L|173:261,2,90.0000034332277,2|0|0,0:3|0:3|0:3,0:3:0:0:
365,194,311003,1,0,0:3:0:0:
388,84,311174,2,0,L|448:32,1,60.0000022888184,0|0,0:3|0:3,0:3:0:0:
511,162,311517,2,0,L|456:140,1,60.0000022888184,0|2,0:3|0:3,0:3:0:0:
