osu file format v14

[General]
AudioFilename: colorful.mp3
AudioLeadIn: 0
PreviewTime: 88660
Countdown: 0
SampleSet: Soft
StackLeniency: 0.2
Mode: 0
LetterboxInBreaks: 0
WidescreenStoryboard: 0

[Editor]
Bookmarks: 44431
DistanceSpacing: 0.5
BeatDivisor: 4
GridSize: 4
TimelineZoom: 2.300006

[Metadata]
Title:Colorful. (Asterisk DnB Remix)
TitleUnicode:カラフル。(Asterisk DnB Remix)
Artist:Sawai Miku
ArtistUnicode:沢井美空
Creator:Amamiya Yuko
Version:Megumi
Source:冴えない彼女の育てかた
Tags:skystar drum and bass Saenai Heroine no Sodatekata Saekano 冴えカノ How to Raise a Boring Girlfriend
BeatmapID:722224
BeatmapSetID:299454

[Difficulty]
HPDrainRate:6
CircleSize:4.2
OverallDifficulty:8.2
ApproachRate:9.2
SliderMultiplier:1.6
SliderTickRate:1

[Events]
//Background and Video events
0,0,"BG.jpg",0,0
//Break Periods
//Storyboard Layer 0 (Background)
//Storyboard Layer 1 (Fail)
//Storyboard Layer 2 (Pass)
//Storyboard Layer 3 (Foreground)
//Storyboard Sound Samples

[TimingPoints]
546,342.857142857143,4,2,2,70,1,0
19660,-100,4,1,2,70,0,0
21717,-66.6666666666667,4,1,2,70,0,0
22488,-83.3333333333333,4,2,2,70,0,0
44431,-100,4,2,2,70,0,0
60803,-83.3333333333333,4,2,2,70,0,0
65688,-50,4,2,2,70,0,0
66374,-125,4,2,2,70,0,0
76146,-100,4,2,2,70,0,0
89688,-83.3333333333333,4,2,2,70,0,1
92088,-83.3333333333333,4,2,2,90,0,1
92431,-83.3333333333333,4,2,2,70,0,1
92774,-83.3333333333333,4,2,2,90,0,1
93117,-83.3333333333333,4,2,2,70,0,1
100574,-83.3333333333333,4,2,2,70,0,0
100660,-83.3333333333333,4,2,2,70,0,1
103060,-83.3333333333333,4,2,2,90,0,1
103403,-83.3333333333333,4,2,2,70,0,1
103746,-83.3333333333333,4,2,2,90,0,1
104088,-83.3333333333333,4,2,2,70,0,1
111288,-66.6666666666667,4,2,2,70,0,0
111631,-71.4285714285714,4,1,0,80,0,1
111717,-71.4285714285714,4,1,0,60,0,1
111888,-71.4285714285714,4,1,0,40,0,1
112060,-71.4285714285714,4,1,0,50,0,1
112660,-62.5,4,1,0,70,0,1
113088,-62.5,4,1,0,50,0,1
113603,-52.6315789473684,4,1,0,80,0,1
114117,-66.6666666666667,4,1,0,50,0,1
114288,-71.4285714285714,4,1,0,70,0,1
114974,-52.6315789473684,4,1,0,50,0,1
115660,-76.9230769230769,4,1,0,90,0,1
115917,-76.9230769230769,4,1,0,60,0,1
116174,-76.9230769230769,4,1,0,70,0,1
117031,-76.9230769230769,4,1,0,90,0,1
117288,-76.9230769230769,4,1,0,50,0,1
118403,-66.6666666666667,4,1,0,90,0,1
118917,-66.6666666666667,4,1,0,60,0,1
119860,-100,4,1,0,60,0,0
122603,-71.4285714285714,4,1,0,80,0,1
122774,-71.4285714285714,4,1,0,60,0,1
122860,-71.4285714285714,4,1,0,40,0,1
123117,-71.4285714285714,4,1,0,50,0,1
123631,-71.4285714285714,4,1,0,80,0,1
123974,-71.4285714285714,4,1,0,50,0,1
124660,-71.4285714285714,4,1,0,90,0,1
125174,-71.4285714285714,4,1,0,50,0,1
125346,-71.4285714285714,4,1,0,80,0,1
125517,-71.4285714285714,4,1,0,60,0,1
125774,-66.6666666666667,4,1,0,70,0,1
126203,-76.9230769230769,4,1,0,90,0,1
126631,-76.9230769230769,4,1,0,50,0,1
127831,-100,4,1,0,60,0,1
129546,-100,4,1,0,90,0,1
129717,-100,4,1,0,60,0,1
129888,-100,4,1,0,90,0,1
130146,-100,4,1,0,60,0,1
130231,-100,4,1,0,90,0,1
130403,-100,4,1,0,60,0,1
130574,-100,4,1,0,90,0,1
130746,-100,4,1,0,60,0,1
133231,-100,4,1,2,60,0,0
133488,-100,4,2,2,60,0,0
150031,-83.3333333333333,4,2,2,60,0,0
153974,-83.3333333333333,4,2,2,60,0,0
154831,-58.8235294117647,4,2,2,60,0,0
155517,-125,4,2,2,70,0,0
165288,-100,4,2,2,70,0,0
177717,-100,4,2,0,40,0,0
178831,-83.3333333333333,4,2,2,70,0,1
181231,-83.3333333333333,4,2,2,90,0,1
181574,-83.3333333333333,4,2,2,70,0,1
181917,-83.3333333333333,4,2,2,90,0,1
182260,-83.3333333333333,4,2,2,70,0,1
189717,-83.3333333333333,4,2,2,70,0,0
189803,-83.3333333333333,4,2,2,70,0,1
192203,-83.3333333333333,4,2,2,90,0,1
192546,-83.3333333333333,4,2,2,70,0,1
192888,-83.3333333333333,4,2,2,90,0,1
193231,-83.3333333333333,4,2,2,70,0,1
200431,-66.6666666666667,4,2,2,60,0,0
200774,-200,4,2,2,40,0,0
210374,-166.666666666667,4,2,2,30,0,0
212088,-200,4,2,8,50,0,0
212431,-200,4,2,9,60,0,0
212774,-200,4,2,13,70,0,0
213117,-200,4,2,12,100,0,0
213460,-200,4,2,11,20,0,0
213631,-200,4,2,11,100,0,0
213803,-200,4,2,12,100,0,0
214146,-200,4,2,11,20,0,0
214317,-200,4,2,11,100,0,0
214488,-200,4,2,12,100,0,0
214660,-200,4,2,11,100,0,0
214831,-200,4,2,13,100,0,0
215003,-200,4,2,0,5,0,0
215174,-200,4,2,12,100,0,0
215517,-200,4,2,10,100,0,0
215688,-200,4,2,11,100,0,0
215860,-200,4,2,12,100,0,0
216031,-200,4,2,0,5,0,0
216203,-200,4,2,10,100,0,0
216374,-200,4,2,11,100,0,0
216546,-200,4,2,12,100,0,0
216717,-200,4,2,0,5,0,0
216888,-200,4,2,16,100,0,0
217060,-200,4,2,14,100,0,0
217403,-200,4,2,14,20,0,0
217574,-200,4,2,13,100,0,0
217917,-200,4,2,12,100,0,0
218260,-200,4,2,11,100,0,0
218603,-200,4,2,9,100,0,0
218946,-200,4,2,13,100,0,0
219460,-200,4,2,13,20,0,0
219803,-200,4,2,13,100,0,0
219974,-200,4,2,12,100,0,0
220317,-200,4,2,12,20,0,0
220488,-200,4,2,11,100,0,0
220660,-200,4,2,10,100,0,0
221174,-200,4,2,11,100,0,0
221346,-200,4,2,12,100,0,0
221688,-200,4,2,11,100,0,0
221860,-200,4,2,12,100,0,0
222031,-200,4,2,16,100,0,0
222374,-200,4,2,13,100,0,0
222717,-1000,4,2,0,5,0,0
223060,-200,4,2,0,50,0,0
223746,-200,4,2,20,100,0,0
224088,-83.3333333333333,4,2,2,70,0,1
226488,-83.3333333333333,4,2,2,90,0,1
226831,-83.3333333333333,4,2,2,70,0,1
227174,-83.3333333333333,4,2,2,90,0,1
227517,-83.3333333333333,4,2,2,70,0,1
234974,-83.3333333333333,4,2,2,70,0,0
235060,-83.3333333333333,4,2,2,70,0,1
237460,-83.3333333333333,4,2,2,90,0,1
237803,-83.3333333333333,4,2,2,70,0,1
238146,-83.3333333333333,4,2,2,90,0,1
238488,-83.3333333333333,4,2,2,70,0,1
245688,-200,4,2,2,70,0,0
246031,-83.3333333333333,4,2,2,70,0,1
248431,-83.3333333333333,4,2,2,90,0,1
248774,-83.3333333333333,4,2,2,70,0,1
249117,-83.3333333333333,4,2,2,90,0,1
249460,-83.3333333333333,4,2,2,70,0,1
256917,-83.3333333333333,4,2,2,70,0,0
257003,-83.3333333333333,4,2,2,70,0,1
259403,-83.3333333333333,4,2,2,90,0,1
259746,-83.3333333333333,4,2,2,70,0,1
260088,-83.3333333333333,4,2,2,90,0,1
260431,-83.3333333333333,4,2,2,70,0,1
267631,-83.3333333333333,4,2,2,70,0,0
267974,-71.4285714285714,4,1,0,80,0,1
268060,-71.4285714285714,4,1,0,60,0,1
268231,-71.4285714285714,4,1,0,40,0,1
268403,-71.4285714285714,4,1,0,50,0,1
269003,-62.5,4,1,0,70,0,1
269431,-62.5,4,1,0,50,0,1
269946,-55.5555555555556,4,1,0,80,0,1
270460,-66.6666666666667,4,1,0,50,0,1
270631,-71.4285714285714,4,1,0,70,0,1
271146,-62.5,4,1,0,70,0,1
271317,-50,4,1,0,50,0,1
272003,-76.9230769230769,4,1,0,90,0,1
272260,-76.9230769230769,4,1,0,60,0,1
272517,-76.9230769230769,4,1,0,70,0,1
273374,-76.9230769230769,4,1,0,90,0,1
273631,-76.9230769230769,4,1,0,50,0,1
274746,-66.6666666666667,4,1,0,90,0,1
275260,-66.6666666666667,4,1,0,60,0,1
276203,-100,4,1,0,60,0,0
278946,-71.4285714285714,4,1,0,80,0,1
279117,-71.4285714285714,4,1,0,60,0,1
279203,-71.4285714285714,4,1,0,40,0,1
279460,-71.4285714285714,4,1,0,50,0,1
279974,-71.4285714285714,4,1,0,80,0,1
280317,-71.4285714285714,4,1,0,50,0,1
281003,-50,4,1,0,90,0,1
281517,-71.4285714285714,4,1,0,50,0,1
281688,-71.4285714285714,4,1,0,80,0,1
281860,-71.4285714285714,4,1,0,60,0,1
282117,-71.4285714285714,4,1,0,70,0,1
282546,-58.8235294117647,4,1,0,80,0,1
283231,-50,4,1,0,90,0,1
283917,-50,4,1,0,30,0,1
284088,-50,4,1,1,40,0,1
284260,-100,4,1,0,60,0,1
285889,-100,4,1,0,90,0,1
286060,-100,4,1,0,60,0,1
286231,-100,4,1,0,70,0,1
286489,-100,4,1,0,60,0,1
286660,-100,4,1,0,90,0,1
286746,-100,4,1,0,60,0,1
287003,-100,4,1,0,60,0,1
288546,-83.3333333333333,4,1,0,60,0,1
289574,-100,4,1,2,60,0,0
289917,-200,4,2,0,50,0,0
294031,-178.571428571429,4,2,0,50,0,0
294288,-200,4,2,0,50,0,0
294546,-220,4,2,0,50,0,0
294803,-250,4,2,0,50,0,0
295060,-282,4,2,0,50,0,0
295317,-328,4,2,0,50,0,0
299346,-200,4,2,0,50,0,0
305003,-166.666666666667,4,2,0,50,0,0
305260,-200,4,2,0,50,0,0
305517,-220,4,2,0,50,0,0
306031,-166.666666666667,4,2,0,50,0,0
306288,-125,4,2,0,50,0,0
309117,-200,4,2,0,50,0,0

[Colours]
Combo1 : 255,128,64
Combo2 : 199,135,92
Combo3 : 255,128,128
Combo4 : 224,207,201

[HitObjects]
99,175,546,5,4,1:2:0:0:
72,85,717,2,0,L|189:103,1,80,2|8,0:0|0:0,0:0:0:0:
327,187,1060,2,0,B|261:191|261:191|243:210|243:210|154:218,1,160,2|0,0:0|1:0,0:0:0:0:
305,269,1574,1,8,0:0:0:0:
197,132,1746,6,0,L|193:69,2,40,2|2|0,0:0|0:0|1:0,0:0:0:0:
119,305,2088,2,0,L|125:413,1,80,2|8,0:0|0:0,0:0:0:0:
81,221,2431,1,2,0:0:0:0:
112,210,2517,1,2,0:0:0:0:
143,217,2603,1,0,0:0:0:0:
259,343,2774,1,0,1:0:0:0:
351,182,2946,2,0,L|357:92,1,80,8|0,0:0|0:0,0:0:0:0:
471,259,3288,6,0,B|384:236|403:291|289:261,1,160,0|8,1:0|0:0,0:0:0:0:
195,121,3803,1,2,0:0:0:0:
223,106,3888,1,2,0:0:0:0:
255,103,3974,1,0,0:0:0:0:
285,111,4060,1,2,0:0:0:0:
311,129,4145,1,0,1:0:0:0:
164,211,4317,1,8,0:0:0:0:
185,27,4488,1,2,0:0:0:0:
253,191,4660,5,0,1:0:0:0:
90,172,4831,2,0,L|23:159,2,40,2|0|8,0:0|0:0|0:0,0:0:0:0:
327,247,5174,2,0,L|417:264,1,80,2|0,0:0|0:0,0:0:0:0:
92,267,5517,1,0,1:0:0:0:
249,281,5688,1,8,0:0:0:0:
161,380,5860,1,2,0:0:0:0:
161,380,5946,1,2,0:0:0:0:
161,380,6031,5,0,1:0:0:0:
161,380,6203,2,0,L|169:274,1,80,2|8,0:0|0:0,0:0:0:0:
248,44,6546,2,0,B|269:102|269:102|260:201,1,160,2|0,0:0|1:0,0:0:0:0:
364,339,7060,2,0,B|354:303|354:303|359:248,1,80,8|2,0:0|0:0,0:0:0:0:
361,248,7317,1,2,0:0:0:0:
364,236,7403,5,0,1:0:0:0:
210,293,7574,2,0,L|140:288,2,40,2|0|8,0:0|0:0|0:0,0:0:0:0:
439,293,7917,1,2,0:0:0:0:
281,360,8088,1,2,0:0:0:0:
281,360,8174,1,2,0:0:0:0:
281,360,8260,1,0,1:0:0:0:
276,211,8431,1,8,0:0:0:0:
123,309,8603,6,0,L|35:319,1,80,2|0,0:0|1:0,0:0:0:0:
336,284,8946,1,2,0:0:0:0:
179,203,9117,1,8,0:0:0:0:
357,178,9289,1,2,0:0:0:0:
340,150,9374,1,2,0:0:0:0:
315,130,9459,1,0,0:0:0:0:
285,120,9546,1,2,0:0:0:0:
253,122,9630,1,0,1:0:0:0:
276,211,9803,1,8,0:0:0:0:
397,84,9974,6,0,P|356:52|299:34,1,80,2|0,0:0|1:0,0:0:0:0:
158,106,10317,1,2,0:0:0:0:
196,214,10488,2,0,L|276:211,1,80,8|0,0:0|0:0,0:0:0:0:
430,255,10831,2,0,L|350:258,1,80,2|0,0:0|1:0,0:0:0:0:
489,191,11174,1,8,0:0:0:0:
230,63,11517,6,0,P|173:114|192:188,1,160,4|8,1:2|0:0,0:0:0:0:
304,297,12031,1,0,0:0:0:0:
353,231,12203,2,0,P|317:214|253:228,1,80,0|0,0:0|1:0,0:0:0:0:
123,250,12546,2,0,P|159:267|223:253,1,80,8|2,0:0|0:0,0:0:0:0:
208,258,12803,1,2,0:0:0:0:
216,249,12888,5,0,1:0:0:0:
299,140,13060,1,0,0:0:0:0:
385,308,13231,2,0,P|322:280|263:309,1,120,8|0,0:0|0:0,0:0:0:0:
261,314,13574,1,0,0:0:0:0:
370,189,13746,1,0,1:0:0:0:
219,166,13917,2,0,P|216:122|244:71,1,80,8|0,0:0|0:0,0:0:0:0:
97,332,14260,5,4,0:0:0:0:
299,140,14431,5,2,0:0:0:0:
261,314,14603,1,8,0:0:0:0:
127,250,14774,2,0,L|214:245,1,80,2|0,0:0|0:0,0:0:0:0:
342,266,15117,1,0,1:0:0:0:
178,326,15288,1,8,0:0:0:0:
219,166,15460,1,2,0:0:0:0:
219,166,15546,1,2,0:0:0:0:
219,166,15631,5,0,1:0:0:0:
178,326,15803,1,0,0:0:0:0:
90,176,15974,1,8,0:0:0:0:
262,257,16146,2,0,L|342:266,1,80,2|0,0:0|0:0,0:0:0:0:
157,43,16488,5,0,1:0:0:0:
146,73,16574,1,0,1:0:0:0:
152,104,16660,1,8,0:0:0:0:
172,238,16831,1,2,1:2:0:0:
97,332,17003,5,4,0:0:0:0:
232,81,17346,1,0,1:0:0:0:
435,271,17688,2,0,B|447:232|417:191|366:173|366:173|371:201,1,160,0|0,1:0|1:0,0:0:0:0:
298,271,18203,1,0,1:0:0:0:
166,204,18374,6,0,P|209:185|270:201,1,80,0|0,1:0|0:0,0:0:0:0:
281,361,18717,2,0,P|238:380|177:364,1,80,0|0,1:0|0:0,0:0:0:0:
103,152,19060,2,0,P|170:113|281:120,1,160,0|0,1:0|1:0,0:0:0:0:
320,223,19574,1,2,0:0:0:0:
205,306,19746,5,4,1:2:0:0:
297,146,19917,1,0,0:0:0:0:
152,232,20088,1,0,0:0:0:0:
283,119,20260,1,0,0:0:0:0:
427,327,20431,5,4,0:2:0:0:
363,103,20603,1,0,0:0:0:0:
502,269,20774,1,0,0:0:0:0:
314,41,20946,6,0,B|229:27|245:83|158:63,1,160,4|0,0:2|0:0,0:0:0:0:
208,207,21460,1,0,0:0:0:0:
71,185,21631,1,0,0:0:0:0:
128,336,21803,5,0,0:0:0:0:
149,303,21888,1,0,0:0:0:0:
184,286,21974,1,0,0:0:0:0:
223,287,22060,1,0,0:0:0:0:
258,303,22146,2,0,L|420:296,1,120.000004577637,8|0,2:0|2:0,0:0:0:0:
453,131,22488,6,0,P|390:85|312:109,1,143.999995605469,4|0,1:2|2:0,2:0:0:0:
234,49,22831,2,0,L|239:161,1,95.9999970703126,10|0,0:0|0:0,0:0:0:0:
355,325,23174,2,0,L|350:229,1,95.9999970703126,2|0,0:0|1:0,0:0:0:0:
158,80,23517,2,0,L|163:192,1,95.9999970703126,10|0,0:0|0:0,0:0:0:0:
342,247,23860,5,0,1:0:0:0:
258,276,24031,2,0,L|246:209,1,47.9999985351563,2|0,0:0|0:0,0:0:0:0:
238,259,24203,2,0,L|238:191,1,47.9999985351563,10|0,0:0|0:0,0:0:0:0:
220,239,24374,2,0,L|232:173,1,47.9999985351563,2|0,0:0|0:0,0:0:0:0:
231,95,24546,6,0,L|253:158,1,47.9999985351563,2|0,0:0|0:0,0:0:0:0:
254,108,24717,2,0,L|265:174,1,47.9999985351563,2|0,1:2|0:0,0:0:0:0:
274,125,24888,2,0,L|273:192,1,47.9999985351563,10|0,0:0|0:0,0:0:0:0:
292,145,25060,2,0,L|280:211,1,47.9999985351563,2|0,0:0|0:0,0:0:0:0:
342,247,25231,6,0,L|446:251,1,95.9999970703126,0|0,1:0|0:0,0:0:0:0:
387,165,25574,1,8,0:0:0:0:
383,331,25746,1,2,0:0:0:0:
387,165,25917,1,0,0:0:0:0:
462,251,26088,2,0,L|509:252,2,47.9999985351563,2|2|8,1:2|2:0|0:0,0:0:0:0:
287,163,26431,1,0,0:0:0:0:
454,92,26603,6,0,P|409:38|278:46,1,191.999994140625,2|8,1:2|0:0,0:0:0:0:
127,219,27117,2,0,P|194:155|287:163,1,191.999994140625,2|2,0:0|1:2,0:0:0:0:
246,337,27631,2,0,P|221:297|229:251,1,95.9999970703126,8|0,0:0|0:0,0:0:0:0:
378,117,27974,6,0,P|387:185|313:254,1,143.999995605469,4|0,1:2|0:0,0:0:0:0:
213,162,28317,2,0,L|345:166,1,95.9999970703126,10|0,0:0|0:0,0:0:0:0:
389,328,28660,2,0,L|293:325,1,95.9999970703126,2|0,0:0|1:0,0:0:0:0:
200,75,29003,2,0,L|332:79,1,95.9999970703126,10|0,0:0|0:0,0:0:0:0:
424,256,29346,5,0,1:0:0:0:
346,199,29517,2,0,P|343:229|364:267,1,47.9999985351563,2|0,0:0|0:0,0:0:0:0:
315,185,29688,2,0,P|317:215|344:248,1,47.9999985351563,10|0,0:0|0:0,0:0:0:0:
284,177,29860,2,0,P|291:206|324:234,1,47.9999985351563,2|0,0:0|0:0,0:0:0:0:
220,276,30031,6,0,P|217:246|238:208,1,47.9999985351563,2|0,0:0|0:0,0:0:0:0:
189,289,30202,2,0,P|191:258|218:225,1,47.9999985351563,2|0,1:2|0:0,0:0:0:0:
158,297,30374,2,0,P|165:267|198:239,1,47.9999985351563,10|0,0:0|0:0,0:0:0:0:
125,299,30545,2,0,P|137:271|174:249,1,47.9999985351563,2|0,0:0|0:0,0:0:0:0:
82,166,30717,5,0,1:0:0:0:
55,348,30888,1,2,2:0:0:0:
82,166,31060,2,0,P|64:119|17:94,1,95.9999970703126,8|0,0:0|0:0,0:0:0:0:
55,348,31403,2,0,P|102:379|171:368,1,95.9999970703126,0|0,0:0|1:0,0:0:0:0:
249,353,31746,1,8,0:0:0:0:
276,171,31917,6,0,P|246:139|243:170,1,95.9999970703126,2|0,2:0|1:0,0:0:0:0:
252,339,32260,1,0,0:0:0:0:
163,184,32431,1,8,0:0:0:0:
355,198,32603,2,0,P|353:123|253:45,1,191.999994140625,2|0,0:0|1:0,0:0:0:0:
97,141,33117,1,8,0:0:0:0:
470,305,33460,6,0,L|307:292,1,143.999995605469,4|0,1:2|0:0,0:0:0:0:
266,244,33803,2,0,P|276:295|264:337,1,95.9999970703126,10|0,0:0|0:0,0:0:0:0:
68,146,34146,2,0,P|58:95|70:53,1,95.9999970703126,2|0,0:0|1:0,0:0:0:0:
337,199,34488,2,0,P|347:250|335:292,1,95.9999970703126,10|0,0:0|0:0,0:0:0:0:
147,345,34831,5,0,1:0:0:0:
132,204,35003,2,0,L|140:274,1,47.9999985351563,2|0,0:0|2:0,0:0:0:0:
137,251,35174,2,0,L|145:321,1,47.9999985351563,10|0,0:0|2:0,0:0:0:0:
142,298,35346,2,0,L|150:368,1,47.9999985351563,2|0,0:0|2:0,0:0:0:0:
234,300,35517,6,0,L|242:230,1,47.9999985351563,2|0,0:0|2:0,0:0:0:0:
239,253,35688,2,0,L|247:183,1,47.9999985351563,2|0,1:2|2:0,0:0:0:0:
244,206,35860,2,0,L|252:136,1,47.9999985351563,10|0,0:0|2:0,0:0:0:0:
249,158,36031,2,0,L|257:88,1,47.9999985351563,2|0,0:0|2:0,0:0:0:0:
259,69,36203,5,4,1:2:0:0:
332,197,36374,1,0,0:0:0:0:
170,102,36546,1,8,0:0:0:0:
344,49,36717,1,0,0:0:0:0:
356,55,36803,1,0,0:0:0:0:
368,61,36888,2,0,L|245:72,1,95.9999970703126,0|0,0:0|1:0,0:0:0:0:
102,159,37231,2,0,P|161:149|227:174,1,95.9999970703126,8|0,0:0|0:0,0:0:0:0:
404,270,37574,6,0,P|325:235|202:249,1,191.999994140625,2|8,1:2|0:0,0:0:0:0:
349,328,38088,2,0,P|301:309|221:334,1,95.9999970703126,2|0,0:0|0:0,0:0:0:0:
257,147,38431,1,0,1:0:0:0:
295,384,38603,1,8,0:0:0:0:
487,270,38774,5,2,0:0:0:0:
483,255,38860,1,2,0:0:0:0:
479,240,38946,1,4,1:2:0:0:
389,90,39117,2,0,L|377:211,2,95.9999970703126,2|0|2,0:0|1:0|0:0,0:0:0:0:
283,247,39631,5,0,1:0:0:0:
213,70,39803,2,0,L|225:191,2,95.9999970703126,2|0|2,0:0|1:0|0:0,0:0:0:0:
125,203,40317,5,4,1:2:0:0:
328,147,40488,2,0,L|433:132,2,95.9999970703126,2|0|2,0:0|1:0|0:0,0:0:0:0:
125,180,41003,5,0,1:2:0:0:
334,160,41174,2,0,L|440:163,2,95.9999970703126,2|0|2,0:0|1:0|0:0,0:0:0:0:
129,157,41688,5,4,1:2:0:0:
339,174,41860,1,0,1:0:0:0:
137,136,42032,5,0,1:2:0:0:
340,189,42203,1,0,1:0:0:0:
148,116,42375,5,4,1:2:0:0:
340,203,42546,1,0,1:0:0:0:
163,98,42717,5,0,1:2:0:0:
336,218,42888,2,0,B|232:199|259:272|137:238,1,191.999994140625,4|0,1:2|1:0,0:0:0:0:
67,207,43403,1,0,1:0:0:0:
306,300,43574,1,0,1:0:0:0:
193,164,43746,6,0,L|191:97,1,47.9999985351563,0|0,1:0|1:0,0:0:0:0:
323,58,43917,2,0,L|321:105,1,47.9999985351563,0|0,1:0|1:0,0:0:0:0:
235,250,44088,1,8,0:0:0:0:
233,335,44431,6,0,P|282:318|338:335,1,80,4|0,1:2|0:0,0:0:0:0:
380,361,44774,1,8,0:0:0:0:
405,181,44946,2,0,P|459:241|448:327,1,160,2|0,0:0|1:0,0:0:0:0:
330,208,45460,2,0,P|331:156|357:121,1,80,8|0,0:0|0:0,0:0:0:0:
263,42,45803,5,0,1:0:0:0:
195,84,45974,1,2,0:0:0:0:
170,160,46146,1,8,0:0:0:0:
195,235,46317,2,0,P|103:187|16:202,1,160,2|0,0:0|1:0,0:0:0:0:
157,316,46831,1,8,0:0:0:0:
157,316,47003,1,2,0:0:0:0:
206,264,47174,5,0,1:0:0:0:
276,249,47346,1,0,0:0:0:0:
346,264,47517,1,8,0:0:0:0:
398,312,47688,1,2,0:0:0:0:
455,373,47860,5,0,0:0:0:0:
465,245,48031,1,2,1:2:0:0:
469,364,48203,1,8,0:0:0:0:
476,232,48374,1,2,0:2:0:0:
391,323,48546,5,0,1:0:0:0:
304,335,48717,2,0,L|200:345,1,80,0|8,0:0|0:0,0:0:0:0:
152,254,49060,2,0,B|166:219|211:198|258:200|258:200|232:261,1,160,2|2,0:0|0:0,0:0:0:0:
224,342,49574,1,8,0:0:0:0:
95,125,49831,1,2,0:0:0:0:
95,125,49917,6,0,P|133:96|176:80,1,80,0|0,1:0|0:0,0:0:0:0:
354,83,50260,1,10,0:0:0:0:
182,93,50431,2,0,P|259:109|365:91,1,160,0|2,0:0|1:2,0:0:0:0:
46,25,50946,2,0,P|86:23|126:31,1,80,8|0,0:0|0:0,0:0:0:0:
287,187,51288,6,0,P|247:188|207:181,1,80,0|0,1:0|0:0,0:0:0:0:
251,23,51631,1,8,0:0:0:0:
287,187,51803,2,0,L|275:286,1,80
260,108,52146,1,2,1:2:0:0:
277,266,52317,2,0,P|316:264|356:271,1,80,8|0,0:0|0:0,0:0:0:0:
408,327,52574,1,2,0:0:0:0:
408,327,52660,5,2,1:2:0:0:
384,259,52831,1,0,0:0:0:0:
392,187,53003,1,8,0:0:0:0:
431,126,53174,2,0,P|349:142|245:129,1,160,2|2,0:0|1:2,0:0:0:0:
237,73,53688,1,8,0:0:0:0:
442,130,53860,1,2,0:0:0:0:
442,130,53946,5,2,0:0:0:0:
442,130,54031,1,0,1:0:0:0:
375,100,54203,1,0,0:0:0:0:
304,111,54374,1,8,0:0:0:0:
248,157,54546,1,0,0:0:0:0:
269,311,54717,5,0,0:0:0:0:
340,335,54888,2,0,P|343:308|333:267,1,40,2|0,1:2|0:0,0:0:0:0:
254,237,55060,1,8,0:0:0:0:
212,360,55231,2,0,P|233:376|274:387,1,40,2|0,0:0|0:0,0:0:0:0:
410,367,55403,6,0,P|418:314|406:252,1,80,4|0,1:2|0:0,0:0:0:0:
368,193,55746,1,8,0:0:0:0:
428,117,55917,2,0,P|384:79|295:140,1,160,2|0,0:0|1:0,0:0:0:0:
159,248,56431,2,0,L|58:260,1,80,8|0,0:0|0:0,0:0:0:0:
45,114,56774,5,2,1:2:0:0:
115,96,56946,1,0,0:0:0:0:
181,123,57117,1,8,0:0:0:0:
212,187,57288,2,0,L|378:228,1,160,0|0,0:0|1:0,0:0:0:0:
386,359,57803,5,8,0:0:0:0:
478,270,57974,1,0,0:0:0:0:
444,146,58146,1,4,1:2:0:0:
456,265,58317,1,0,0:0:0:0:
367,345,58488,2,0,P|298:317|202:337,1,160,8|0,0:0|0:0,0:0:0:0:
112,369,59003,5,0,1:0:0:0:
133,300,59174,1,8,0:0:0:0:
155,231,59346,1,0,0:0:0:0:
123,149,59517,5,4,1:2:0:0:
217,348,59688,1,4,1:2:0:0:
326,57,60031,1,4,1:2:0:0:
326,57,60374,1,4,1:2:0:0:
265,227,60546,5,8,0:0:0:0:
252,23,60717,1,8,0:0:0:0:
324,170,60888,6,0,P|279:147|203:170,1,95.9999970703126,12|0,0:0|2:0,0:0:0:0:
396,210,61231,5,8,0:0:0:0:
208,162,61403,1,0,1:0:0:0:
339,382,61574,5,8,0:0:0:0:
386,194,61746,1,0,1:0:0:0:
167,325,61917,5,8,0:0:0:0:
354,372,62089,1,0,1:0:0:0:
224,153,62260,6,0,P|176:139|100:169,1,95.9999970703126,12|0,0:0|0:0,0:0:0:0:
176,226,62603,5,8,0:0:0:0:
180,52,62774,1,0,1:0:0:0:
310,211,62946,5,8,0:0:0:0:
425,120,63117,1,0,1:0:0:0:
450,148,63203,1,0,1:0:0:0:
459,184,63288,5,8,0:0:0:0:
248,284,63460,1,0,1:0:0:0:
417,361,63631,5,4,1:2:0:0:
383,185,63803,1,0,1:0:0:0:
335,350,63974,1,8,0:0:0:0:
232,176,64146,5,4,1:2:0:0:
198,352,64318,1,0,1:0:0:0:
150,187,64489,1,8,0:0:0:0:
50,354,64660,5,0,1:2:0:0:
8,130,64831,2,0,B|-5:80|23:21|23:21|53:48|64:95|64:95|81:45|106:20|106:20|134:59|130:124,1,383.99998828125,4|0,1:2|0:0,0:0:0:0:
244,72,65688,6,0,B|313:57|313:57|297:9|245:1|205:36|207:97|227:160|304:144|340:113,1,320,0|8,0:0|0:0,0:0:0:0:
505,102,66374,6,0,P|458:81|375:93,1,128,4|2,1:2|0:3,0:0:0:0:
348,194,66888,1,2,1:2:0:0:
348,194,66974,1,2,0:2:0:0:
348,194,67060,6,0,L|354:275,1,64,0|2,1:0|0:3,0:0:0:0:
238,332,67403,1,8,0:0:0:0:
238,332,67488,1,2,0:2:0:0:
238,332,67574,1,2,0:2:0:0:
158,248,67746,6,0,L|238:238,1,64,0|0,1:0|0:0,0:0:0:0:
221,240,68003,1,2,0:2:0:0:
221,240,68088,1,2,0:3:0:0:
95,317,68260,1,0,1:0:0:0:
105,181,68431,5,0,1:0:0:0:
30,216,68603,2,0,P|25:182|41:130,1,64,2|8,0:3|0:0,0:0:0:0:
114,55,68946,1,2,0:2:0:0:
273,44,69117,6,0,P|278:78|262:130,1,64,0|0,1:3|0:0,0:0:0:0:
203,75,69460,1,2,0:3:0:0:
354,45,69631,5,2,1:2:0:0:
363,48,69717,1,2,0:2:0:0:
372,49,69803,1,0,1:0:0:0:
381,49,69888,1,2,0:2:0:0:
390,47,69974,1,2,0:3:0:0:
485,115,70146,1,8,0:0:0:0:
379,140,70317,1,2,0:0:0:0:
489,217,70488,6,0,P|463:233|411:228,1,64,0|2,1:0|0:2,0:0:0:0:
420,233,70746,1,2,0:2:0:0:
411,229,70831,1,2,0:3:0:0:
337,310,71003,1,2,1:2:0:0:
337,310,71088,1,2,0:2:0:0:
337,310,71174,6,0,P|305:304|253:321,1,64,0|2,1:0|0:3,0:0:0:0:
212,238,71517,2,0,P|190:262|179:316,1,64,8|0,0:0|0:0,0:0:0:0:
219,379,71860,5,0,1:0:0:0:
256,303,72031,1,2,0:2:0:0:
131,208,72203,2,2,L|64:214,1,64,2|2,0:3|1:2,0:2:0:0:
67,213,72460,1,2,0:2:0:0:
67,213,72546,5,0,1:0:0:0:
138,91,72717,2,0,L|201:96,1,64,2|8,0:3|0:0,0:0:0:0:
350,161,73060,1,2,0:2:0:0:
350,161,73146,1,2,0:2:0:0:
350,161,73231,6,0,L|283:167,1,64,0|0,1:0|0:0,0:0:0:0:
207,172,73574,1,2,0:3:0:0:
253,241,73746,1,0,1:0:0:0:
78,328,73917,5,0,1:0:0:0:
84,245,74088,1,2,0:3:0:0:
161,334,74260,1,8,0:0:0:0:
167,251,74431,1,2,0:2:0:0:
67,335,74603,1,0,1:0:0:0:
178,244,74774,1,2,0:2:0:0:
444,188,75117,5,2,1:2:0:0:
438,105,75288,1,0,1:0:0:0:
361,194,75460,1,2,0:3:0:0:
355,111,75631,1,8,0:0:0:0:
455,195,75802,1,2,0:2:0:0:
344,104,75974,1,0,1:0:0:0:
280,224,76146,6,0,P|280:260|327:316,1,80,0|8,1:0|0:0,0:0:0:0:
170,350,76488,1,2,0:2:0:0:
178,341,76574,1,2,0:2:0:0:
181,329,76660,5,8,0:0:0:0:
135,191,76831,2,0,P|112:190|73:222,1,40,2|2,0:2|0:2,0:0:0:0:
107,312,77003,5,8,0:0:0:0:
209,208,77174,2,0,P|210:183|198:143,1,40,10|2,0:2|0:2,0:0:0:0:
147,100,77346,6,0,L|158:260,1,160,4|8,1:2|0:0,0:0:0:0:
292,365,77860,1,0,0:0:0:0:
308,337,77946,1,2,0:0:0:0:
324,309,78031,1,0,0:0:0:0:
312,278,78118,1,2,0:0:0:0:
301,248,78203,1,0,1:0:0:0:
230,303,78374,1,8,0:0:0:0:
418,315,78546,1,0,0:0:0:0:
308,168,78717,6,0,L|301:248,1,80,2|0,1:2|0:0,0:0:0:0:
423,301,79060,2,0,L|430:221,1,80,8|0,0:0|0:0,0:0:0:0:
308,168,79403,6,0,L|328:245,1,80,2|0,0:0|1:0,0:0:0:0:
487,244,79746,2,0,L|466:166,1,80,8|0,0:0|0:0,0:0:0:0:
308,168,80088,6,0,B|252:181|252:181|213:172|213:172|136:188,1,160,0|8,1:0|0:0,0:0:0:0:
82,257,80603,1,0,0:0:0:0:
110,273,80689,1,2,0:0:0:0:
138,289,80774,1,0,0:0:0:0:
169,277,80861,1,2,0:0:0:0:
199,266,80946,1,0,1:0:0:0:
144,195,81117,1,8,0:0:0:0:
132,383,81289,1,0,0:0:0:0:
264,325,81460,6,0,B|294:316|294:316|366:326,1,80,2|0,1:2|0:0,0:0:0:0:
356,230,81803,2,0,B|386:239|386:239|458:229,1,80,8|0,0:0|0:0,0:0:0:0:
235,195,82146,6,0,B|205:186|205:186|133:196,1,80,2|0,0:0|1:0,0:0:0:0:
143,100,82489,2,0,B|113:109|113:109|41:99,1,80,8|0,0:0|0:0,0:0:0:0:
305,0,82831,6,0,L|309:172,1,160,4|0,1:2|1:0,0:0:0:0:
242,336,83346,1,0,1:0:0:0:
163,349,83517,2,0,B|140:308|159:260|190:236|190:236|212:267,1,160,0|0,1:0|1:0,0:0:0:0:
463,333,84203,6,0,L|450:247,1,80,4|0,1:2|0:0,0:0:0:0:
375,317,84546,2,0,L|362:231,1,80,0|0,1:0|0:0,0:0:0:0:
244,112,84888,6,0,L|255:191,1,80,0|0,1:0|0:0,0:0:0:0:
332,128,85231,2,0,L|343:207,1,80,0|0,1:0|0:0,0:0:0:0:
173,325,85574,5,4,1:2:0:0:
318,221,85746,1,0,1:0:0:0:
339,325,85917,1,0,1:0:0:0:
194,221,86089,1,0,1:0:0:0:
354,37,86260,5,4,1:2:0:0:
180,128,86431,1,0,1:0:0:0:
332,128,86603,1,0,1:0:0:0:
158,37,86774,1,0,1:0:0:0:
53,211,86946,5,4,1:2:0:0:
69,174,87031,1,0,1:0:0:0:
96,145,87117,1,0,1:0:0:0:
131,125,87203,1,0,1:0:0:0:
170,117,87288,1,0,1:0:0:0:
209,122,87374,1,0,1:0:0:0:
246,138,87460,1,0,1:0:0:0:
275,165,87546,1,0,1:0:0:0:
302,194,87631,5,0,1:0:0:0:
337,214,87717,1,0,1:0:0:0:
376,221,87803,1,0,1:0:0:0:
416,216,87888,1,0,1:0:0:0:
451,199,87974,1,0,1:0:0:0:
480,171,88060,1,0,1:0:0:0:
498,136,88146,1,0,1:0:0:0:
505,96,88231,1,0,1:0:0:0:
469,102,89688,6,0,B|369:68|390:151|264:105,1,191.999994140625,4|8,1:2|0:0,0:0:0:0:
180,69,90203,1,0,0:0:0:0:
336,205,90374,2,0,P|299:204|213:172,1,95.9999970703126,0|0,0:0|1:0,0:0:0:0:
329,37,90717,1,8,0:0:0:0:
425,174,90888,5,0,0:0:0:0:
321,58,91060,1,0,1:0:0:0:
255,244,91231,1,0,0:0:0:0:
233,138,91403,1,8,0:0:0:0:
312,80,91574,5,2,0:0:0:0:
328,114,91660,1,2,0:0:0:0:
328,152,91746,1,2,0:0:0:0:
241,264,91917,1,0,1:2:0:0:
421,353,92088,5,10,0:0:0:0:
445,269,92260,1,2,0:0:0:0:
382,209,92431,1,2,1:2:0:0:
279,338,92603,1,0,0:0:0:0:
128,178,92774,5,10,0:0:0:0:
104,262,92946,1,2,0:0:0:0:
167,322,93117,1,2,0:2:0:0:
270,193,93288,1,0,1:0:0:0:
279,338,93460,5,8,0:0:0:0:
270,193,93631,1,2,0:0:0:0:
270,193,93717,1,2,0:0:0:0:
270,193,93803,5,0,1:0:0:0:
278,314,93974,2,0,L|272:210,1,95.9999970703126,2|8,0:0|0:0,0:0:0:0:
395,28,94317,2,0,L|379:240,1,191.999994140625,2|0,0:0|1:0,0:0:0:0:
194,324,94831,1,8,0:0:0:0:
350,270,95003,1,2,0:0:0:0:
362,310,95088,1,2,0:0:0:0:
350,351,95174,5,0,1:0:0:0:
212,227,95346,2,0,L|207:161,2,47.9999985351563,0|0|8,0:0|0:0|0:0,0:0:0:0:
489,209,95688,2,0,B|386:236|410:164|304:191,1,191.999994140625,2|0,0:0|1:0,0:0:0:0:
194,324,96203,1,8,0:0:0:0:
102,239,96374,1,2,0:0:0:0:
104,224,96460,1,2,0:0:0:0:
107,209,96546,1,0,1:0:0:0:
230,182,96717,5,2,0:0:0:0:
256,264,96888,1,10,0:0:0:0:
194,324,97060,1,2,0:0:0:0:
118,228,97231,5,2,0:0:0:0:
327,284,97403,1,0,1:0:0:0:
225,169,97574,1,8,0:0:0:0:
181,332,97746,1,2,0:0:0:0:
230,42,97917,6,0,P|212:106|311:175,1,191.999994140625,0|8,1:0|0:0,0:0:0:0:
292,95,98431,1,2,0:0:0:0:
125,137,98603,1,0,0:0:0:0:
188,228,98774,2,0,P|137:215|65:254,1,95.9999970703126,0|8,1:0|0:0,0:0:0:0:
147,374,99117,5,2,0:0:0:0:
184,367,99203,1,2,0:0:0:0:
208,338,99288,1,0,1:0:0:0:
140,297,99460,2,0,L|73:300,2,47.9999985351563,2|2|8,0:0|0:0|0:0,0:0:0:0:
334,189,99803,5,2,0:0:0:0:
297,178,99888,1,2,0:0:0:0:
260,189,99974,1,0,0:0:0:0:
301,341,100146,1,0,1:0:0:0:
300,260,100317,1,8,0:0:0:0:
454,367,100488,5,2,0:0:0:0:
459,368,100574,1,2,0:0:0:0:
464,369,100661,2,0,P|389:314|301:341,1,191.999994140625,4|8,1:2|0:0,0:0:0:0:
165,234,101174,1,0,0:0:0:0:
104,304,101346,2,0,P|160:324|232:304,1,95.9999970703126,0|0,0:0|1:0,0:0:0:0:
312,174,101688,1,8,0:0:0:0:
344,254,101860,5,0,0:0:0:0:
230,113,102031,1,0,1:0:0:0:
308,42,102203,5,2,0:0:0:0:
349,106,102374,1,8,0:0:0:0:
312,174,102546,1,2,0:0:0:0:
215,113,102717,5,0,0:0:0:0:
363,106,102888,1,0,1:0:0:0:
204,245,103060,5,10,0:0:0:0:
163,181,103231,1,2,0:0:0:0:
200,113,103403,1,6,0:0:0:0:
321,192,103574,1,0,0:0:0:0:
425,117,103746,5,10,0:0:0:0:
390,49,103917,1,2,0:0:0:0:
313,47,104089,1,2,0:0:0:0:
330,210,104260,1,0,1:0:0:0:
200,113,104431,5,8,0:0:0:0:
127,72,104603,2,0,P|81:63|15:87,1,95.9999970703126,0|2,0:0|1:2,0:0:0:0:
54,209,104946,6,0,L|124:201,2,47.9999985351563,0|2|8,0:0|0:0|0:0,0:0:0:0:
0,56,105288,2,0,P|69:44|208:96,1,191.999994140625,2|0,0:0|1:0,0:0:0:0:
249,219,105803,1,8,0:0:0:0:
129,332,105974,6,0,L|122:267,1,47.9999985351563,2|2,0:0|0:0,0:0:0:0:
119,249,106146,1,4,1:2:0:0:
279,349,106488,1,0,1:0:0:0:
379,189,106831,1,0,1:0:0:0:
219,89,107174,1,0,1:0:0:0:
249,219,107346,1,0,1:0:0:0:
279,349,107517,6,0,B|338:339|338:339|400:358,1,95.9999970703126,4|2,1:2|0:0,0:0:0:0:
472,271,107860,2,0,B|413:281|413:281|351:262,1,95.9999970703126,0|2,1:0|0:0,0:0:0:0:
319,160,108203,6,0,B|378:150|378:150|440:169,1,95.9999970703126,0|2,1:0|0:0,0:0:0:0:
512,82,108546,2,0,B|453:92|453:92|391:73,1,95.9999970703126,0|2,1:0|0:0,0:0:0:0:
319,160,108888,5,4,1:2:0:0:
418,81,109060,1,0,1:0:0:0:
223,75,109231,5,0,1:0:0:0:
342,36,109403,1,0,1:0:0:0:
166,127,109574,5,4,1:2:0:0:
319,160,109746,1,0,1:0:0:0:
91,145,109917,5,0,1:0:0:0:
223,228,110088,2,0,B|173:202|130:215|89:254|89:254|159:284,1,191.999994140625,4|0,1:2|1:0,0:0:0:0:
288,153,110603,1,0,1:0:0:0:
288,292,110774,1,0,1:0:0:0:
288,153,110946,6,0,L|296:216,1,47.9999985351563,0|0,1:0|1:0,0:0:0:0:
288,292,111117,2,0,L|302:230,1,47.9999985351563,0|0,1:0|1:0,0:0:0:0:
288,153,111288,2,0,L|409:171,1,120.000004577637,8|0,0:0|0:0,0:0:0:0:
348,355,111631,5,4,0:2:0:0:
420,338,111803,1,2,0:0:0:0:
420,351,111888,2,2,L|433:255,1,55.9999982910157,0|0,0:0|2:0,0:0:0:0:
288,153,112146,5,0,0:0:0:0:
169,293,112317,1,2,0:0:0:0:
39,193,112488,1,0,0:0:0:0:
240,92,112660,6,2,B|186:36|121:37|75:75|75:75|113:60|158:77,1,256,0|2,0:0|0:0,0:0:0:0:
265,183,113174,1,0,0:0:0:0:
169,293,113346,1,2,0:0:0:0:
124,152,113517,1,2,0:0:0:0:
250,270,113688,5,2,0:0:0:0:
63,220,113860,2,2,P|92:177|80:233,2,151.999995941162,0|0|0,0:0|0:0|0:0,0:0:0:0:
219,70,114374,6,2,L|356:81,1,111.999996582031,0|0,0:0|0:0,0:0:0:0:
408,88,114717,1,0,0:0:0:0:
372,20,114888,1,2,0:0:0:0:
290,181,115060,5,0,0:0:0:0:
400,196,115231,2,2,P|307:175|400:215,1,303.999991882324,0|0,0:0|0:0,0:0:0:0:
107,224,115746,6,2,B|139:210|139:210|252:230,1,103.999995239258,0|2,1:0|0:0,0:0:0:0:
341,275,116088,1,0,0:0:0:0:
191,293,116260,1,2,0:0:0:0:
340,294,116431,5,0,0:0:0:0:
186,273,116603,1,2,0:0:0:0:
332,312,116774,5,2,0:0:0:0:
188,254,116946,1,0,0:0:0:0:
265,273,117117,5,4,0:0:0:0:
121,348,117288,1,2,0:0:0:0:
224,371,117460,1,0,0:0:0:0:
265,273,117631,1,2,0:0:0:0:
113,182,117803,5,0,0:0:0:0:
205,145,117974,2,2,B|136:157|136:157|114:182,1,103.999995239258,2|0,0:0|0:0,0:0:0:0:
279,146,118317,1,2,0:0:0:0:
40,120,118488,6,2,L|279:146,1,240.000009155274,0|2,0:0|0:0,0:0:0:0:
344,180,119003,1,0,0:0:0:0:
440,110,119174,5,2,0:0:0:0:
455,263,119346,1,2,0:0:0:0:
444,126,119517,1,0,0:0:0:0:
351,194,119689,1,2,0:0:0:0:
388,330,119860,5,0,0:0:0:0:
466,253,120031,1,0,0:0:0:0:
470,268,120117,2,0,L|484:336,1,40,0|8,0:0|2:0,0:0:0:0:
228,325,120546,6,2,L|388:330,1,160,2|0,2:0|0:0,0:0:0:0:
220,145,121060,2,2,P|160:185|168:278,1,160,2|0,2:0|0:2,0:0:0:0:
287,82,121746,1,2,2:1:0:0:
371,123,121917,6,0,L|366:35,1,80,0|0,0:2|0:0,0:0:0:0:
469,72,122260,2,2,L|446:256,1,160,0|4,0:2|0:2,0:0:0:0:
379,319,122774,5,2,0:0:0:0:
391,329,122860,2,0,L|380:245,1,55.9999982910157,0|0,0:0|2:0,0:0:0:0:
305,147,123117,5,0,0:0:0:0:
239,162,123288,1,2,0:0:0:0:
173,177,123460,1,0,0:0:0:0:
84,227,123631,6,2,L|91:42,1,167.999994873047,0|0,0:0|0:0,0:0:0:0:
108,40,123974,5,0,0:0:0:0:
15,46,124146,1,2,0:0:0:0:
104,129,124317,1,0,0:0:0:0:
12,119,124489,1,2,0:0:0:0:
264,200,124660,6,2,B|142:153|169:250|41:202,1,223.999993164063,2|0,0:0|0:0,0:0:0:0:
207,271,125174,1,0,0:0:0:0:
311,127,125346,5,4,0:0:0:0:
385,202,125517,1,2,0:0:0:0:
389,191,125603,1,0,0:0:0:0:
394,181,125688,1,0,0:0:0:0:
355,46,125860,2,0,P|297:79|312:180,1,180.000006866455,2|0,0:0|0:0,0:0:0:0:
281,294,126203,6,2,P|294:196|209:148,1,207.999990478516,0|0,0:0|0:0,0:0:0:0:
224,235,126717,1,0,0:0:0:0:
134,61,126888,5,2,0:0:0:0:
131,118,127060,1,0,0:0:0:0:
128,174,127231,1,2,0:0:0:0:
224,235,127403,5,0,0:0:0:0:
116,321,127574,1,0,0:0:0:0:
130,330,127660,2,0,L|120:245,1,51.999997619629
233,96,127917,5,0,0:0:0:0:
233,96,128088,2,2,B|281:84|316:98|338:131|338:131|288:139,1,160,4|0,0:2|0:0,0:0:0:0:
135,79,128603,5,0,2:0:0:0:
81,138,128774,2,0,P|59:102|66:35,1,80
189,20,129117,2,0,P|211:56|204:123,1,80
193,215,129460,5,4,0:2:0:0:
178,285,129631,1,2,2:0:0:0:
163,355,129803,1,0,0:0:0:0:
262,283,129974,2,2,P|329:265|417:309,1,160,2|2,2:0|2:0,0:0:0:0:
326,369,130488,1,0,0:0:0:0:
351,171,130660,6,0,L|360:81,1,80,2|4,2:0|0:2,0:0:0:0:
274,180,131003,2,0,P|313:184|351:171,1,80,2|0,0:2|0:0,0:0:0:0:
280,259,131346,2,0,L|274:180,1,80,2|0,0:2|0:0,0:0:0:0:
157,87,131688,6,0,P|196:78|255:95,1,80,2|0,0:2|0:0,0:0:0:0:
149,167,132031,2,0,L|157:88,1,80,2|0,0:2|2:0,0:0:0:0:
71,164,132374,2,0,P|109:173|149:167,1,80,2|0,0:2|0:0,0:0:0:0:
256,88,132717,5,0,0:0:0:0:
296,180,132888,1,0,0:0:0:0:
284,220,132974,1,0,0:0:0:0:
228,220,133060,1,0,0:0:0:0:
216,180,133146,1,0,0:0:0:0:
256,192,133231,1,8,2:0:0:0:
256,272,133574,6,0,L|256:192,1,80,4|0,1:2|0:0,0:0:0:0:
216,345,133917,1,8,0:0:0:0:
328,300,134088,2,0,P|249:273|161:279,1,160,2|0,0:0|1:0,0:0:0:0:
101,287,134603,2,0,L|94:202,1,80,8|0,0:0|0:0,0:0:0:0:
120,79,134946,5,0,1:0:0:0:
189,97,135117,1,2,0:0:0:0:
258,115,135288,1,8,0:0:0:0:
315,41,135460,2,0,B|279:94|279:94|305:197,1,160,2|0,0:0|1:0,0:0:0:0:
330,253,135974,1,8,0:0:0:0:
362,111,136146,5,2,0:0:0:0:
291,124,136317,1,0,1:0:0:0:
245,179,136488,1,0,0:0:0:0:
230,249,136660,1,8,0:0:0:0:
186,121,136831,1,2,0:0:0:0:
74,69,137003,5,0,0:0:0:0:
91,212,137174,1,2,1:2:0:0:
57,69,137346,1,8,0:0:0:0:
74,212,137517,1,2,0:2:0:0:
186,121,137688,6,0,P|199:77|173:23,1,80,0|0,1:0|0:0,0:0:0:0:
78,140,138031,1,8,0:0:0:0:
196,274,138203,2,0,P|172:199|186:121,1,160,2|2,0:0|0:0,0:0:0:0:
196,274,138717,1,8,0:0:0:0:
266,93,138888,5,2,0:0:0:0:
204,38,139060,2,0,P|164:25|106:42,1,80,0|0,1:0|0:0,0:0:0:0:
122,135,139403,1,10,0:0:0:0:
50,28,139574,6,0,P|128:13|204:38,1,160,0|2,0:0|1:2,0:0:0:0:
266,93,140088,2,0,L|253:196,1,80,8|0,0:0|0:0,0:0:0:0:
407,305,140431,5,0,1:0:0:0:
404,62,140774,1,8,0:0:0:0:
487,120,140946,2,0,P|440:155|322:114,1,160,0|2,0:0|1:2,0:0:0:0:
183,114,141460,2,0,P|234:76|315:102,1,120,8|2,0:0|0:0,0:0:0:0:
341,188,141803,6,0,L|333:284,1,80,2|0,1:2|0:0,0:0:0:0:
327,360,142146,1,8,0:0:0:0:
163,367,142317,2,0,P|135:297|192:217,1,160,2|2,0:0|1:2,0:0:0:0:
239,199,142831,1,8,0:0:0:0:
327,360,143003,5,2,0:0:0:0:
339,326,143088,1,2,0:0:0:0:
351,292,143174,1,0,1:0:0:0:
377,224,143346,1,0,0:0:0:0:
403,157,143517,1,8,0:0:0:0:
444,250,143688,1,0,0:0:0:0:
396,140,143860,5,0,0:0:0:0:
470,183,144031,2,0,P|475:159|464:119,1,40,2|0,1:2|0:0,0:0:0:0:
389,123,144203,1,8,0:0:0:0:
377,224,144374,2,0,P|355:212|331:178,1,40,2|0,0:0|0:0,0:0:0:0:
382,106,144546,5,4,1:2:0:0:
444,250,144717,2,0,L|482:339,1,80,0|8,0:0|0:0,0:0:0:0:
219,291,145060,2,0,L|397:306,1,160,2|0,0:0|1:0,0:0:0:0:
130,300,145574,2,0,L|168:211,1,80,8|2,0:0|0:0,0:0:0:0:
161,226,145831,1,2,0:0:0:0:
161,226,145917,5,2,1:2:0:0:
184,368,146088,1,0,0:0:0:0:
161,226,146260,1,8,0:0:0:0:
138,84,146431,2,0,P|196:41|289:88,1,160,2|0,0:0|1:0,0:0:0:0:
213,130,146946,5,8,0:0:0:0:
326,197,147117,1,2,0:0:0:0:
304,191,147203,1,2,0:0:0:0:
282,185,147288,1,4,1:2:0:0:
368,275,147460,1,0,0:0:0:0:
441,170,147631,2,0,L|282:185,1,160,8|0,0:0|0:0,0:0:0:0:
162,206,148146,5,0,1:2:0:0:
208,327,148317,1,8,0:0:0:0:
162,206,148488,2,0,L|141:149,1,40,2|0,0:0|0:0,0:0:0:0:
116,85,148660,5,4,1:2:0:0:
116,85,148831,1,4,1:2:0:0:
208,327,149174,1,4,1:2:0:0:
116,85,149517,1,4,1:2:0:0:
148,168,149688,2,0,L|162:206,1,40,8|0,0:0|0:0,0:0:0:0:
194,289,149860,2,0,L|208:327,1,40,8|0,0:0|0:0,0:0:0:0:
284,360,150031,6,0,P|330:359|380:286,1,95.9999970703126,12|0,0:0|2:0,0:0:0:0:
369,136,150374,5,8,0:0:0:0:
470,348,150546,1,0,1:0:0:0:
302,282,150717,5,8,0:0:0:0:
474,131,150888,1,0,1:0:0:0:
297,194,151060,5,8,0:0:0:0:
470,348,151231,1,0,1:0:0:0:
210,341,151403,6,0,L|75:336,1,95.9999970703126,12|0,0:0|0:0,0:0:0:0:
34,175,151746,5,8,0:0:0:0:
219,242,151917,1,0,1:0:0:0:
38,308,152088,5,8,0:0:0:0:
220,155,152260,1,0,1:0:0:0:
220,155,152346,1,0,1:0:0:0:
220,155,152431,5,8,0:0:0:0:
54,73,152603,1,0,1:0:0:0:
141,205,152774,5,4,1:2:0:0:
340,107,152946,1,0,1:0:0:0:
131,119,153117,1,8,0:0:0:0:
302,274,153288,5,4,1:2:0:0:
259,77,153460,1,0,1:0:0:0:
219,242,153631,1,8,0:0:0:0:
407,160,153803,1,0,1:2:0:0:
187,119,153974,6,0,B|118:161|89:106|113:54|176:56|195:121|195:121|206:188|212:232|163:272|100:233|100:188,1,383.99998828125,4|0,1:2|0:0,0:0:0:0:
294,103,154831,6,0,B|302:172|302:172|306:206|350:228|390:200|386:164|386:164|376:82,1,272.000005187988,0|8,0:0|0:0,0:0:0:0:
416,268,155517,6,0,P|357:287|271:267,1,128,4|2,1:2|0:3,0:0:0:0:
190,220,156031,1,2,1:2:0:0:
192,210,156117,1,2,0:2:0:0:
194,200,156203,6,0,P|214:237|209:284,1,64,0|2,1:0|0:3,0:0:0:0:
125,340,156546,1,8,0:0:0:0:
125,340,156631,1,2,0:2:0:0:
125,340,156717,1,2,0:2:0:0:
15,256,156888,6,0,L|86:263,2,64,0|0|2,1:0|0:0|0:3,0:0:0:0:
107,178,157403,1,0,1:0:0:0:
28,104,157574,5,0,1:0:0:0:
86,48,157746,2,0,P|58:29|14:24,1,64,2|8,0:3|0:0,0:0:0:0:
188,97,158088,1,2,0:2:0:0:
188,97,158174,1,0,0:0:0:0:
188,97,158260,5,0,1:0:0:0:
291,92,158431,2,0,L|382:84,1,64,2|2,0:2|0:3,0:0:0:0:
459,222,158774,5,2,1:2:0:0:
440,215,158860,1,2,0:2:0:0:
420,213,158946,1,0,1:0:0:0:
401,218,159031,1,2,0:2:0:0:
386,231,159117,1,2,0:3:0:0:
340,355,159288,1,8,0:0:0:0:
430,301,159460,1,2,0:0:0:0:
301,238,159631,6,0,P|263:225|222:218,1,64,0|2,1:0|0:2,0:0:0:0:
239,220,159888,1,2,0:2:0:0:
239,220,159974,1,2,0:3:0:0:
165,123,160146,1,2,1:2:0:0:
165,123,160231,1,2,0:2:0:0:
165,123,160317,6,0,P|200:126|242:119,1,64,0|2,1:0|0:3,0:0:0:0:
163,311,160660,2,0,P|131:309|83:322,1,64,8|0,0:0|0:0,0:0:0:0:
87,148,161003,5,0,1:0:0:0:
148,204,161174,1,2,0:2:0:0:
104,67,161346,2,0,L|94:-1,1,64,2|2,0:3|1:2,0:0:0:0:
94,3,161603,1,2,0:2:0:0:
94,3,161688,5,0,1:0:0:0:
233,88,161860,1,2,0:3:0:0:
233,88,162031,2,0,L|242:7,1,64,8|2,0:0|0:2,0:0:0:0:
311,47,162288,1,2,0:2:0:0:
328,53,162374,5,0,1:0:0:0:
401,30,162546,1,0,0:0:0:0:
498,130,162717,1,2,0:3:0:0:
471,59,162888,1,0,1:0:0:0:
354,170,163060,5,0,1:0:0:0:
498,130,163231,1,2,0:3:0:0:
433,172,163403,1,8,0:0:0:0:
397,239,163574,1,2,0:2:0:0:
410,314,163746,1,0,1:0:0:0:
354,170,163917,1,2,0:2:0:0:
158,241,164260,5,2,1:2:0:0:
302,281,164431,1,0,1:0:0:0:
237,239,164603,1,2,0:3:0:0:
201,172,164774,1,8,0:0:0:0:
214,97,164946,1,2,0:2:0:0:
158,241,165117,1,0,1:0:0:0:
277,175,165288,6,0,L|362:167,1,80,0|8,1:0|0:0,0:0:0:0:
437,163,165631,1,2,0:2:0:0:
327,255,165803,6,0,L|377:260,1,40,8|0,0:0|0:0,0:0:0:0:
443,269,165974,2,0,L|404:266,1,40,2|2,0:2|0:2,0:0:0:0:
303,329,166146,6,0,L|351:342,1,40,8|0,0:0|0:0,0:0:0:0:
415,364,166317,2,0,L|377:354,1,40,10|2,0:2|0:2,0:0:0:0:
128,321,166488,6,0,B|196:316|196:316|231:330|231:330|285:328,1,160,4|8,1:2|0:0,0:0:0:0:
142,202,167003,1,0,0:0:0:0:
135,170,167088,1,2,0:0:0:0:
128,138,167174,1,0,0:0:0:0:
147,112,167260,1,2,0:0:0:0:
149,80,167346,1,0,1:0:0:0:
221,166,167517,1,8,0:0:0:0:
70,86,167688,1,0,0:0:0:0:
199,16,167860,6,0,P|221:48|226:87,1,80,2|0,1:2|0:0,0:0:0:0:
218,217,168203,2,0,P|201:252|169:276,1,80,8|0,0:0|0:0,0:0:0:0:
294,11,168546,6,0,P|297:50|282:86,1,80,2|0,0:0|1:0,0:0:0:0:
210,194,168889,2,0,P|178:217|138:221,1,80,8|0,0:0|0:0,0:0:0:0:
379,54,169231,6,0,P|421:111|506:99,1,160,4|8,1:2|0:0,0:0:0:0:
471,241,169746,1,0,0:0:0:0:
444,223,169831,1,2,0:0:0:0:
412,218,169917,1,0,0:0:0:0:
416,249,170003,1,2,0:0:0:0:
434,276,170088,1,0,1:0:0:0:
502,166,170260,1,8,0:0:0:0:
344,168,170431,1,0,0:0:0:0:
265,306,170603,6,0,L|171:322,1,80,2|0,1:2|0:0,0:0:0:0:
106,309,170946,2,0,L|186:319,1,80,8|0,0:0|0:0,0:0:0:0:
273,272,171288,6,0,L|183:238,1,80,2|0,0:0|1:0,0:0:0:0:
134,195,171631,2,0,L|197:243,1,80,8|0,0:0|0:0,0:0:0:0:
296,246,171974,6,0,P|277:181|338:96,1,160,4|0,1:2|1:0,0:0:0:0:
362,188,172488,1,0,1:0:0:0:
260,330,172660,2,0,P|255:262|169:203,1,160,0|0,1:0|1:0,0:0:0:0:
98,305,173174,1,0,1:0:0:0:
98,305,173260,1,0,1:0:0:0:
98,305,173346,6,0,L|177:298,1,80,4|0,1:2|0:0,0:0:0:0:
271,181,173688,2,0,L|191:187,1,80,0|0,1:0|0:0,0:0:0:0:
20,164,174031,6,0,L|99:157,1,80,0|0,1:0|0:0,0:0:0:0:
193,40,174374,2,0,L|113:46,1,80,0|0,1:0|0:0,0:0:0:0:
25,259,174717,5,4,1:2:0:0:
203,269,174888,1,0,1:0:0:0:
195,362,175060,1,0,1:0:0:0:
161,169,175231,1,0,1:0:0:0:
487,259,175403,5,4,1:2:0:0:
309,269,175574,1,0,1:0:0:0:
351,169,175746,1,0,1:0:0:0:
317,362,175917,1,0,1:0:0:0:
421,214,176088,5,4,1:2:0:0:
434,176,176173,1,0,1:0:0:0:
429,137,176259,1,0,1:0:0:0:
406,104,176345,1,0,1:0:0:0:
371,86,176430,1,0,1:0:0:0:
332,86,176516,1,0,1:0:0:0:
296,104,176602,1,0,1:0:0:0:
273,136,176688,1,0,1:0:0:0:
238,136,176774,5,0,1:0:0:0:
215,104,176860,1,0,1:0:0:0:
179,86,176946,1,0,1:0:0:0:
140,86,177032,1,0,1:0:0:0:
105,104,177117,1,0,1:0:0:0:
82,137,177203,1,0,1:0:0:0:
77,176,177289,1,0,1:0:0:0:
91,214,177374,1,0,1:0:0:0:
351,169,177803,5,0,0:0:0:0:
161,169,178146,1,0,0:0:0:0:
351,169,178488,1,0,0:0:0:0:
161,169,178831,6,0,B|213:141|213:141|254:190|238:248|190:260,1,191.999994140625,4|8,1:2|0:0,0:0:0:0:
120,252,179346,1,0,0:0:0:0:
276,309,179517,2,0,P|231:334|146:322,1,95.9999970703126,0|0,0:0|1:0,0:0:0:0:
42,143,179860,2,0,P|89:146|130:170,1,95.9999970703126,8|2,0:0|0:0,0:0:0:0:
130,170,180117,5,2,0:0:0:0:
130,170,180203,1,0,1:0:0:0:
249,125,180374,2,0,L|243:66,1,47.9999985351563,2|2,0:0|0:0,0:0:0:0:
233,6,180546,1,8,0:0:0:0:
233,6,180717,1,2,0:0:0:0:
233,6,180888,1,2,0:0:0:0:
233,6,181060,2,0,L|220:73,1,47.9999985351563,0|0,1:0|0:0,0:0:0:0:
221,223,181231,5,10,0:0:0:0:
172,119,181403,1,2,0:0:0:0:
313,106,181574,1,2,1:2:0:0:
246,150,181746,1,0,0:0:0:0:
202,8,181917,5,10,0:0:0:0:
172,119,182088,1,2,0:0:0:0:
313,106,182259,1,2,0:2:0:0:
239,75,182431,1,0,1:0:0:0:
221,223,182603,5,8,0:0:0:0:
338,198,182774,1,2,0:0:0:0:
351,194,182860,1,2,0:0:0:0:
365,190,182946,6,0,L|348:296,1,95.9999970703126,0|2,1:0|0:0,0:0:0:0:
332,98,183288,1,8,0:0:0:0:
349,284,183460,2,0,B|334:211|334:211|348:174|348:174|331:92,1,191.999994140625,2|0,0:0|1:0,0:0:0:0:
310,16,183974,1,8,0:0:0:0:
390,39,184146,1,2,0:0:0:0:
390,39,184231,1,2,0:0:0:0:
390,39,184317,5,0,1:0:0:0:
254,74,184488,2,0,L|172:90,1,47.9999985351563,0|2,0:0|0:0,0:0:0:0:
179,88,184660,1,8,0:0:0:0:
311,141,184831,2,0,P|257:202|153:159,1,191.999994140625,2|0,0:0|1:0,0:0:0:0:
102,44,185346,2,0,P|64:21|-7:34,1,95.9999970703126,8|2,0:0|0:0,0:0:0:0:
18,36,185603,5,2,0:0:0:0:
23,49,185688,1,0,1:0:0:0:
39,124,185860,1,2,0:0:0:0:
20,198,186031,1,10,0:0:0:0:
141,140,186203,5,2,0:0:0:0:
84,246,186374,1,2,0:0:0:0:
234,187,186546,1,0,1:0:0:0:
130,311,186717,1,8,0:0:0:0:
257,309,186888,2,0,L|210:311,1,47.9999985351563,2|0,0:0|0:0,0:0:0:0:
210,311,187060,6,0,B|305:286|300:361|398:332,1,191.999994140625,0|8,1:0|0:0,0:0:0:0:
468,214,187574,2,0,P|390:177|357:256,1,191.999994140625,2|0,0:0|1:0,0:0:0:0:
250,384,188088,1,8,0:0:0:0:
240,227,188260,6,0,P|232:201|187:172,1,47.9999985351563,2|2,0:0|0:0,0:0:0:0:
137,128,188431,1,0,1:0:0:0:
276,163,188603,1,2,0:0:0:0:
268,201,188689,1,2,0:0:0:0:
240,227,188774,1,8,0:0:0:0:
230,91,188946,6,0,P|259:78|305:81,1,47.9999985351563,2|2,0:0|0:0,0:0:0:0:
365,95,189117,1,0,0:0:0:0:
226,18,189288,1,2,0:2:0:0:
214,55,189374,1,2,0:0:0:0:
230,91,189460,1,8,0:0:0:0:
403,193,189631,6,0,L|348:195,1,47.9999985351563,2|2,0:0|0:0,0:0:0:0:
199,163,189803,2,0,L|235:369,1,191.999994140625,4|8,1:2|0:0,0:0:0:0:
168,235,190317,1,2,0:0:0:0:
244,283,190488,2,0,L|262:386,1,95.9999970703126,2|0,0:0|1:0,0:0:0:0:
321,192,190831,1,8,0:0:0:0:
432,283,191003,5,2,0:0:0:0:
394,290,191088,1,2,0:0:0:0:
358,274,191174,1,0,1:0:0:0:
376,129,191346,1,2,0:0:0:0:
402,208,191517,1,8,0:0:0:0:
219,158,191688,5,2,0:0:0:0:
299,86,191860,1,0,0:0:0:0:
321,192,192031,1,0,1:0:0:0:
144,228,192203,5,10,0:0:0:0:
113,157,192374,1,2,0:0:0:0:
148,88,192546,1,6,0:0:0:0:
226,170,192717,1,0,0:0:0:0:
132,231,192888,5,10,0:0:0:0:
98,153,193059,1,2,0:0:0:0:
137,77,193231,1,2,0:0:0:0:
233,182,193403,1,0,1:0:0:0:
46,225,193574,5,8,0:0:0:0:
214,258,193746,2,0,B|162:235|125:267|125:267|102:220|46:225,1,191.999994140625,0|0,0:0|0:0,0:0:0:0:
174,326,194260,2,0,P|199:357|154:353,1,95.9999970703126,8|2,0:0|0:0,0:0:0:0:
57,304,194603,2,0,P|22:324|66:336,1,95.9999970703126,0|0,0:0|1:0,0:0:0:0:
125,267,194946,1,8,0:0:0:0:
125,267,195288,5,4,1:2:0:0:
262,335,195631,1,0,1:0:0:0:
397,262,195974,1,0,1:0:0:0:
383,108,196317,1,0,1:0:0:0:
409,36,196488,1,0,1:0:0:0:
458,94,196660,5,4,1:2:0:0:
458,94,196831,1,2,0:0:0:0:
389,130,197003,1,0,1:0:0:0:
314,110,197174,1,2,0:0:0:0:
238,41,197346,5,0,1:0:0:0:
158,74,197517,1,2,0:0:0:0:
123,152,197688,1,0,1:0:0:0:
129,238,197860,1,2,0:0:0:0:
178,340,198031,5,4,1:2:0:0:
383,238,198203,1,0,1:0:0:0:
334,340,198374,5,0,1:0:0:0:
129,238,198546,1,0,1:0:0:0:
354,74,198717,5,4,1:2:0:0:
123,152,198888,1,0,1:0:0:0:
389,152,199060,5,0,1:0:0:0:
158,74,199231,1,4,1:2:0:0:
344,110,199574,5,0,1:0:0:0:
256,110,199746,1,0,1:0:0:0:
168,110,199917,1,0,1:0:0:0:
334,146,200088,5,0,1:0:0:0:
295,146,200174,1,0,1:0:0:0:
256,146,200260,1,0,1:0:0:0:
217,146,200345,1,0,1:0:0:0:
178,146,200431,1,8,0:0:0:0:
256,324,200774,6,0,L|256:240,1,80
177,286,201288,1,0,0:0:0:0:
335,286,201631,1,0,0:0:0:0:
256,244,201974,1,0,0:0:0:0:
256,60,203517,6,0,L|256:144,1,80
335,98,204031,1,0,0:0:0:0:
177,98,204374,1,0,0:0:0:0:
256,140,204717,1,0,0:0:0:0:
256,140,205231,2,0,L|256:60,2,80
256,276,206260,6,0,P|217:252|171:253,1,80
72,267,206774,2,0,P|100:369|198:328,1,240
132,306,207974,2,0,L|120:214,2,80
256,276,209003,6,0,P|295:252|341:253,1,80
440,341,209517,2,0,P|372:375|314:328,1,160
256,276,210374,6,0,B|243:226|271:169|271:169|301:195|315:241|315:241|320:198|353:168|353:168|385:218|376:269,1,383.99998828125
476,227,212088,6,0,L|480:306,1,80
471,147,212774,1,0,0:0:0:0:
468,350,213117,6,0,P|405:341|339:345,1,120
163,299,213803,2,0,P|222:301|282:292,1,120
151,283,214488,5,0,0:0:0:0:
222,293,214660,1,0,0:0:0:0:
293,303,214831,2,0,L|350:299,1,40
109,352,215174,5,0,0:0:0:0:
305,106,215517,6,0,P|322:118|338:148,1,40
207,278,215860,2,0,P|189:265|173:235,1,40
341,241,216203,6,0,P|330:256|313:268,1,40
170,142,216546,2,0,P|180:126|196:114,1,40
256,192,216888,5,0,0:0:0:0:
256,192,217060,2,0,L|256:312,1,120
415,147,217917,6,0,P|381:142|331:144,1,80
118,82,218603,2,0,P|157:83|197:78,1,80
289,29,219117,6,0,B|282:83|282:83|291:130|291:130|281:193,1,160
280,198,219888,1,0,0:0:0:0:
279,210,219974,2,0,L|412:200,1,120
232,273,220660,5,0,0:0:0:0:
267,205,220831,1,0,0:0:0:0:
337,175,221003,1,0,0:0:0:0:
412,178,221174,1,0,0:0:0:0:
480,211,221346,2,0,L|485:124,1,80
391,33,221860,6,0,P|350:29|310:48,1,80
337,175,222374,2,0,P|378:179|418:160,1,80
364,104,223060,6,0,L|277:102,1,80
483,106,223746,1,0,0:0:0:0:
499,280,224088,6,0,P|455:322|301:324,1,191.999994140625,4|8,1:2|0:0,0:0:0:0:
373,189,224603,1,0,0:0:0:0:
435,238,224774,2,0,P|393:263|327:255,2,95.9999970703126,0|0|8,0:0|1:0|0:0,0:0:0:0:
494,129,225288,5,2,0:0:0:0:
491,114,225374,1,2,0:0:0:0:
488,99,225460,1,0,1:0:0:0:
354,112,225631,1,2,0:0:0:0:
369,42,225803,1,8,0:0:0:0:
239,126,225974,1,2,0:0:0:0:
224,56,226146,1,2,0:0:0:0:
94,134,226317,1,0,1:2:0:0:
109,64,226488,5,10,0:0:0:0:
147,181,226660,1,2,0:0:0:0:
25,156,226831,1,2,1:2:0:0:
121,76,227003,1,0,0:0:0:0:
159,193,227174,5,10,0:0:0:0:
37,168,227346,1,2,0:0:0:0:
133,88,227517,1,2,0:2:0:0:
171,205,227688,1,0,1:0:0:0:
374,170,227860,5,8,0:0:0:0:
232,98,228031,1,2,0:0:0:0:
232,98,228117,1,2,0:0:0:0:
232,98,228203,5,0,1:0:0:0:
327,265,228374,2,0,L|333:368,1,95.9999970703126,2|8,0:0|0:0,0:0:0:0:
245,307,228717,2,0,B|302:305|327:265|327:265|355:301|413:300,1,191.999994140625,2|2,0:0|1:2,0:0:0:0:
332,360,229231,1,8,0:0:0:0:
370,196,229403,1,2,0:0:0:0:
334,183,229488,1,2,0:0:0:0:
296,190,229574,5,0,1:0:0:0:
158,250,229746,2,0,L|87:242,2,47.9999985351563,0|0|8,0:0|0:0|0:0,0:0:0:0:
327,265,230088,1,2,0:0:0:0:
219,158,230260,2,0,L|204:47,1,95.9999970703126,0|0,0:0|1:0,0:0:0:0:
451,182,230603,2,0,L|436:293,1,95.9999970703126,8|2,0:0|0:0,0:0:0:0:
438,277,230860,1,2,0:0:0:0:
438,277,230946,1,0,1:0:0:0:
303,186,231117,5,2,0:0:0:0:
253,244,231288,1,10,0:0:0:0:
249,320,231460,1,2,0:0:0:0:
152,334,231631,5,2,0:0:0:0:
166,202,231803,1,0,1:0:0:0:
252,102,231974,1,8,0:0:0:0:
253,244,232146,1,2,0:0:0:0:
111,264,232317,6,0,B|83:235|80:198|80:198|82:263|31:321,1,191.999994140625,0|8,1:0|0:0,0:0:0:0:
19,148,232831,2,0,P|67:119|151:157,1,143.999995605469,2|0,0:0|0:0,0:0:0:0:
144,147,233174,1,0,1:0:0:0:
253,244,233346,6,0,P|305:249|361:205,1,95.9999970703126,8|2,0:0|0:0,0:0:0:0:
348,216,233603,1,2,0:0:0:0:
354,203,233688,1,0,1:0:0:0:
468,191,233860,1,2,0:0:0:0:
462,178,233946,1,2,0:0:0:0:
456,165,234031,1,8,0:0:0:0:
330,108,234203,5,2,0:0:0:0:
336,95,234289,1,2,0:0:0:0:
342,82,234374,1,0,0:0:0:0:
456,67,234546,1,2,1:2:0:0:
450,54,234632,1,2,0:2:0:0:
444,41,234717,1,8,0:0:0:0:
265,181,234888,6,0,L|181:193,1,47.9999985351563,2|2,0:0|0:0,0:0:0:0:
187,55,235060,2,0,P|108:24|32:114,1,191.999994140625,4|8,1:2|0:0,0:0:0:0:
86,235,235574,1,2,0:0:0:0:
246,105,235746,2,0,P|197:62|136:87,1,95.9999970703126,0|0,0:0|1:0,0:0:0:0:
86,235,236088,1,8,0:0:0:0:
265,181,236260,5,2,0:0:0:0:
261,204,236346,1,2,0:0:0:0:
257,227,236431,1,0,1:0:0:0:
287,287,236603,1,2,0:0:0:0:
356,319,236774,1,8,0:0:0:0:
440,300,236946,1,2,0:0:0:0:
494,220,237117,1,0,0:0:0:0:
474,116,237288,1,0,1:0:0:0:
381,46,237460,5,10,0:0:0:0:
392,197,237631,1,2,0:0:0:0:
474,116,237803,1,6,0:0:0:0:
230,92,237974,1,0,0:0:0:0:
323,162,238146,5,10,0:0:0:0:
312,11,238317,1,2,0:0:0:0:
230,92,238489,1,2,0:0:0:0:
474,116,238660,1,0,1:0:0:0:
330,237,238831,5,8,0:0:0:0:
389,123,239003,2,0,P|349:90|273:103,1,95.9999970703126,0|2,0:0|1:2,0:0:0:0:
168,207,239346,2,0,L|99:218,2,47.9999985351563,0|2|8,0:0|0:0|0:0,0:0:0:0:
273,61,239688,6,0,P|355:59|443:155,1,191.999994140625,2|0,0:0|1:0,0:0:0:0:
192,109,240203,1,8,0:0:0:0:
330,237,240374,6,0,L|316:305,1,47.9999985351563,2|2,0:0|0:0,0:0:0:0:
256,336,240546,1,4,1:2:0:0:
256,48,240888,1,0,1:0:0:0:
256,336,241231,1,0,1:0:0:0:
256,48,241574,1,0,1:0:0:0:
256,192,241746,1,0,1:0:0:0:
256,336,241917,6,0,B|225:323|225:323|137:330,1,95.9999970703126,4|2,1:2|0:0,0:0:0:0:
105,240,242260,2,0,B|136:253|136:253|224:246,1,95.9999970703126,0|2,1:0|0:0,0:0:0:0:
395,131,242603,6,0,B|364:118|364:118|276:125,1,95.9999970703126,0|2,1:0|0:0,0:0:0:0:
256,192,242946,2,0,B|287:205|287:205|375:198,1,95.9999970703126,0|2,1:0|0:0,0:0:0:0:
485,269,243288,5,4,1:2:0:0:
449,338,243460,1,0,1:0:0:0:
370,159,243631,5,0,1:0:0:0:
359,236,243803,1,0,1:0:0:0:
223,94,243974,5,4,1:2:0:0:
239,170,244146,1,0,1:0:0:0:
62,83,244317,5,0,1:0:0:0:
103,149,244488,2,0,P|136:93|53:5,1,191.999994140625,4|0,1:2|1:0,0:0:0:0:
26,178,245003,6,0,L|43:238,1,47.9999985351563,0|0,1:0|0:0,0:0:0:0:
128,261,245174,2,0,L|145:321,1,47.9999985351563,0|0,1:0|0:0,0:0:0:0:
230,344,245346,5,0,1:0:0:0:
236,321,245431,1,0,1:0:0:0:
242,298,245517,1,0,1:0:0:0:
248,275,245603,1,0,1:0:0:0:
318,241,245688,6,0,L|357:243,1,40,8|0,0:0|0:0,0:0:0:0:
451,255,246031,6,0,B|420:212|347:204|318:241|318:241|357:243,1,191.999994140625,4|8,1:2|0:0,0:0:0:0:
334,325,246546,1,2,0:0:0:0:
351,141,246717,2,0,P|302:156|248:191,1,95.9999970703126,0|0,0:0|1:0,0:0:0:0:
96,211,247060,2,0,P|144:227|208:231,1,95.9999970703126,8|2,0:0|0:0,0:0:0:0:
188,232,247317,5,2,0:0:0:0:
188,232,247403,1,0,1:0:0:0:
174,81,247574,2,0,L|98:93,1,47.9999985351563,2|2,0:0|0:0,0:0:0:0:
24,144,247746,1,8,0:0:0:0:
24,144,247917,1,2,0:0:0:0:
24,144,248088,1,2,0:0:0:0:
24,144,248260,2,0,L|71:136,1,47.9999985351563,0|0,1:0|0:0,0:0:0:0:
228,148,248431,5,10,0:0:0:0:
141,299,248603,1,2,0:0:0:0:
151,107,248774,1,2,1:2:0:0:
241,231,248946,1,0,0:0:0:0:
303,175,249117,5,10,0:0:0:0:
273,346,249289,1,2,0:0:0:0:
388,193,249460,1,2,0:2:0:0:
241,231,249632,1,0,1:0:0:0:
415,276,249803,5,8,0:0:0:0:
360,116,249974,1,2,0:0:0:0:
370,106,250060,1,2,0:0:0:0:
380,96,250146,2,0,L|265:102,1,95.9999970703126,0|2,1:0|0:0,0:0:0:0:
214,81,250488,1,8,0:0:0:0:
401,52,250660,2,0,B|328:56|328:56|287:76|287:76|214:81,1,191.999994140625,2|0,0:0|1:0,0:0:0:0:
139,81,251174,1,8,0:0:0:0:
64,81,251346,1,2,0:0:0:0:
64,81,251431,1,2,0:0:0:0:
64,81,251517,5,0,1:0:0:0:
102,181,251688,2,0,L|104:235,2,47.9999985351563,0|2|8,0:0|0:0|0:0,0:0:0:0:
27,315,252031,2,0,P|87:268|223:292,1,191.999994140625,2|0,0:0|1:0,0:0:0:0:
347,333,252546,2,0,L|356:213,1,95.9999970703126,8|2,0:0|0:0,0:0:0:0:
356,223,252803,5,2,0:0:0:0:
358,208,252888,1,0,1:0:0:0:
436,264,253060,1,2,0:0:0:0:
445,169,253231,1,10,0:0:0:0:
356,223,253403,5,2,0:0:0:0:
508,226,253574,1,2,0:0:0:0:
464,78,253746,1,0,1:0:0:0:
312,75,253917,1,8,0:0:0:0:
352,238,254088,2,0,L|355:315,1,47.9999985351563,2|0,0:0|0:0,0:0:0:0:
353,285,254260,6,0,B|273:235|273:235|167:261,1,191.999994140625,0|8,1:0|0:0,0:0:0:0:
257,325,254774,2,0,L|291:127,1,191.999994140625,2|0,0:0|1:0,0:0:0:0:
289,135,255288,1,8,0:0:0:0:
430,158,255460,6,0,L|346:143,1,47.9999985351563,2|2,0:0|0:0,0:0:0:0:
215,119,255631,1,0,1:0:0:0:
294,163,255803,1,2,0:0:0:0:
292,149,255889,1,2,0:0:0:0:
289,135,255974,1,8,0:0:0:0:
399,252,256146,6,0,L|314:266,1,47.9999985351563,2|2,0:0|0:0,0:0:0:0:
183,291,256317,1,0,0:0:0:0:
262,247,256489,1,2,0:2:0:0:
260,261,256575,1,2,0:0:0:0:
257,274,256660,1,8,0:0:0:0:
102,152,256831,6,0,L|188:157,1,47.9999985351563,2|2,0:0|0:0,0:0:0:0:
294,163,257003,2,0,L|100:152,1,191.999994140625,4|8,1:2|0:0,0:0:0:0:
248,55,257517,1,2,0:0:0:0:
305,247,257688,2,0,L|188:240,1,95.9999970703126,2|0,0:0|1:0,0:0:0:0:
324,33,258031,1,8,0:0:0:0:
438,170,258203,5,2,0:0:0:0:
408,194,258289,1,2,0:0:0:0:
370,196,258374,1,0,1:0:0:0:
400,11,258546,1,2,0:0:0:0:
511,145,258717,1,8,0:0:0:0:
375,118,258888,5,2,0:0:0:0:
394,273,259060,1,0,0:0:0:0:
298,151,259231,1,0,1:0:0:0:
256,280,259403,5,10,0:0:0:0:
235,206,259574,1,2,0:0:0:0:
181,261,259746,1,6,0:0:0:0:
369,241,259917,1,0,0:0:0:0:
268,292,260088,5,10,0:0:0:0:
239,188,260259,1,2,0:0:0:0:
163,265,260431,1,2,0:0:0:0:
369,241,260602,1,0,1:0:0:0:
281,304,260774,5,8,0:0:0:0:
243,171,260945,1,0,0:0:0:0:
146,270,261117,6,0,L|354:243,1,191.999994140625,0|8,1:0|0:0,0:0:0:0:
336,245,261631,1,2,0:0:0:0:
433,301,261803,2,0,P|454:255|437:183,1,95.9999970703126,0|0,0:0|1:0,0:0:0:0:
512,150,262146,2,0,P|495:102|518:32,1,95.9999970703126,8|0,0:0|0:0,0:0:0:0:
433,23,262488,5,4,1:2:0:0:
433,23,262831,1,0,1:0:0:0:
433,23,263174,1,0,1:0:0:0:
433,23,263517,1,0,1:0:0:0:
411,96,263688,1,0,1:0:0:0:
389,169,263860,6,0,L|413:304,1,95.9999970703126,4|2,1:2|0:0,0:0:0:0:
309,170,264203,2,0,L|333:305,1,95.9999970703126,0|2,1:0|0:0,0:0:0:0:
229,171,264546,2,0,L|253:306,1,95.9999970703126,0|2,1:0|0:0,0:0:0:0:
149,172,264888,2,0,L|173:307,1,95.9999970703126,0|2,1:0|0:0,0:0:0:0:
129,51,265231,5,4,1:2:0:0:
329,61,265403,1,0,1:0:0:0:
259,30,265574,5,0,1:0:0:0:
249,230,265746,1,0,1:0:0:0:
179,199,265917,5,4,1:2:0:0:
379,209,266089,1,0,1:0:0:0:
309,178,266260,5,0,1:0:0:0:
299,378,266431,1,4,1:2:0:0:
402,41,266774,5,0,1:0:0:0:
256,160,266945,1,0,1:0:0:0:
110,41,267117,1,0,1:0:0:0:
297,187,267288,5,0,1:0:0:0:
279,232,267374,1,0,1:0:0:0:
231,232,267459,1,0,1:0:0:0:
215,187,267545,1,0,1:0:0:0:
256,160,267631,1,8,0:0:0:0:
253,328,267974,5,4,0:2:0:0:
385,325,268146,1,2,0:0:0:0:
388,341,268231,2,0,B|360:354|360:354|294:345,1,55.9999982910157,0|0,0:0|2:0,0:0:0:0:
392,153,268488,5,0,0:0:0:0:
468,313,268660,1,2,0:0:0:0:
321,211,268831,1,0,0:0:0:0:
488,104,269003,6,2,P|429:32|311:66,1,192,0|0,0:0|0:0,0:0:0:0:
321,55,269346,1,2,0:0:0:0:
405,236,269517,2,0,B|399:188|399:188|402:154|402:154|397:108,2,128,0|2|2,0:0|0:0|0:0,0:0:0:0:
397,108,270031,5,2,0:0:0:0:
432,329,270203,2,2,P|424:275|454:317,2,143.999995605469,0|0|0,0:0|0:0|0:0,0:0:0:0:
475,196,270717,6,0,P|411:191|342:223,1,111.999996582031,0|0,0:0|0:0,0:0:0:0:
265,267,271060,1,0,0:0:0:0:
336,326,271231,6,0,L|342:117,1,192,2|0,0:0|2:0,0:0:0:0:
384,50,271574,6,2,P|345:148|360:39,1,320,0|0,0:0|0:0,0:0:0:0:
478,29,272088,1,0,1:0:0:0:
351,94,272260,5,2,0:0:0:0:
132,75,272431,1,0,0:0:0:0:
346,108,272603,1,2,0:0:0:0:
143,157,272774,5,0,0:0:0:0:
347,192,272946,1,2,0:0:0:0:
148,171,273117,1,2,0:0:0:0:
282,241,273288,5,0,0:0:0:0:
195,239,273460,1,4,0:0:0:0:
251,136,273631,5,2,0:0:0:0:
233,314,273803,1,0,0:0:0:0:
64,312,273974,1,2,0:0:0:0:
93,155,274146,6,0,B|135:186|135:186|76:207,1,103.999995239258,0|2,0:0|0:0,0:0:0:0:
12,172,274488,1,0,0:0:0:0:
114,68,274660,2,0,L|198:131,1,103.999995239258,2|0,0:0|0:0,0:0:0:0:
162,350,275003,5,0,0:0:0:0:
142,229,275174,1,2,0:0:0:0:
249,342,275346,1,0,0:0:0:0:
250,219,275517,1,2,0:0:0:0:
336,349,275688,1,2,0:0:0:0:
358,228,275859,1,0,0:0:0:0:
249,342,276031,1,2,0:0:0:0:
250,219,276203,6,2,L|250:45,1,160,0|8,0:0|2:0,0:0:0:0:
250,219,276888,1,2,2:0:0:0:
250,59,277231,1,0,0:0:0:0:
295,141,277403,6,2,B|245:136|245:136|194:154|194:154|133:150,2,160,2|0|2,2:0|0:2|2:1,0:0:0:0:
480,158,278260,6,0,L|486:74,1,80,0|0,0:2|0:0,0:0:0:0:
380,46,278603,2,2,L|394:224,1,160,0|4,0:2|0:2,0:0:0:0:
338,333,279117,5,2,0:0:0:0:
340,316,279203,2,0,L|426:299,1,55.9999982910157,0|0,0:0|2:0,0:0:0:0:
136,291,279460,6,0,L|259:299,2,111.999996582031,0|2|0,0:0|0:0|0:0,0:0:0:0:
307,229,279974,1,0,0:0:0:0:
265,378,280146,1,0,0:0:0:0:
116,217,280317,5,0,0:0:0:0:
296,197,280488,1,2,0:0:0:0:
136,291,280660,1,0,0:0:0:0:
285,165,280831,1,2,0:0:0:0:
175,351,281003,6,2,P|70:317|203:268,1,320,0|0,0:0|0:0,0:0:0:0:
136,291,281517,1,0,0:0:0:0:
245,97,281688,6,0,P|276:89|326:94,1,55.9999982910157,4|0,0:0|2:0,0:0:0:0:
388,114,281860,1,2,0:0:0:0:
191,211,282031,1,0,0:0:0:0:
382,126,282203,1,2,0:0:0:0:
174,50,282374,5,0,0:0:0:0:
271,195,282546,2,2,P|323:200|285:165,2,136.000002593994,2|0|2,0:0|0:0|0:0,0:0:0:0:
174,50,283060,5,0,0:0:0:0:
271,195,283231,2,0,P|333:201|287:158,2,160,2|0|2,0:0|0:0|0:0,0:0:0:0:
174,50,283746,5,0,0:0:0:0:
185,229,283917,1,0,0:0:0:0:
250,66,284088,1,2,0:2:0:0:
98,262,284260,1,0,0:0:0:0:
326,82,284431,5,4,0:2:0:0:
291,355,284774,2,0,L|286:272,1,80,0|0,0:0|2:0,0:0:0:0:
384,165,285117,2,0,P|394:205|377:260,1,80,0|0,0:0|0:0,0:0:0:0:
197,272,285460,2,0,P|187:232|204:177,1,80,0|0,0:0|0:0,0:0:0:0:
326,82,285803,5,4,0:2:0:0:
296,156,285974,1,2,2:0:0:0:
266,230,286146,1,0,0:0:0:0:
189,160,286317,2,2,P|132:136|30:149,1,160,2|2,2:0|2:0,0:0:0:0:
36,146,286831,1,0,0:0:0:0:
140,279,287003,6,0,P|150:318|145:356,1,80,2|4,2:0|0:2,0:0:0:0:
213,250,287346,2,0,P|178:271|141:278,1,80,2|0,0:2|0:0,0:0:0:0:
263,310,287688,2,0,P|231:284|213:250,1,80,2|0,0:2|0:0,0:0:0:0:
221,376,288031,2,0,P|235:338|262:310,1,80,2|0,0:2|0:0,0:0:0:0:
145,356,288374,2,0,P|185:358|219:375,1,80,2|0,0:2|2:0,0:0:0:0:
367,356,288717,6,0,L|351:232,1,95.9999970703126
145,356,289060,2,0,L|161:232,1,95.9999970703126
256,216,289317,1,0,0:0:0:0:
256,200,289403,2,0,L|256:132,1,47.9999985351563
256,80,289574,1,8,2:0:0:0:
256,216,289917,5,4,0:2:0:0:
319,268,291288,1,0,0:0:0:0:
333,180,292660,1,0,0:0:0:0:
339,373,294031,6,0,L|365:377,1,22.4000002734375
382,278,294288,2,0,L|401:271,1,20
371,174,294546,2,0,L|383:161,1,18.1818181818182
310,88,294803,2,0,L|314:68,1,16
215,44,295060,2,0,L|209:29,1,14.1843971631206
109,53,295317,6,0,L|98:41,1,12.1951219512195
48,106,296774,1,0,0:0:0:0:
126,121,298146,1,0,0:0:0:0:
84,271,299346,6,0,L|87:237,1,20
101,119,299603,2,0,L|104:153,1,20
138,202,299860,1,0,0:0:0:0:
196,271,300031,6,0,L|193:237,1,20
179,119,300288,2,0,L|176:153,1,20
138,202,300545,1,0,0:0:0:0:
326,354,300888,5,0,0:0:0:0:
351,338,302260,1,0,0:0:0:0:
324,324,303631,1,0,0:0:0:0:
176,368,305003,6,0,L|149:373,1,23.9999992675781
133,273,305260,2,0,L|112:267,1,20
144,169,305517,2,0,L|131:154,1,18.1818181818182
205,84,305774,2,0,L|200:63,1,18.1818181818182
298,43,306031,2,0,L|306:20,1,23.9999992675781
399,53,306288,6,0,L|423:31,1,32
435,70,307746,1,0,0:0:0:0:
141,142,309117,6,0,L|66:149,2,60
368,217,310317,6,0,L|443:224,2,60
283,204,311003,1,0,0:0:0:0:
319,299,311174,6,0,L|324:355,1,40
221,330,311517,2,0,L|216:386,1,40
