osu file format v12

[General]
AudioFilename: shinku1.mp3
AudioLeadIn: 2000
PreviewTime: 66937
Countdown: 0
SampleSet: Soft
StackLeniency: 0.7
Mode: 0
LetterboxInBreaks: 0

[Editor]
Bookmarks: 19195,34695,51195,67195,95195,99195,115195,131195,159195
DistanceSpacing: 0.5
BeatDivisor: 4
GridSize: 32

[Metadata]
Title:Sanctuary
TitleUnicode:サンクチュアリ
Artist:Sawada Natsu
ArtistUnicode:澤田なつ
Creator:Nymph
Version:Hard
Source:Irotoridori no Sekai
Tags:shinku
BeatmapID:167442
BeatmapSetID:55141

[Difficulty]
HPDrainRate:6
CircleSize:4
OverallDifficulty:7
ApproachRate:8
SliderMultiplier:1.6
SliderTickRate:1

[Events]
//Background and Video events
0,0,"bg.jpg",0,0
//Break Periods
2,19395,33945
2,95395,97195
//Storyboard Layer 0 (Background)
//Storyboard Layer 1 (Fail)
//Storyboard Layer 2 (Pass)
//Storyboard Layer 3 (Foreground)
//Storyboard Sound Samples
//Background Colour Transformations
3,100,0,0,0

[TimingPoints]
-805,500,4,2,1,35,1,0
727,-133.333333333333,4,2,1,35,0,0
15187,-100,4,2,1,50,0,0

[Colours]
Combo1 : 179,255,179
Combo2 : 151,203,255
Combo3 : 255,196,255
Combo4 : 255,207,185

[HitObjects]
150,69,695,1,0,0:0:0:0:
87,105,945,1,0,0:0:0:0:
146,144,1195,2,0,B|188:183|196:252,1,119.999996423721
266,263,1945,1,0,0:0:0:0:
309,320,2195,2,0,B|348:278|417:270,1,119.999996423721
461,64,3195,6,0,B|422:106|353:114,1,119.999996423721
319,176,3945,2,0,B|262:201|200:186,1,119.999996423721
152,134,4695,1,0,0:0:0:0:
27,206,4945,1,0,0:0:0:0:
74,259,5195,6,0,B|65:294|41:321,2,59.9999982118607
144,275,5945,2,0,B|196:356|297:356,1,179.999994635582
481,83,7195,6,0,B|471:146|415:187,1,119.999996423721
362,226,7945,1,0,0:0:0:0:
423,262,8195,2,0,B|478:323,2,59.9999982118607
361,299,8945,1,0,0:0:0:0:
204,306,9195,6,0,B|156:342|92:344,1,119.999996423721
22,217,9945,1,0,0:0:0:0:
22,217,10195,2,0,B|70:181|134:179,1,119.999996423721
358,178,11195,6,0,B|422:176|470:140,1,119.999996423721
377,29,11945,2,0,B|313:31|265:67,1,119.999996423721
202,30,12695,1,0,0:0:0:0:
45,102,13195,6,0,B|51:163|13:218,1,119.999996423721
60,271,13945,2,0,B|122:291|145:355,1,119.999996423721
208,319,14695,1,0,0:0:0:0:
400,355,15195,6,0,B|475:328|506:237,1,160,4|0,0:0|0:0,0:0:0:0:
431,192,15945,1,0,0:0:0:0:
453,43,16195,2,0,B|378:70|349:157,1,160,0|0,0:0|0:0,0:0:0:0:
312,236,16945,1,0,0:0:0:0:
235,114,17195,5,0,0:0:0:0:
95,149,17445,1,0,0:0:0:0:
95,149,17570,1,0,0:0:0:0:
95,149,17695,1,8,0:0:0:0:
235,114,17945,1,0,0:0:0:0:
168,274,18195,1,0,0:0:0:0:
235,114,18445,2,0,B|252:72,2,40,0|0|8,0:0|0:0|0:0,0:0:0:0:
132,357,18945,1,0,0:0:0:0:
452,345,19195,1,4,0:0:0:0:
320,128,34695,5,8,0:0:0:0:
265,58,34945,1,0,0:0:0:0:
178,39,35195,2,0,P|105:29|29:65,1,160,4|8,0:0|0:0,0:0:0:0:
15,151,35945,2,0,P|10:190|21:228,1,80,0|0,0:0|0:0,0:0:0:0:
65,230,36320,2,0,P|76:268|71:307,1,80,0|0,0:0|0:0,0:0:0:0:
96,344,36695,2,0,P|178:361|248:327,1,160,8|0,0:0|0:0,0:0:0:0:
346,158,37695,5,8,0:0:0:0:
327,72,37945,2,0,P|245:55|175:89,1,160,0|0,0:0|0:0,0:0:0:0:
87,92,38695,1,8,0:0:0:0:
98,179,38945,2,0,L|18:179,2,80,0|0|0,0:0|0:0|0:0,0:0:0:0:
132,260,39695,2,0,L|212:260,1,80,8|0,0:0|0:0,0:0:0:0:
285,309,40195,2,0,P|355:331|436:309,1,160,0|8,0:0|0:0,0:0:0:0:
469,135,41195,6,0,P|399:113|318:135,1,160,0|8,0:0|0:0,0:0:0:0:
255,73,41945,1,0,0:0:0:0:
192,135,42195,1,0,0:0:0:0:
129,72,42445,1,0,0:0:0:0:
66,134,42695,2,0,P|48:169|45:209,1,80,8|0,0:0|0:0,0:0:0:0:
104,275,43195,6,0,P|164:284|224:275,1,120,0|0,0:0|0:0,0:0:0:0:
263,260,43695,2,0,P|302:262|338:280,1,80,8|0,0:0|0:0,0:0:0:0:
401,341,44195,2,0,P|448:277|466:200,1,160,0|8,0:0|0:0,0:0:0:0:
406,34,45195,6,0,P|358:97|340:174,1,160,0|8,0:0|0:0,0:0:0:0:
312,258,45945,2,0,P|287:289|252:308,2,80,0|0|0,0:0|0:0|0:0,0:0:0:0:
263,184,46695,2,0,P|244:148|212:124,1,80,8|0,0:0|0:0,0:0:0:0:
128,100,47195,6,0,P|94:165|101:248,1,160,0|8,0:0|0:0,0:0:0:0:
249,355,47945,2,0,P|283:290|276:207,1,160,0|0,0:0|0:0,0:0:0:0:
360,342,48695,1,8,0:0:0:0:
433,169,49195,6,0,P|395:154|356:155,1,80,0|0,0:0|0:0,0:0:0:0:
295,218,49570,2,0,P|256:229|216:217,1,80
156,155,49945,2,0,P|117:154|79:169,1,80,0|0,0:0|0:0,0:0:0:0:
43,194,50320,1,0,0:0:0:0:
43,194,50445,1,0,0:0:0:0:
51,340,50695,1,8,0:0:0:0:
185,285,50945,1,0,0:0:0:0:
185,285,51070,1,0,0:0:0:0:
185,285,51195,6,0,P|224:330|280:351,1,120,0|0,0:0|0:0,0:0:0:0:
316,340,51695,2,0,P|355:341|391:362,1,80,8|0,0:0|0:0,0:0:0:0:
500,253,52195,2,0,P|480:288|471:326,1,80,0|0,0:0|0:0,0:0:0:0:
437,176,52695,2,0,P|457:141|466:103,1,80,8|0,0:0|0:0,0:0:0:0:
333,12,53195,5,0,0:0:0:0:
296,92,53445,1,0,0:0:0:0:
296,92,53570,1,0,0:0:0:0:
296,92,53695,2,0,P|276:127|267:165,1,80,8|0,0:0|0:0,0:0:0:0:
172,336,54195,1,0,0:0:0:0:
95,291,54445,1,0,0:0:0:0:
95,291,54570,1,0,0:0:0:0:
95,291,54695,2,0,P|75:256|66:218,1,80,8|0,0:0|0:0,0:0:0:0:
45,38,55195,5,0,0:0:0:0:
120,83,55445,1,0,0:0:0:0:
138,169,55695,1,8,0:0:0:0:
207,115,55945,2,0,P|247:111|287:115,1,80,0|0,0:0|0:0,0:0:0:0:
331,191,56445,2,0,P|371:195|411:191,1,80,0|8,0:0|0:0,0:0:0:0:
464,44,56945,1,0,0:0:0:0:
476,132,57195,5,0,0:0:0:0:
462,265,57445,1,0,0:0:0:0:
462,265,57570,1,0,0:0:0:0:
462,265,57695,2,0,P|450:306|427:336,1,80,8|0,0:0|0:0,0:0:0:0:
241,357,58195,1,0,0:0:0:0:
250,269,58445,1,0,0:0:0:0:
250,269,58570,1,0,0:0:0:0:
250,269,58695,2,0,P|262:228|285:198,1,80,8|0,0:0|0:0,0:0:0:0:
294,181,59070,1,0,0:0:0:0:
304,164,59195,6,0,P|322:108|313:49,1,120,0|0,0:0|0:0,0:0:0:0:
274,26,59695,2,0,P|233:27|198:45,1,80,8|0,0:0|0:0,0:0:0:0:
55,113,60195,2,0,P|96:112|131:94,1,80,0|0,0:0|0:0,0:0:0:0:
29,199,60695,2,0,P|11:233|10:274,1,80,8|0,0:0|0:0,0:0:0:0:
172,299,61195,6,0,P|229:307|274:349,1,120,0|0,0:0|0:0,0:0:0:0:
308,374,61695,1,8,0:0:0:0:
395,374,61945,1,0,0:0:0:0:
475,339,62195,2,0,P|498:305|504:267,1,80,0|0,0:0|0:0,0:0:0:0:
502,74,62695,2,0,P|479:108|473:146,1,80,8|0,0:0|0:0,0:0:0:0:
465,164,63070,1,0,0:0:0:0:
454,181,63195,6,0,P|379:209|297:199,1,160,0|8,0:0|0:0,0:0:0:0:
257,124,63945,1,0,0:0:0:0:
107,222,64195,2,0,P|69:262|49:322,2,120,0|0|0,0:0|0:0|0:0,0:0:0:0:
257,124,65195,5,8,0:0:0:0:
256,302,65570,1,8,0:0:0:0:
257,124,65945,1,8,0:0:0:0:
405,162,66945,1,0,0:0:0:0:
321,86,67195,6,0,P|251:54|169:59,1,160,4|8,0:0|0:0,0:0:0:0:
79,125,67945,1,0,0:0:0:0:
74,144,68070,1,0,0:0:0:0:
68,163,68195,2,0,P|137:194|219:189,1,160,0|8,0:0|0:0,0:0:0:0:
332,186,68945,1,0,0:0:0:0:
451,292,69195,6,0,P|482:222|477:140,1,160,0|8,0:0|0:0,0:0:0:0:
430,37,69945,1,0,0:0:0:0:
411,29,70070,1,0,0:0:0:0:
391,22,70195,2,0,P|359:91|364:173,1,160,0|8,0:0|0:0,0:0:0:0:
305,271,70945,1,0,0:0:0:0:
154,324,71195,6,0,P|115:311|76:317,1,80,0|0,0:0|0:0,0:0:0:0:
45,209,71695,2,0,P|39:169|51:131,1,80,8|0,0:0|0:0,0:0:0:0:
152,82,72195,2,0,P|213:92|269:82,2,120,0|0|0,0:0|0:0|0:0,0:0:0:0:
175,240,73195,6,0,P|204:315|263:365,1,160,0|8,0:0|0:0,0:0:0:0:
307,372,73820,1,0,0:0:0:0:
347,354,73945,2,0,P|377:329|417:320,1,80,0|0,0:0|0:0,0:0:0:0:
409,207,74445,2,0,P|448:202|482:180,2,80,0|8|0,0:0|0:0|0:0,0:0:0:0:
380,175,75070,1,0,0:0:0:0:
343,150,75195,6,0,P|306:134|266:136,1,80,0|0,0:0|0:0,0:0:0:0:
244,245,75695,2,8,P|204:247|167:231,1,80,8|0,0:0|0:0,0:0:0:0:
130,208,76070,1,0,0:0:0:0:
96,178,76195,2,0,P|64:247|69:329,1,160,0|8,0:0|0:0,0:0:0:0:
380,347,77195,6,0,P|441:337|497:347,2,120,0|0|0,0:0|0:0|0:0,0:0:0:0:
271,373,78195,2,0,P|266:290|297:221,1,160,0|8,0:0|0:0,0:0:0:0:
483,5,79195,6,0,P|487:87|456:156,1,160,0|8,0:0|0:0,0:0:0:0:
318,236,79945,1,0,0:0:0:0:
218,287,80195,2,0,P|179:278|140:287,1,80,0|0,0:0|0:0,0:0:0:0:
103,311,80570,2,8,P|87:251|92:194,1,120,0|0,0:0|0:0,0:0:0:0:
126,37,81195,6,0,P|206:18|280:37,1,160,0|8,0:0|0:0,0:0:0:0:
392,50,81945,1,0,0:0:0:0:
394,70,82070,1,0,0:0:0:0:
396,90,82195,1,0,0:0:0:0:
397,110,82320,1,0,0:0:0:0:
399,130,82445,1,0,0:0:0:0:
401,150,82570,1,0,0:0:0:0:
403,170,82695,1,8,0:0:0:0:
404,190,82820,1,0,0:0:0:0:
406,210,82945,1,0,0:0:0:0:
408,230,83070,1,0,0:0:0:0:
410,249,83195,6,0,P|374:267|334:269,1,80,0|0,0:0|0:0,0:0:0:0:
297,245,83570,1,0,0:0:0:0:
260,221,83695,2,0,P|219:222|184:241,1,80,8|0,0:0|0:0,0:0:0:0:
76,267,84195,2,0,P|63:228|69:189,1,80,0|0,0:0|0:0,0:0:0:0:
102,83,84695,2,0,P|123:49|157:27,1,80,8|0,0:0|0:0,0:0:0:0:
289,116,85195,6,0,P|350:123|405:105,2,120,0|0|0,0:0|0:0|0:0,0:0:0:0:
205,190,86195,2,0,P|208:229|229:264,1,80,0|0,0:0|0:0,0:0:0:0:
340,272,86695,2,0,P|336:232|315:197,1,80,8|0,0:0|0:0,0:0:0:0:
417,109,87195,6,0,P|461:176|469:253,1,160,0|8,0:0|0:0,0:0:0:0:
403,344,87945,1,0,0:0:0:0:
294,369,88195,2,0,P|238:356|177:369,2,120,0|0|0,0:0|0:0|0:0,0:0:0:0:
328,212,89195,6,0,P|343:175|341:135,1,80,0|0,0:0|0:0,0:0:0:0:
335,116,89570,1,0,0:3:0:0:
323,99,89695,1,8,0:3:0:0:
211,95,89945,2,0,P|195:131|197:171,1,80,0|0,0:0|0:0,0:0:0:0:
156,275,90445,2,0,P|117:287|78:281,2,80,0|8|0,0:0|0:0|0:0,0:0:0:0:
188,244,91070,1,0,0:0:0:0:
221,215,91195,6,0,P|256:233|280:265,1,80,0|0,0:0|0:0,0:0:0:0:
314,292,91570,2,0,P|375:305|431:292,1,120,0|0,0:0|0:0,0:0:0:0:
470,187,92195,2,0,P|475:147|463:109,1,80,0|0,0:0|0:0,0:0:0:0:
372,44,92695,2,0,P|359:82|365:121,1,80,8|0,0:0|0:0,0:0:0:0:
371,164,93070,1,0,0:0:0:0:
360,206,93195,6,0,P|323:221|283:219,1,80,0|0,0:0|0:0,0:0:0:0:
228,122,93695,2,0,P|191:106|151:108,1,80,8|0,0:0|0:0,0:0:0:0:
81,195,94195,2,0,P|117:210|157:208,1,80,0|0,0:0|0:0,0:0:0:0:
303,144,94695,1,8,0:0:0:0:
413,128,94945,1,0,0:0:0:0:
426,143,95070,1,0,0:0:0:0:
439,157,95195,1,0,0:0:0:0:
129,40,98695,6,0,P|109:73|70:96,1,80,8|0,0:0|0:0,0:0:0:0:
21,164,99195,2,0,P|76:225|87:299,1,160,0|8,0:0|0:0,0:0:0:0:
153,357,99945,1,0,0:0:0:0:
240,367,100195,2,0,P|301:312|375:301,1,160,0|8,0:0|0:0,0:0:0:0:
459,272,100945,1,0,0:0:0:0:
491,56,101195,6,0,P|438:112|422:191,1,160,0|8,0:0|0:0,0:0:0:0:
346,237,101945,1,0,0:0:0:0:
271,284,102195,2,0,P|215:337|136:353,1,160,0|8,0:0|0:0,0:0:0:0:
34,179,102945,1,0,0:0:0:0:
47,265,103195,6,0,P|38:305|16:339,2,80,0|0|8,0:0|0:0|0:0,0:0:0:0:
34,179,103945,1,0,0:0:0:0:
63,95,104195,2,0,P|87:63|122:43,1,80,0|0,0:0|0:0,0:0:0:0:
223,124,104695,2,0,P|247:156|282:176,1,80,8|0,0:0|0:0,0:0:0:0:
377,86,105195,6,0,P|412:106|436:138,1,80,0|0,0:0|0:0,0:0:0:0:
457,176,105570,1,0,0:0:0:0:
457,176,105695,1,8,0:0:0:0:
464,360,105945,1,0,0:0:0:0:
360,273,106195,1,0,0:0:0:0:
360,273,106320,1,0,0:0:0:0:
360,273,106445,1,0,0:0:0:0:
282,314,106695,2,0,P|235:353|175:359,1,120,8|0,0:0|0:0,0:0:0:0:
134,357,107195,6,0,P|108:326|73:308,1,80,0|0,0:0|0:0,0:0:0:0:
21,163,107695,2,0,P|47:194|82:212,1,80,8|0,0:0|0:0,0:0:0:0:
127,42,108195,2,0,P|166:36|207:42,1,80,0|0,0:0|0:0,0:0:0:0:
306,123,108695,2,0,P|345:129|386:123,1,80,8|0,0:0|0:0,0:0:0:0:
499,238,109195,6,0,P|455:276|397:296,1,120,0|0,0:0|0:0,0:0:0:0:
354,306,109695,2,0,P|319:326|292:359,1,80,8|0,0:0|0:0,0:0:0:0:
90,358,110195,2,0,P|54:342|32:307,1,80,0|0,0:0|0:0,0:0:0:0:
110,268,110695,2,0,P|146:284|168:319,1,80,8|0,0:0|0:0,0:0:0:0:
422,349,111195,6,0,P|482:293|498:219,1,160,0|8,0:0|0:0,0:0:0:0:
412,199,111945,1,0,0:0:0:0:
404,48,112195,2,0,P|344:104|328:178,1,160,0|8,0:0|0:0,0:0:0:0:
256,229,112945,1,0,0:0:0:0:
168,343,113195,6,0,B|139:337|139:337|118:345|88:344,1,80,0|0,0:0|0:0,0:0:0:0:
141,158,113695,2,0,B|112:164|112:164|91:156|61:157,1,80,8|0,0:0|0:0,0:0:0:0:
91,258,114195,1,0,0:0:0:0:
3,258,114445,1,0,0:0:0:0:
168,343,114695,1,8,0:0:0:0:
168,343,114820,1,0,0:0:0:0:
168,343,114945,1,0,0:0:0:0:
168,343,115070,1,0,0:0:0:0:
168,343,115195,6,0,P|239:303|315:303,1,160,0|8,0:0|0:0,0:0:0:0:
397,335,115945,1,0,0:0:0:0:
470,286,116195,2,0,P|474:246|463:209,1,80,0|0,0:0|0:0,0:0:0:0:
408,57,116695,2,0,P|404:97|415:134,1,80,0|0,0:0|0:0,0:0:0:0:
269,224,117195,6,0,P|192:250|116:237,1,160,0|8,0:0|0:0,0:0:0:0:
81,156,117945,2,0,P|94:231|67:308,1,160,0|0,0:0|0:0,0:0:0:0:
139,357,118695,2,0,P|181:362|217:354,1,80,8|0,0:0|0:0,0:0:0:0:
367,286,119195,6,0,P|403:278|445:283,2,80,0|0|8,0:0|0:0|0:0,0:0:0:0:
309,219,119945,2,0,L|149:219,1,160,0|0,0:0|0:0,0:0:0:0:
86,156,120695,2,0,P|47:154|10:169,1,80,8|0,0:0|0:0,0:0:0:0:
166,136,121195,5,0,0:0:0:0:
223,69,121445,1,0,0:0:0:0:
223,69,121570,1,0,0:0:0:0:
223,69,121695,2,0,P|262:66|301:75,1,80,8|0,0:0|0:0,0:0:0:0:
304,163,122195,2,0,P|343:166|382:157,1,80,0|0,0:0|0:0,0:0:0:0:
492,164,122695,2,0,P|491:203|478:241,1,80,8|0,0:0|0:0,0:0:0:0:
459,281,123070,1,0,0:0:0:0:
433,316,123195,6,0,P|357:329|280:302,1,160,0|8,0:0|0:0,0:0:0:0:
251,218,123945,1,0,0:0:0:0:
211,139,124195,2,0,P|134:112|58:125,1,160,0|8,0:0|0:0,0:0:0:0:
34,210,124945,1,0,0:0:0:0:
35,229,125070,1,0,0:0:0:0:
37,248,125195,6,0,P|113:274|189:261,1,160,0|8,0:0|0:0,0:0:0:0:
273,236,125945,2,0,P|311:238|347:255,1,80,0|0,0:0|0:0,0:0:0:0:
420,305,126445,2,0,P|458:302|494:285,1,80,0|8,0:0|0:0,0:0:0:0:
497,196,126945,1,0,0:0:0:0:
492,176,127070,1,0,0:0:0:0:
487,156,127195,6,0,P|446:158|408:148,1,80,0|0,0:0|0:0,0:0:0:0:
371,125,127570,2,0,P|332:115|292:117,1,80,0|0,0:0|0:0,0:0:0:0:
252,135,127945,1,0,0:0:0:0:
204,208,128195,2,0,P|209:267|193:325,2,120,0|0|0,0:0|0:0|0:0,0:0:0:0:
87,255,129195,5,0,0:0:0:0:
349,300,129570,1,0,0:0:0:0:
259,51,129945,1,0,0:0:0:0:
259,51,130945,1,0,0:0:0:0:
210,124,131195,6,0,P|194:177|150:226,1,120,0|0,0:0|0:0,0:0:0:0:
107,224,131695,2,0,P|83:258|76:295,1,80,8|0,0:0|0:0,0:0:0:0:
75,339,132070,1,0,0:0:0:0:
75,339,132195,1,0,0:0:0:0:
200,381,132445,1,0,0:0:0:0:
200,381,132570,1,0,0:0:0:0:
200,381,132695,2,0,P|241:386|282:380,1,80,8|0,0:0|0:0,0:0:0:0:
465,225,133195,6,0,P|453:307|405:364,1,160,0|8,0:0|0:0,0:0:0:0:
309,218,133945,1,0,0:0:0:0:
309,218,134070,1,0,0:0:0:0:
309,218,134195,2,0,P|252:215|194:236,1,120,0|0,0:0|0:0,0:0:0:0:
186,279,134695,2,0,P|152:305|116:313,1,80,8|0,0:0|0:0,0:0:0:0:
22,154,135195,6,0,P|88:104|162:98,1,160,0|8,0:0|0:0,0:0:0:0:
256,145,135945,1,0,0:0:0:0:
349,191,136195,2,0,P|415:240|489:246,1,160,0|8,0:0|0:0,0:0:0:0:
505,160,136945,1,0,0:0:0:0:
329,18,137195,6,0,P|295:59|279:124,1,120,0|0,0:0|0:0,0:0:0:0:
271,166,137695,1,8,0:0:0:0:
129,245,137945,1,0,0:0:0:0:
181,174,138195,2,0,P|182:133|179:90,1,80,0|0,0:0|0:0,0:0:0:0:
171,50,138570,1,0,0:0:0:0:
171,50,138695,1,8,0:0:0:0:
14,225,138945,1,0,0:0:0:0:
14,225,139070,1,0,0:0:0:0:
14,225,139195,6,0,P|13:266|16:309,1,80,0|0,0:0|0:0,0:0:0:0:
198,372,139695,2,0,P|199:331|196:288,1,80,8|0,0:0|0:0,0:0:0:0:
110,172,140195,2,0,P|109:213|112:256,1,80,0|0,0:0|0:0,0:0:0:0:
294,319,140695,2,0,P|295:278|292:235,1,80,8|0,0:0|0:0,0:0:0:0:
491,340,141195,6,0,P|499:277|493:221,2,120,0|0|0,0:0|0:0|0:0,0:0:0:0:
365,237,142195,1,0,0:0:0:0:
365,237,142320,1,0,0:0:0:0:
305,351,142570,1,0,0:0:0:0:
305,351,142695,1,8,0:0:0:0:
196,281,142945,1,0,0:0:0:0:
196,281,143195,6,0,P|136:336|61:349,1,160,0|8,0:0|0:0,0:0:0:0:
12,164,143945,1,0,0:0:0:0:
12,164,144195,2,0,P|65:129|125:120,2,120,0|0|0,0:0|0:0|0:0,0:0:0:0:
208,142,145195,6,0,P|250:136|285:117,1,80,0|0,0:0|0:0,0:0:0:0:
406,44,145695,2,0,P|438:26|480:20,1,80,8|0,0:0|0:0,0:0:0:0:
434,153,146195,1,0,0:0:0:0:
432,173,146320,1,0,0:0:0:0:
430,192,146445,2,0,L|425:236,1,40
334,181,146695,1,0,0:0:0:0:
332,201,146820,1,0,0:0:0:0:
330,220,146945,2,0,L|325:264,1,40
422,313,147195,6,0,P|378:355|321:368,1,120,0|0,0:0|0:0,0:0:0:0:
278,357,147695,2,0,P|238:357|199:370,1,80,8|0,0:0|0:0,0:0:0:0:
120,239,148195,1,0,0:0:0:0:
84,361,148445,1,0,0:0:0:0:
45,188,148695,1,8,0:0:0:0:
9,310,148945,1,0,0:0:0:0:
120,239,149195,6,0,P|167:201|192:147,1,120,0|0,0:0|0:0,0:0:0:0:
206,106,149695,1,8,0:0:0:0:
340,19,149945,1,0,0:0:0:0:
297,96,150195,1,0,0:0:0:0:
297,96,150320,1,0,0:0:0:0:
297,96,150445,1,0,0:0:0:0:
316,181,150695,2,0,P|322:225|337:257,1,80,8|0,0:0|0:0,0:0:0:0:
500,238,151195,6,0,P|475:314|413:362,1,160,0|8,0:0|0:0,0:0:0:0:
326,346,151945,1,0,0:0:0:0:
162,352,152195,2,0,P|105:343|44:353,2,120,0|0|0,0:0|0:0|0:0,0:0:0:0:
326,346,153195,5,0,0:0:0:0:
336,329,153320,1,0,0:0:0:0:
347,312,153445,1,0,0:0:0:0:
499,274,153695,2,0,P|498:229|487:193,1,80,8|0,0:0|0:0,0:0:0:0:
434,30,154195,1,0,0:0:0:0:
426,48,154320,1,0,0:0:0:0:
418,66,154445,1,0,0:0:0:0:
410,84,154570,1,0,0:0:0:0:
402,102,154695,1,8,0:0:0:0:
262,62,154945,1,0,0:0:0:0:
254,80,155070,1,0,0:0:0:0:
245,98,155195,6,0,P|212:156|165:179,1,120,0|0,0:0|0:0,0:0:0:0:
122,188,155695,2,0,P|92:216|74:251,1,80,8|0,0:0|0:0,0:0:0:0:
160,367,156195,2,0,P|190:339|208:304,1,80,0|0,0:0|0:0,0:0:0:0:
428,317,156695,2,0,P|439:277|438:238,1,80,8|0,0:0|0:0,0:0:0:0:
432,195,157070,1,0,0:0:0:0:
423,151,157195,6,0,P|382:82|309:46,1,160,0|8,0:0|0:0,0:0:0:0:
185,104,157945,1,0,0:0:0:0:
192,244,158195,2,0,P|233:313|306:349,1,160,0|8,0:0|0:0,0:0:0:0:
428,311,158945,1,0,0:0:0:0:
444,323,159070,1,0,0:0:0:0:
460,334,159195,1,0,0:0:0:0:
