osu file format v7

[General]
AudioFilename: savlonic - electro gypsy.mp3
AudioLeadIn: 0
PreviewTime: 18541
Countdown: 1
SampleSet: Normal
StackLeniency: 0.7
Mode: 0
LetterboxInBreaks: 1

[Editor]
Bookmarks: 18541,30749,36863,42977,49091,61318,67432,73546,85774,90359,91888,104116,116343,122457,128571,134692
DistanceSpacing: 0.899999976158142
BeatDivisor: 4
GridSize: 8

[Metadata]
Title:Electro Gypsy
Artist:Savlonic
Creator:Xgor
Version:Normal
Source:Weebl's Stuff
Tags:Synth Yamaha Casio Moog Hitler Evangeline D'isco Roscoe Thunderpants Kandee Flaus Encrypto Yesterday's Lemon

[Difficulty]
HPDrainRate:2
CircleSize:3
OverallDifficulty:3
SliderMultiplier:1.4
SliderTickRate:2

[Events]
//Background and Video events
0,0,"Electro Gypsy.jpg"
Video,80,"Electro Gypsy.flv"
//Break Periods
2,43093,47567
2,85895,88841
2,128698,133172
//Storyboard Layer 0 (Background)
//Storyboard Layer 1 (Fail)
//Storyboard Layer 2 (Pass)
//Storyboard Layer 3 (Foreground)
//Storyboard Sound Samples
//Background Colour Transformations
3,100,163,162,255

[TimingPoints]
12320,382.165605095541,4,1,0,80,1,0
18625,-100,4,2,0,80,0,0
19007,-100,4,1,0,80,0,0
19390,-100,4,2,0,80,0,0
19867,-100,4,1,0,80,0,0
20154,-100,4,2,0,80,0,0
20536,-100,4,1,0,80,0,0
21025,-100,4,2,0,80,0,0
21300,-100,4,1,0,80,0,0
21683,-100,4,2,0,80,0,0
22256,-100,4,1,0,80,0,0
22458,-100,4,2,0,80,0,0
22734,-100,4,1,0,80,0,0
23211,-100,4,2,0,80,0,0
23784,-100,4,1,0,80,0,0
23987,-100,4,2,0,80,0,0
24358,-100,4,1,0,80,0,0
24740,-100,4,2,0,80,0,0
25313,-100,4,1,0,80,0,0
25409,-100,4,2,0,80,0,0
25982,-100,4,1,0,80,0,0
26269,-100,4,2,0,80,0,0
26651,-100,4,1,0,80,0,0
27017,-100,4,2,0,80,0,0
27319,-100,4,1,0,80,0,0
27797,-100,4,2,0,80,0,0
28848,-100,4,1,0,80,0,0
29326,-100,4,2,0,80,0,0
30377,-100,4,1,0,80,0,0
30855,-100,4,2,0,80,0,0
31237,-100,4,1,0,80,0,0
31523,-100,4,2,0,80,0,0
31905,-100,4,1,0,80,0,0
32383,-100,4,2,0,80,0,0
32861,-100,4,1,0,80,0,0
33148,-100,4,2,0,80,0,0
33530,-100,4,1,0,80,0,0
33816,-100,4,2,0,80,0,0
34198,-100,4,1,0,80,0,0
34686,-100,4,2,0,80,0,0
35058,-100,4,1,0,80,0,0
35441,-100,4,2,0,80,0,0
35823,-100,4,1,0,80,0,0
36205,-100,4,2,0,80,0,0
36587,-100,4,1,0,80,0,0
36969,-100,4,2,0,80,0,0
38020,-100,4,1,0,80,0,0
38498,-100,4,2,0,80,0,0
39549,-100,4,1,0,80,0,0
40027,-100,4,2,0,80,0,0
42702,-100,4,1,0,80,0,0
49198,-100,4,2,0,80,0,0
49772,-100,4,1,0,80,0,0
49867,-100,4,2,0,80,0,0
50536,-100,4,1,0,80,0,0
50632,-100,4,2,0,80,0,0
51109,-100,4,1,0,80,0,0
51471,-100,4,2,0,80,0,0
51778,-100,4,1,0,80,0,0
52256,-100,4,2,0,80,0,0
53307,-100,4,1,0,80,0,0
53784,-100,4,2,0,80,0,0
54167,-100,4,1,0,80,0,0
54549,-100,4,2,0,80,0,0
54931,-100,4,1,0,80,0,0
55313,-100,4,2,0,80,0,0
55886,-100,4,1,0,80,0,0
55982,-100,4,2,0,80,0,0
56460,-100,4,1,0,80,0,0
56829,-100,4,2,0,80,0,0
57415,-100,4,1,0,80,0,0
57593,-100,4,2,0,80,0,0
58753,-100,4,1,0,80,0,0
59121,-100,4,2,0,80,0,0
61046,-100,4,1,0,80,0,0
61414,-100,4,2,0,80,0,0
61714,-100,4,1,0,80,0,0
62178,-100,4,2,0,80,0,0
62479,-100,4,1,0,80,0,0
62942,-100,4,2,0,80,0,0
63434,-100,4,1,0,80,0,0
63707,-100,4,2,0,80,0,0
64007,-100,4,1,0,80,0,0
64471,-100,4,2,0,80,0,0
64867,-100,4,1,0,80,0,0
65154,-100,4,2,0,80,0,0
65536,-100,4,1,0,80,0,0
65918,-100,4,2,0,80,0,0
67167,-100,4,1,0,80,0,0
67623,-100,4,2,0,80,0,0
68784,-100,4,1,0,80,0,0
69071,-100,4,2,0,80,0,0
70313,-100,4,1,0,80,0,0
70600,-100,4,2,0,80,0,0
71746,-100,4,1,0,80,0,0
72113,-100,4,2,0,80,0,0
85695,-100,4,1,0,80,0,0
92001,-100,4,2,0,80,0,0
92383,-100,4,1,0,80,0,0
92765,-100,4,2,0,80,0,0
93339,-100,4,1,0,80,0,0
93434,-100,4,2,0,80,0,0
94103,-100,4,1,0,80,0,0
94198,-100,4,2,0,80,0,0
94676,-100,4,1,0,80,0,0
95058,-100,4,2,0,80,0,0
95536,-100,4,1,0,80,0,0
95805,-100,4,2,0,80,0,0
96300,-100,4,1,0,80,0,0
96569,-100,4,2,0,80,0,0
97160,-100,4,1,0,80,0,0
97256,-100,4,2,0,80,0,0
98498,-100,4,1,0,80,0,0
98880,-100,4,2,0,80,0,0
100218,-100,4,1,0,80,0,0
100313,-100,4,2,0,80,0,0
101555,-100,4,1,0,80,0,0
101937,-100,4,2,0,80,0,0
102988,-100,4,1,0,80,0,0
103466,-100,4,2,0,80,0,0
103848,-100,4,1,0,80,0,0
104230,-100,4,2,0,80,0,0
104708,-100,4,1,0,80,0,0
104995,-100,4,2,0,80,0,0
105568,-100,4,1,0,80,0,0
105663,-100,4,2,0,80,0,0
106141,-100,4,1,0,80,0,0
106428,-100,4,2,0,80,0,0
107097,-100,4,1,0,80,0,0
107192,-100,4,2,0,80,0,0
107670,-100,4,1,0,80,0,0
108036,-100,4,2,0,80,0,0
108625,-100,4,1,0,80,0,0
108721,-100,4,2,0,80,0,0
109198,-100,4,1,0,80,0,0
109565,-100,4,2,0,80,0,0
109963,-100,4,1,0,80,0,0
110345,-100,4,2,0,80,0,0
110918,-100,4,1,0,80,0,0
111014,-100,4,2,0,80,0,0
111683,-100,4,1,0,80,0,0
111778,-100,4,2,0,80,0,0
112256,-100,4,1,0,80,0,0
112638,-100,4,2,0,80,0,0
113880,-100,4,1,0,80,0,0
114173,-100,4,2,0,80,0,0
114740,-100,4,1,0,80,0,0
114937,-100,4,2,0,80,0,0
115511,-100,4,1,0,80,0,0
115702,-100,4,2,0,80,0,0
115982,-100,4,1,0,80,0,0
116444,-100,4,2,0,80,0,0
116746,-100,4,1,0,80,0,0
117224,-100,4,2,0,80,0,0
117606,-100,4,1,0,80,0,0
117973,-100,4,2,0,80,0,0
118466,-100,4,1,0,80,0,0
118737,-100,4,2,0,80,0,0
119039,-100,4,1,0,80,0,0
119501,-100,4,2,0,80,0,0
120568,-100,4,1,0,80,0,0
121030,-100,4,2,0,80,0,0
121332,-100,4,1,0,80,0,0
121816,-100,4,2,0,80,0,0
122097,-100,4,1,0,80,0,0
122574,-100,4,2,0,80,0,0
123912,-100,4,1,0,80,0,0
124007,-100,4,2,0,80,0,0
125441,-100,4,1,0,80,0,0
125536,-100,4,2,0,80,0,0
126778,-100,4,1,0,80,0,0
127145,-100,4,2,0,80,0,0
127734,-100,4,1,0,80,0,0
127909,-100,4,2,0,80,0,0
128211,-100,4,1,0,80,0,0
134804,-100,4,2,0,80,0,0
135855,-100,4,1,0,80,0,0
136332,-100,4,2,0,80,0,0
137383,-100,4,1,0,80,0,0
137861,-100,4,2,0,80,0,0
140536,-100,4,1,0,80,0,0
140918,-100,4,2,0,80,0,0
142160,-100,4,1,0,80,0,0
142447,-100,4,2,0,80,0,0
143689,-100,4,1,0,80,0,0
143976,-100,4,2,0,80,0,0
145122,-100,4,1,0,80,0,0
145489,-100,4,2,0,80,0,0
146555,-100,4,1,0,80,0,0
147033,-100,4,2,0,80,0,0
148370,-100,4,1,0,80,0,0
148466,-100,4,2,0,80,0,0
149899,-100,4,1,0,80,0,0
149995,-100,4,2,0,80,0,0
151237,-100,4,1,0,80,0,0
151603,-100,4,2,0,80,0,0
152192,-100,4,1,0,80,0,0
152368,-100,4,2,0,80,0,0
152670,-100,4,1,0,80,0,0
153052,-100,4,2,0,80,0,0
153530,-100,4,1,0,80,0,0
153912,-100,4,2,0,80,0,0
154390,-100,4,1,0,80,0,0
154676,-100,4,2,0,80,0,0
155058,-100,4,1,0,80,0,0
155345,-100,4,2,0,80,0,0
157351,-100,4,1,0,80,0,0
157718,-100,4,2,0,80,0,0
158307,-100,4,1,0,80,0,0
158482,-100,4,2,0,80,0,0
158784,-100,4,1,0,80,0,0
159262,-100,4,2,0,80,0,0
159644,-100,4,1,0,80,0,0
160027,-100,4,2,0,80,0,0
160504,-100,4,1,0,80,0,0
160791,-100,4,2,0,80,0,0
161173,-100,4,1,0,80,0,0
161555,-100,4,2,0,80,0,0

[HitObjects]
104,224,18434,1,0
192,120,18816,1,8
328,120,19198,1,0
424,224,19581,2,0,B|424:288|360:304,1,70,8|0
344,328,19963,1,0
256,224,20345,1,8
160,328,20727,2,0,B|304:328,1,140,0|8
256,192,21491,5,0
184,72,21874,2,0,B|328:48|184:88|328:64,2,140,8|0|8
256,192,23020,1,0
328,312,23402,2,0,B|184:336|328:296|184:320,2,140,8|0|8
400,192,24549,5,4
328,72,24931,2,0,B|256:32|184:72,1,140,8|0
96,168,25695,2,0,B|72:240|104:272,1,70,8|0
120,296,26077,1,0
256,328,26460,1,8
256,192,26842,2,0,B|256:96|256:96,2,70,0|0|8
256,328,27606,5,0
392,320,27988,2,8,B|496:168|256:80,1,280
256,248,29135,1,0
120,320,29517,2,8,B|16:168|256:80,1,280
328,160,30663,5,0
184,160,31046,1,8
184,296,31428,2,0,B|328:312|184:312|328:296,1,140,0|8
408,192,32192,5,0
328,80,32574,2,8,B|248:80,1,70
192,80,32956,1,0
256,208,33339,1,8
120,216,33721,6,0,B|32:216|32:320,1,140,0|8
168,280,34485,1,0
168,144,34867,1,8
208,48,35249,5,0
304,144,35632,1,8
208,248,36014,1,0
304,352,36396,1,8
400,248,36778,5,4
464,120,37160,2,0,B|464:32|368:32,2,140,8|2|8
344,192,38307,5,0
464,264,38689,2,0,B|464:352|368:352,2,140,8|2|8
344,192,39835,5,0
200,192,40218,2,0,B|48:192,2,140,8|2|8
256,56,41364,5,4
320,192,41746,1,4
256,328,42128,1,4
200,192,42511,1,4
256,56,42893,1,4
256,112,49007,5,0
328,232,49390,2,0,B|344:296|280:320,2,70,8|0|0
192,232,50154,2,0,B|176:296|240:320,2,70,8|0|0
256,112,50918,1,8
256,248,51300,2,0,B|224:280|224:344|280:280|280:344|256:376,1,140,0|8
256,184,52065,5,0
384,112,52447,2,8,B|128:32|384:32|104:120,1,280
72,240,53593,1,0
184,160,53976,1,8
320,160,54358,1,0
432,240,54740,1,8
256,192,55122,5,4
256,328,55504,2,0,B|112:312|256:360|112:336,1,140,8|0
144,200,56269,1,8
256,112,56651,2,0,B|256:264,3,140,0|8|0|8
456,192,58562,5,8
456,192,58944,1,0
456,192,59326,1,8
40,192,60090,1,8
40,192,60472,1,0
40,192,60855,1,4
176,192,61237,6,0,B|176:64|144:184|136:64,1,140,0|8
176,192,62001,2,0,B|176:320|144:200|136:320,1,140,0|8
272,296,62765,5,0
368,192,63148,2,0,B|344:136|304:120,1,70,8|8
272,88,63530,2,0,B|104:88,1,140,0|8
224,192,64294,5,0
368,192,64676,1,8
504,192,65058,2,0,B|432:192,2,70,0|0|8
368,144,65823,6,0,B|440:32|248:-40|64:40|152:152,1,420,0|8
256,216,67351,5,4
360,312,67734,1,8
464,216,68116,1,2
360,120,68498,2,0,B|288:136|272:200,1,70,8|0
256,216,68880,1,0
152,312,69262,5,8
48,216,69644,1,2
152,120,70027,2,0,B|216:144|224:176,1,70,8|0
256,216,70409,1,0
392,192,70791,5,8
256,160,71173,1,2
120,192,71555,1,8
192,312,71937,2,0,B|328:352|184:352|328:312,1,140,0|8
192,248,72702,2,8,B|328:288|184:288|328:248,1,140,4|8
384,128,73466,6,2,B|344:16|128:16|96:144,1,350,4|2
104,200,74612,2,0,B|112:256|144:272,1,70,8|0
184,296,74995,2,0,B|256:320|328:296,3,140,2|8|2|8
448,256,76523,6,2,B|520:168|400:16|304:88,1,280,4|2
256,192,77670,1,8
168,288,78052,2,2,B|168:224|40:296|40:232,1,140,2|8
48,136,78816,2,2,B|48:88|168:152|168:96,1,140,2|8
344,192,79581,6,0,B|384:224|448:224|376:168|432:168|480:192,2,140,4|8|2
256,88,80727,1,8
168,192,81109,2,0,B|128:160|64:160|136:216|80:216|32:192,2,140,2|8|2
256,296,82255,1,8
400,296,82638,6,2,B|496:264|496:96|384:72,1,280,4|2
328,192,83784,1,8
200,192,84167,2,0,B|56:192,1,140,4|0
128,296,84931,6,0,B|256:392|392:296,1,280
48,192,90281,6,0,B|504:192,1,420,0|4
392,312,91810,5,0
256,264,92192,1,8
120,312,92574,1,0
184,192,92956,2,0,B|344:192,1,140,8|0
320,48,93721,2,0,B|168:48,1,140,8|0
256,160,94485,1,8
256,288,94867,5,0
80,352,95249,2,0,B|168:352,1,70,8|0
224,352,95632,2,0,B|312:352,1,70
368,352,96014,2,0,B|448:352,1,70,8|0
400,280,96396,2,0,B|104:280,1,280
256,208,97542,1,4
40,32,98307,5,8
136,136,98689,1,0
40,240,99071,1,8
320,200,99835,2,0,B|384:128|296:48,1,140,8|0
272,136,100409,1,0
272,136,100600,1,8
464,344,101364,5,8
360,256,101746,1,0
256,344,102128,2,8,B|32:288|168:104,1,280
264,216,103275,1,0
264,80,103657,1,8
392,144,104039,5,4
360,280,104421,2,0,B|360:344|288:336,1,70,8|0
256,336,104804,1,0
256,200,105186,2,0,B|240:56|272:184|256:56,1,140,8|0
128,120,105950,1,8
96,256,106332,2,0,B|104:312|152:320,1,70
192,344,106714,2,0,B|256:376|352:336,1,140,8|0
256,224,107479,5,8
128,160,107861,1,0
248,88,108243,2,0,L|248:144|256:136|256:144|264:136|264:200,1,140,8|0
152,272,109007,1,8
256,368,109390,1,0
360,272,109772,1,8
256,176,110154,5,4
272,40,110536,2,0,B|368:40|368:120,1,140,8|0
240,104,111300,2,0,B|144:104|144:184,1,140,8|0
216,312,112065,1,8
256,176,112447,1,0
296,312,112829,1,8
176,344,113593,5,8
176,344,113784,1,0
176,344,113976,2,0,B|160:264|72:256,2,140,0|8|0
336,344,115122,1,8
336,344,115313,1,0
336,344,115505,2,0,B|352:264|440:256,1,140,0|8
208,232,116269,6,0,B|120:232|80:152,1,140,0|8
168,72,117033,1,0
256,184,117415,1,8
256,320,117797,6,0,B|336:328|400:296,1,140,0|8
432,240,118370,1,8
360,232,118562,2,0,B|304:264|216:240,1,140,0|8
104,152,119326,6,0,B|104:8|416:8|416:160,1,420,0|8
256,192,120855,6,0,B|232:232|232:288|280:232|280:280|256:336,1,140,0|8
256,192,121619,2,0,B|280:152|280:96|232:152|232:104|256:48,1,140,0|8
368,192,122383,5,4
328,328,122765,1,8
256,328,122956,1,0
184,328,123148,1,2
256,208,123530,2,0,B|224:144|288:144|256:72,1,140,8|0
392,120,124294,5,8
392,192,124485,1,0
392,264,124676,1,2
272,192,125058,2,0,B|200:232|200:144|136:192,1,140,8|0
184,320,125823,6,0,B|256:320,1,70,8|0
320,320,126205,1,2
256,192,126587,1,8
192,72,126969,2,0,B|256:16|320:72,3,140,0|8|0|8
256,192,128498,1,4
169,210,134612,5,4
67,305,134994,2,0,B|85:391|179:371,2,140,8|2|8
169,210,136141,5,0
37,164,136523,2,0,B|19:78|113:58,2,140,8|2|8
169,210,137669,5,0
312,240,138052,2,0,B|461:272,2,140,8|2|8
256,88,139198,5,4
344,192,139580,1,4
256,304,139962,1,4
344,192,140345,1,4
208,192,140727,5,4
152,72,141110,1,8
48,168,141492,1,2
152,264,141874,2,0,B|224:248|240:184,1,70,8|0
256,168,142256,1,0
360,72,142638,5,8
464,168,143020,1,2
360,264,143403,2,0,B|296:240|288:208,1,70,8|0
256,168,143785,1,0
120,192,144167,5,8
256,223,144549,1,2
392,192,144931,1,8
320,71,145313,2,0,B|184:32|328:32|184:72,1,140,0|8
320,136,146078,2,8,B|184:96|328:96|184:136,1,140,4|8
335,271,146842,5,4
210,339,147224,1,8
159,288,147415,1,0
108,237,147607,1,2
244,203,147989,2,0,B|267:135|312:180|340:107|340:107,1,140,8|0
403,237,148753,5,8
352,288,148944,1,0
301,339,149135,1,2
267,203,149517,2,0,B|188:180|250:118|171:107,1,140,8|0
114,231,150282,6,0,B|165:282,1,70,8|0
210,327,150664,1,2
256,192,151046,1,8
295,61,151428,2,0,B|380:67|386:152,3,140,0|8|0|8
291,343,152956,5,0
348,219,153338,1,8
290,96,153720,1,0
155,53,154103,2,0,B|97:80|110:145,1,70,8|0
95,169,154485,1,0
226,205,154867,1,8
173,336,155249,2,0,B|112:205,1,140,0|8
376,168,156396,5,8
256,120,156778,1,0
144,168,157160,1,8
184,288,157542,2,0,B|328:288,3,140,0|8|0|8
416,192,159071,5,4
336,96,159453,1,8
256,192,159835,1,0
168,96,160218,2,0,B|128:112|112:152,1,70,8|0
96,192,160600,1,0
144,304,160982,1,8
256,352,161364,1,0
368,304,161746,1,8
256,192,162128,12,4,164804
