osu file format v7

[General]
AudioFilename: savlonic - electro gypsy.mp3
AudioLeadIn: 0
PreviewTime: 18541
Countdown: 1
SampleSet: Normal
StackLeniency: 0.7
Mode: 0
LetterboxInBreaks: 1

[Editor]
Bookmarks: 18541,30749,36863,42977,49091,61318,67432,73546,85774,90359,91888,104116,116343,122457,128571,134692
DistanceSpacing: 0.800000011920929
BeatDivisor: 4
GridSize: 8

[Metadata]
Title:Electro Gypsy
Artist:Savlonic
Creator:Xgor
Version:Encrypto Gypsy
Source:Weebl's Stuff
Tags:Synth Yamaha Casio Moog Hitler Evangeline D'isco Roscoe Thunderpants Kandee Flaus Encrypto Yesterday's Lemon

[Difficulty]
HPDrainRate:6
CircleSize:5
OverallDifficulty:7
SliderMultiplier:2.2
SliderTickRate:2

[Events]
//Background and Video events
0,0,"Electro Gypsy.jpg"
Video,80,"Electro Gypsy.flv"
//Break Periods
2,43093,48107
2,85895,89381
2,128698,133712
//Storyboard Layer 0 (Background)
//Storyboard Layer 1 (Fail)
//Storyboard Layer 2 (Pass)
//Storyboard Layer 3 (Foreground)
//Storyboard Sound Samples
//Background Colour Transformations
3,100,163,162,255

[TimingPoints]
12320,382.165605095541,4,1,0,80,1,0
18530,-100,4,2,0,80,0,0
19210,-100,4,1,0,80,0,0
19294,-100,4,2,0,80,0,0
19867,-100,4,1,0,80,0,0
20058,-100,4,2,0,80,0,0
20643,-100,4,1,0,80,0,0
20823,-100,4,2,0,80,0,0
21396,-100,4,1,0,80,0,0
21587,-100,4,2,0,80,0,0
22267,-100,4,1,0,80,0,0
22458,-100,4,2,0,80,0,0
22936,-100,4,1,0,80,0,0
23116,-100,4,2,0,80,0,0
23689,-100,4,1,0,80,0,0
23987,-100,4,2,0,80,0,0
24464,-100,4,1,0,80,0,0
24644,-100,4,2,0,80,0,0
25225,-100,4,1,0,80,0,0
25515,-100,4,2,0,80,0,0
25982,-100,4,1,0,80,0,0
26173,-100,4,2,0,80,0,0
26757,-100,4,1,0,80,0,0
26937,-100,4,2,0,80,0,0
27521,-100,4,1,0,80,0,0
27702,-100,4,2,0,80,0,0
28275,-100,4,1,0,80,0,0
28572,-100,4,2,0,80,0,0
29050,-100,4,1,0,80,0,0
29230,-100,4,2,0,80,0,0
29804,-100,4,1,0,80,0,0
29995,-100,4,2,0,80,0,0
30663,-100,4,1,0,80,0,0
30759,-100,4,2,0,80,0,0
31332,-100,4,1,0,80,0,0
31523,-100,4,2,0,80,0,0
32097,-100,4,1,0,80,0,0
32288,-100,4,2,0,80,0,0
32861,-100,4,1,0,80,0,0
33052,-100,4,2,0,80,0,0
33625,-100,4,1,0,80,0,0
33816,-100,4,2,0,80,0,0
34390,-100,4,1,0,80,0,0
34581,-100,4,2,0,80,0,0
35163,-100,4,1,0,80,0,0
35345,-100,4,2,0,80,0,0
36022,-100,4,1,0,80,0,0
36214,-100,4,2,0,80,0,0
36683,-100,4,1,0,80,0,0
36874,-100,4,2,0,80,0,0
38220,-100,4,1,0,80,0,0
38402,-100,4,2,0,80,0,0
39749,-100,4,1,0,80,0,0
39931,-100,4,2,0,80,0,0
42806,-100,4,1,0,80,0,0
49103,-100,4,2,0,80,0,0
49676,-100,4,1,0,80,0,0
49867,-100,4,2,0,80,0,0
50441,-100,4,1,0,80,0,0
50707,-100,4,2,0,80,0,0
51184,-100,4,1,0,80,0,0
51471,-100,4,2,0,80,0,0
51949,-100,4,1,0,80,0,0
52160,-100,4,2,0,80,0,0
52808,-100,4,1,0,80,0,0
52925,-100,4,2,0,80,0,0
53498,-100,4,1,0,80,0,0
53689,-100,4,2,0,80,0,0
54262,-100,4,1,0,80,0,0
54453,-100,4,2,0,80,0,0
55122,-100,4,1,0,80,0,0
55218,-100,4,2,0,80,0,0
55791,-100,4,1,0,80,0,0
55982,-100,4,2,0,80,0,0
56555,-100,4,1,0,80,0,0
56829,-100,4,2,0,80,0,0
57415,-100,4,1,0,80,0,0
57593,-100,4,2,0,80,0,0
58070,-100,4,1,0,80,0,0
58275,-100,4,2,0,80,0,0
58848,-100,4,1,0,80,0,0
59039,-100,4,2,0,80,0,0
59599,-100,4,1,0,80,0,0
59804,-100,4,2,0,80,0,0
61127,-100,4,1,0,80,0,0
61414,-100,4,2,0,80,0,0
61892,-100,4,1,0,80,0,0
62178,-100,4,2,0,80,0,0
62656,-100,4,1,0,80,0,0
62861,-100,4,2,0,80,0,0
63434,-100,4,1,0,80,0,0
63707,-100,4,2,0,80,0,0
64280,-100,4,1,0,80,0,0
64390,-100,4,2,0,80,0,0
64963,-100,4,1,0,80,0,0
65154,-100,4,2,0,80,0,0
65823,-100,4,1,0,80,0,0
65999,-100,4,2,0,80,0,0
66491,-100,4,1,0,80,0,0
66683,-100,4,2,0,80,0,0
67351,-100,4,1,0,80,0,0
67447,-100,4,2,0,80,0,0
68880,-100,4,1,0,80,0,0
68976,-100,4,2,0,80,0,0
70409,-100,4,1,0,80,0,0
70504,-100,4,2,0,80,0,0
71842,-100,4,1,0,80,0,0
72033,-100,4,2,0,80,0,0
72988,-100,4,1,0,80,0,0
73179,-100,4,2,0,80,0,0
88831,-100,4,1,0,80,0,0
91905,-100,4,2,0,80,0,0
92479,-100,4,1,0,80,0,0
92748,-100,4,2,0,80,0,0
93243,-100,4,1,0,80,0,0
93434,-100,4,2,0,80,0,0
94007,-100,4,1,0,80,0,0
94198,-100,4,2,0,80,0,0
94754,-100,4,1,0,80,0,0
94963,-100,4,2,0,80,0,0
95536,-100,4,1,0,80,0,0
95727,-100,4,2,0,80,0,0
96300,-100,4,1,0,80,0,0
96491,-100,4,2,0,80,0,0
97065,-100,4,1,0,80,0,0
97256,-100,4,2,0,80,0,0
97829,-100,4,1,0,80,0,0
98020,-100,4,2,0,80,0,0
98593,-100,4,1,0,80,0,0
98957,-100,4,2,0,80,0,0
100122,-100,4,1,0,80,0,0
100313,-100,4,2,0,80,0,0
100868,-100,4,1,0,80,0,0
101077,-100,4,2,0,80,0,0
101651,-100,4,1,0,80,0,0
102014,-100,4,2,0,80,0,0
102415,-100,4,1,0,80,0,0
102606,-100,4,2,0,80,0,0
103179,-100,4,1,0,80,0,0
103370,-100,4,2,0,80,0,0
103925,-100,4,1,0,80,0,0
104126,-100,4,2,0,80,0,0
104699,-100,4,1,0,80,0,0
104899,-100,4,2,0,80,0,0
105464,-100,4,1,0,80,0,0
105655,-100,4,2,0,80,0,0
106323,-100,4,1,0,80,0,0
106419,-100,4,2,0,80,0,0
107049,-100,4,1,0,80,0,0
107192,-100,4,2,0,80,0,0
107760,-100,4,1,0,80,0,0
107951,-100,4,2,0,80,0,0
108530,-100,4,1,0,80,0,0
108716,-100,4,2,0,80,0,0
109289,-100,4,1,0,80,0,0
109480,-100,4,2,0,80,0,0
109958,-100,4,1,0,80,0,0
110249,-100,4,2,0,80,0,0
110818,-100,4,1,0,80,0,0
111014,-100,4,2,0,80,0,0
111582,-100,4,1,0,80,0,0
111869,-100,4,2,0,80,0,0
112251,-100,4,1,0,80,0,0
112537,-100,4,2,0,80,0,0
113116,-100,4,1,0,80,0,0
113397,-100,4,2,0,80,0,0
113875,-100,4,1,0,80,0,0
114071,-100,4,2,0,80,0,0
114644,-100,4,1,0,80,0,0
114835,-100,4,2,0,80,0,0
115404,-100,4,1,0,80,0,0
115595,-100,4,2,0,80,0,0
115791,-100,4,1,0,80,0,0
116359,-100,4,2,0,80,0,0
116932,-100,4,1,0,80,0,0
117123,-100,4,2,0,80,0,0
117702,-100,4,1,0,80,0,0
117888,-100,4,2,0,80,0,0
118461,-100,4,1,0,80,0,0
118652,-100,4,2,0,80,0,0
119225,-100,4,1,0,80,0,0
119416,-100,4,2,0,80,0,0
119990,-100,4,1,0,80,0,0
120181,-100,4,2,0,80,0,0
120759,-100,4,1,0,80,0,0
120945,-100,4,2,0,80,0,0
122283,-100,4,1,0,80,0,0
122479,-100,4,2,0,80,0,0
123811,-100,4,1,0,80,0,0
124007,-100,4,2,0,80,0,0
125340,-100,4,1,0,80,0,0
125627,-100,4,2,0,80,0,0
126874,-100,4,1,0,80,0,0
127060,-100,4,2,0,80,0,0
127633,-100,4,1,0,80,0,0
127824,-100,4,2,0,80,0,0
133461,-100,4,1,0,80,0,0
134799,-100,4,2,0,80,0,0
136046,-100,4,1,0,80,0,0
136237,-100,4,2,0,80,0,0
137474,-100,4,1,0,80,0,0
137765,-100,4,2,0,80,0,0
140632,-100,4,1,0,80,0,0
140823,-100,4,2,0,80,0,0
142160,-100,4,1,0,80,0,0
142346,-100,4,2,0,80,0,0
143689,-100,4,1,0,80,0,0
143875,-100,4,2,0,80,0,0
145308,-100,4,1,0,80,0,0
145404,-100,4,2,0,80,0,0
146746,-100,4,1,0,80,0,0
146937,-100,4,2,0,80,0,0
148270,-100,4,1,0,80,0,0
148466,-100,4,2,0,80,0,0
149799,-100,4,1,0,80,0,0
149995,-100,4,2,0,80,0,0
151232,-100,4,1,0,80,0,0
151518,-100,4,2,0,80,0,0
152092,-100,4,1,0,80,0,0
152283,-100,4,2,0,80,0,0
153620,-100,4,1,0,80,0,0
153816,-100,4,2,0,80,0,0
154385,-100,4,1,0,80,0,0
154671,-100,4,2,0,80,0,0
155165,-100,4,1,0,80,0,0
155340,-100,4,2,0,80,0,0
155918,-100,4,1,0,80,0,0
156109,-100,4,2,0,80,0,0
157447,-100,4,1,0,80,0,0
157633,-100,4,2,0,80,0,0
158206,-100,4,1,0,80,0,0
158397,-100,4,2,0,80,0,0
158976,-100,4,1,0,80,0,0
159257,-100,4,2,0,80,0,0
159735,-100,4,1,0,80,0,0
160022,-100,4,2,0,80,0,0
160499,-100,4,1,0,80,0,0
160786,-100,4,2,0,80,0,0
161359,-100,4,1,0,80,0,0
161455,-100,4,2,0,80,0,0
161932,-100,4,1,0,80,0,0
162224,-100,4,2,0,80,0,0

[HitObjects]
80,48,18434,1,0
96,136,18625,1,0
144,208,18816,1,8
224,176,19007,2,0,B|328:104,1,110
384,64,19390,1,0
408,152,19581,1,8
432,240,19772,1,0
376,304,19963,2,0,B|304:344|240:328,1,110,0|0
184,336,20345,2,0,B|96:320|80:272,1,110,8|0
64,200,20727,2,0,B|72:136|136:72,1,110,0|0
184,56,21109,2,0,B|256:40|320:56,1,110,8|0
384,48,21491,5,0
472,48,21683,1,0
472,136,21874,1,8
384,136,22065,1,0
384,224,22256,2,0,B|328:224|256:184,2,110,0|0|8
472,224,22829,1,0
472,224,23020,1,0
424,296,23211,1,0
336,296,23402,2,0,B|320:232|296:264|216:200,1,110,8|0
168,232,23784,2,0,B|168:168|152:104,2,110,0|0|8
256,232,24358,1,0
256,232,24549,5,4
304,160,24740,1,0
256,88,24931,2,0,B|136:88,1,110,8|0
64,128,25313,2,0,B|64:272,1,110,0|0
120,304,25695,2,0,B|240:304,1,110,8|0
320,288,26077,1,0
368,216,26269,1,0
280,216,26460,1,8
320,288,26651,1,0
368,216,26842,1,0
320,144,27033,1,0
320,144,27224,1,8
232,144,27415,1,0
232,144,27606,5,0
144,144,27797,1,0
88,216,27988,2,0,B|120:272|192:296,1,110,8|0
256,296,28370,2,0,B|272:288|240:280|328:256|296:280|384:288,1,110,0|0
432,240,28753,1,8
432,152,28944,1,0
424,64,29135,1,0
336,88,29326,2,0,B|216:136,1,110,0|8
176,64,29708,2,0,B|48:112,1,110
88,192,30090,1,0
96,280,30281,2,0,B|160:280,4,55,8|0|0|0|4
152,216,30855,5,0
184,136,31046,1,8
216,216,31237,1,0
240,136,31428,1,0
272,216,31619,1,0
296,136,31810,1,8
328,216,32001,1,0
368,296,32192,6,0,B|248:312,1,110,0|0
258,310,32574,2,0,B|128:296,1,110,8|0
149,298,32956,2,0,B|96:184,1,110,0|0
104,112,33339,1,8
104,112,33530,1,8
160,48,33721,6,0,B|184:72|160:96|224:152,1,110,0|0
200,232,34103,2,0,B|256:224|232:224|304:168,1,110,8|0
328,96,34485,1,0
392,40,34676,1,0
440,112,34867,1,8
376,168,35058,1,0
408,248,35249,5,0
336,296,35441,1,0
288,224,35632,1,8
208,248,35823,1,0
136,200,36014,2,0,B|224:112,2,110,0|0|8
64,152,36587,1,0
64,152,36778,1,4
64,152,36969,1,0
64,240,37160,6,0,B|120:280|192:216,1,110,8|0
256,248,37542,2,0,B|280:192|240:96,1,110,2|8
168,144,37925,1,8
216,72,38116,1,0
256,64,38211,1,0
296,72,38307,1,4
384,72,38498,1,0
416,152,38689,6,0,B|424:288,1,110,8|0
336,264,39071,2,0,B|344:136,1,110,2|8
256,152,39453,1,8
176,184,39644,1,0
176,184,39740,1,0
176,184,39835,1,4
104,232,40027,1,8
144,312,40218,6,0,B|240:240,1,110,8|0
312,208,40600,2,0,B|408:128,1,110,2|0
368,56,40982,1,8
288,88,41173,1,0
208,56,41364,2,2,B|104:112|56:240,1,220
64,304,41937,1,0
144,344,42128,2,2,B|296:344|352:256,1,220
336,184,42702,1,4
336,184,42893,1,4
32,56,49007,6,0,B|160:56,1,110,0|0
80,120,49390,2,0,B|216:120,1,110,8|0
240,192,49772,1,0
152,192,49963,1,0
208,256,50154,1,8
120,256,50345,1,0
160,336,50536,2,0,B|256:344|320:320|240:312|352:240,1,220,0|8
368,160,51109,1,0
304,104,51300,1,0
240,160,51491,1,0
168,104,51683,1,8
96,160,51874,1,0
96,160,52065,5,0
48,232,52256,2,0,B|200:232,1,110,0|8
248,232,52638,2,0,B|392:232,1,110
408,160,53020,1,0
408,160,53211,1,8
320,160,53402,1,0
256,96,53593,2,0,B|216:40|136:216|136:256,1,220,0|8
216,200,54167,1,0
256,280,54358,1,0
256,192,54549,1,0
256,104,54740,1,8
184,56,54931,1,0
144,72,55027,1,0
112,104,55122,5,4
64,176,55313,1,0
64,264,55504,2,0,B|104:320|128:184,1,110,8|0
184,272,55886,2,0,B|224:296|248:184,1,110,0|0
304,128,56269,1,8
376,80,56460,1,0
432,152,56651,2,0,B|408:272|256:328,3,220,0|8|0|8
293,312,57988,1,0
293,312,58179,5,4
208,312,58370,1,0
120,336,58562,2,0,B|72:272|160:264|104:192,1,110,8|0
80,152,58944,2,0,B|136:128|144:176|216:144,1,110,0|0
272,152,59326,1,8
272,152,59517,1,0
272,152,59708,1,0
360,152,59899,1,0
408,80,60090,2,0,B|456:224,1,110,8|0
424,272,60472,2,0,B|280:328,1,110,0|0
232,312,60855,1,8
152,344,61046,1,0
152,344,61141,1,0
152,344,61237,5,4
64,344,61428,1,0
24,264,61619,1,8
40,176,61810,1,0
80,104,62001,2,0,B|144:80|200:104,1,110,0|0
256,152,62383,1,8
328,208,62574,1,0
328,208,62670,1,0
328,208,62765,5,0
408,176,62956,1,0
432,88,63148,2,0,B|360:72|312:96,1,110,8|0
232,96,63530,2,0,B|168:120|104:104,1,110,0|0
72,176,63912,1,8
120,248,64103,1,8
120,248,64198,1,0
120,248,64294,5,0
176,320,64485,1,0
192,232,64676,1,8
240,304,64867,1,0
248,216,65058,1,0
304,144,65249,1,0
256,72,65441,1,8
168,80,65632,1,0
128,88,65727,1,0
96,120,65823,5,0
56,200,66014,2,0,B|56:328,1,110,0|8
128,264,66396,2,0,B|184:160,1,110,0|0
264,144,66778,2,0,B|264:264,1,110,0|8
352,240,67160,1,0
352,240,67256,1,0
352,240,67351,5,4
368,152,67542,1,0
424,80,67734,2,2,B|296:80,1,110,8|0
224,80,68116,2,2,B|96:80,1,110
72,160,68498,2,0,B|160:248|256:312|288:312,1,220,8|0
328,320,69071,5,0
416,288,69262,1,8
416,200,69453,1,0
416,152,69549,1,0
416,112,69644,1,2
352,56,69835,1,0
264,40,70027,2,0,B|152:48|88:96|104:96|216:128|240:152,1,220,8|0
248,192,70600,5,0
176,240,70791,1,8
96,272,70982,1,0
96,272,71077,1,0
96,272,71173,1,2
72,192,71364,1,0
56,104,71555,2,0,B|128:88|192:112,1,110,8|0
248,64,71937,5,8
304,128,72128,1,0
216,128,72319,1,8
272,192,72511,1,0
184,192,72702,1,4
232,256,72893,1,0
184,328,73084,1,4
184,328,73275,1,0
96,312,73466,6,2,B|80:296|88:288|48:120|40:144|24:112|320:40,1,440
392,64,74421,1,2
480,64,74612,1,8
392,64,74804,1,0
432,144,74995,2,2,B|424:160|440:176|312:280|224:272,2,220
344,144,75950,1,0
344,144,76141,1,8
344,144,76332,1,0
264,104,76523,6,2,B|264:232,1,110
200,152,76905,2,2,B|136:152,2,55,8|2|2
200,240,77288,1,2
200,240,77479,1,0
200,328,77670,2,2,B|256:328,2,55,8|2|2
112,328,78052,6,2,B|112:88,1,220,2|8
176,48,78625,1,2
176,48,78721,1,2
176,48,78816,2,2,B|176:280,1,220,2|8
176,268,79390,1,4
256,312,79581,6,2,B|256:296|240:272|336:208|184:136|272:48,1,220,2|8
328,64,80154,1,2
408,32,80345,2,2,B|488:128|288:160|496:248|432:272,1,220,2|8
408,320,80918,1,2
320,344,81109,2,2,B|192:352|88:344|48:272|32:152|56:88,1,440
144,104,82065,1,0
144,104,82160,1,0
144,104,82256,1,8
232,104,82447,1,2
304,48,82638,6,2,B|432:64,1,110
413,61,83020,2,2,B|280:88,1,110,8|2
305,83,83402,2,2,B|432:104,1,110
413,100,83784,2,2,B|288:128,1,110,8|2
256,48,84167,1,2
256,48,84358,1,8
256,136,84549,1,2
256,136,84740,1,8
256,224,84931,1,2
256,224,85122,1,8
256,312,85313,1,2
256,312,85409,1,2
256,312,85504,1,2
256,312,85600,1,2
256,312,85695,1,4
48,56,90281,5,0
128,88,90472,1,0
208,56,90663,1,0
288,88,90855,1,0
376,64,91046,1,0
456,88,91237,1,0
256,192,91428,1,0
256,192,91523,1,0
256,192,91619,1,0
256,192,91714,1,0
256,192,91810,1,4
224,272,92001,5,0
144,304,92192,2,0,B|88:264|88:192,1,110,8|0
56,128,92574,2,0,B|120:128|104:120|120:120|104:112|184:112,1,110,0|0
224,48,92956,1,8
224,136,93148,1,0
296,88,93339,2,0,B|328:104|296:136|352:192,2,110,0|0|8
208,88,93912,1,0
120,88,94103,2,0,B|88:104|120:136|64:192,2,110,0|0|8
208,88,94676,1,0
288,128,94867,1,0
208,168,95058,1,0
136,224,95249,5,8
136,312,95441,1,0
208,264,95632,1,0
208,352,95823,1,0
288,312,96014,1,8
288,224,96205,1,0
360,176,96396,1,0
360,264,96587,1,0
440,224,96778,1,8
440,312,96969,1,0
360,352,97160,1,0
360,264,97351,1,0
288,312,97542,1,8
288,224,97734,1,0
288,224,97925,5,4
208,264,98116,1,0
120,288,98307,1,8
120,288,98498,1,0
88,208,98689,2,0,B|96:88|248:72,1,220,0|8
320,40,99262,1,0
320,40,99453,2,2,B|320:88|304:72|304:168,1,110
224,176,99835,1,8
296,224,100027,1,0
224,272,100218,1,0
296,320,100409,1,0
368,272,100600,1,8
296,224,100791,1,0
368,176,100982,1,0
296,120,101173,5,0
232,56,101364,1,8
152,88,101555,1,0
72,120,101746,2,0,B|72:328|176:144,1,220,0|8
192,248,102319,1,0
280,264,102511,1,0
344,200,102702,1,0
336,112,102893,2,0,B|208:112,1,110,8|0
152,152,103275,2,8,B|64:272,1,110
104,328,103657,2,0,B|168:328,4,55,0|0|0|0|4
136,248,104230,5,0
200,184,104421,1,8
264,128,104612,1,0
344,88,104804,1,0
432,64,104995,1,0
472,144,105186,1,8
400,200,105377,1,0
336,264,105568,2,0,B|240:312|112:264,3,220,0|8|0|8
122,267,106905,1,0
122,267,107001,1,0
122,267,107097,5,0
104,184,107288,1,0
64,104,107479,2,0,B|120:56|112:64|160:112,1,110,8|0
208,168,107861,2,0,B|256:216|256:200|304:160,1,110,0|0
360,104,108243,1,8
360,104,108434,1,0
360,104,108625,1,0
376,192,108816,1,0
368,280,109007,2,0,B|328:312|320:296|240:272,1,110,8|0
176,280,109390,1,0
176,280,109581,1,0
176,280,109772,1,8
176,280,109963,1,0
176,280,110058,1,0
176,280,110154,1,4
88,256,110345,5,0
48,184,110536,1,8
88,104,110727,1,0
128,184,110918,1,0
160,104,111109,1,0
208,184,111300,1,8
160,256,111491,1,0
96,320,111683,2,0,B|352:320,1,220,0|8
368,256,112256,1,0
368,256,112351,1,0
368,256,112447,2,0,B|360:224|376:168|368:144,1,110
336,64,112829,1,8
264,112,113020,1,0
192,64,113211,1,0
104,40,113402,6,0,B|80:96|80:96|112:168,1,110,0|8
88,232,113784,2,0,B|136:264|136:264|200:224,1,110
272,240,114167,1,0
272,240,114358,1,8
360,240,114549,1,0
360,240,114740,1,0
312,168,114931,1,0
360,96,115122,2,0,B|224:64,1,110,8|0
168,88,115504,2,0,B|64:152,1,110,0|8
64,232,115886,1,0
104,256,115982,1,0
144,264,116077,1,0
184,256,116173,1,0
224,232,116269,1,4
256,312,116460,5,0
304,240,116651,1,8
320,152,116842,1,0
288,72,117033,1,0
256,152,117224,1,0
256,240,117415,1,8
256,240,117606,1,0
256,328,117797,5,0
168,328,117988,1,0
176,240,118179,1,8
256,200,118370,1,0
344,192,118562,1,0
344,192,118753,1,0
432,192,118944,1,8
432,192,119135,1,8
432,104,119326,5,0
344,104,119517,1,0
256,104,119708,1,8
344,104,119899,1,0
432,104,120090,1,0
432,104,120281,1,0
432,104,120472,1,8
432,192,120663,1,8
432,280,120855,6,0,B|200:280,1,220,0|8
128,280,121428,2,0,B|128:152,1,110,0|2
128,80,121810,2,2,B|200:80,2,55,2|2|8
40,80,122192,1,0
40,80,122383,5,4
40,168,122574,1,0
64,256,122765,1,8
120,184,122956,1,0
104,272,123148,1,2
184,240,123339,1,0
128,304,123530,1,0
216,304,123721,1,0
304,296,123912,5,0
368,352,124103,1,0
384,264,124294,2,2,B|408:136,1,110,8|0
376,80,124676,2,2,B|272:136,1,110,2|0
208,80,125058,2,2,B|104:184,1,110,8|0
128,248,125441,1,0
128,248,125632,1,0
192,192,125823,5,8
272,232,126014,1,0
192,192,126205,1,2
280,192,126396,1,0
192,192,126587,1,8
272,160,126778,1,0
296,80,126969,2,0,B|152:72,1,110
104,104,127351,2,0,B|208:144,1,110,8|0
128,184,127734,2,0,B|128:304,1,110,0|0
208,256,128116,1,8
256,184,128307,1,0
304,256,128498,1,4
48,48,134612,6,0,B|56:120|104:160,1,110
104,232,134995,2,0,B|160:224|192:128,1,110,8|0
200,72,135377,1,2
280,40,135568,1,0
200,72,135759,1,8
280,40,135950,1,8
360,72,136141,1,0
360,72,136332,1,0
440,40,136523,6,0,B|440:168,1,110,8|0
368,200,136905,2,0,B|368:328,1,110,2|0
288,264,137288,2,0,B|232:264,1,55
233,264,137479,2,0,B|160:264,1,55,8|0
178,264,137670,1,0
88,256,137861,1,0
48,176,138052,6,0,B|48:112|80:160|80:64,1,110,8|0
168,72,138434,2,0,B|168:136|136:88|144:192,1,110,2|0
232,160,138816,1,8
280,88,139007,1,0
360,48,139198,2,0,B|376:112|408:16|424:168,1,110,4|0
488,184,139581,1,8
408,216,139772,1,0
328,184,139963,1,4
248,216,140154,1,0
248,216,140249,1,0
248,216,140345,1,8
272,128,140536,1,0
192,96,140727,1,0
112,136,140918,5,0
40,192,141109,2,0,B|32:256|88:312,1,110,8|0
152,336,141491,2,0,B|200:304|248:336|296:296,3,110
344,312,142256,1,0
344,312,142447,1,0
424,272,142638,5,8
424,272,142829,1,0
400,184,143020,2,0,B|360:176|376:144|272:112,2,110,2|8|8
472,128,143593,1,0
472,128,143784,1,0
424,56,143976,1,0
336,56,144167,6,0,B|216:56,1,110,8|0
160,112,144549,2,0,B|288:112,1,110,2|0
304,192,144931,1,8
304,192,145122,1,0
304,192,145218,1,0
304,192,145313,1,0
232,240,145504,1,0
304,288,145695,1,8
376,240,145886,1,0
376,152,146077,1,4
376,152,146269,1,2
376,152,146460,1,8
376,152,146651,1,0
352,72,146842,6,0,B|232:72,1,110,4|8
160,48,147224,1,8
120,128,147415,1,0
160,208,147606,1,2
208,280,147797,1,0
296,256,147988,1,8
312,168,148179,2,0,B|352:128,2,55,2|0|0
280,88,148562,1,0
224,160,148753,5,8
184,80,148944,1,0
120,136,149135,1,2
128,224,149326,1,0
168,304,149517,1,8
248,272,149708,2,0,B|264:216,2,55
288,352,150090,1,0
336,288,150281,6,0,B|352:248|320:256|368:168,1,110,8|0
440,224,150663,2,0,B|416:200|456:184|440:104,1,110,2|0
360,96,151046,1,8
272,120,151237,1,0
272,120,151332,1,0
272,120,151428,1,0
208,64,151619,1,0
136,120,151810,1,8
80,192,152001,2,0,B|224:248,1,110
272,232,152383,1,0
272,232,152574,1,8
272,232,152765,1,0
344,280,152956,6,0,B|376:160,1,110,4|0
384,88,153339,2,0,B|256:96,1,110,8|8
192,64,153721,1,0
128,120,153912,1,0
96,200,154103,1,8
128,280,154294,1,0
216,288,154485,2,0,B|216:216|304:232|296:80,1,220,0|8
376,48,155058,1,0
376,48,155249,2,0,B|280:64|144:48,1,220,0|8
96,112,155823,1,0
96,112,156014,1,0
80,200,156205,1,0
40,280,156396,6,0,B|72:288|120:280|168:304,1,110,2|0
240,304,156778,2,0,B|296:288|264:288|352:232,1,110,8|0
280,176,157160,1,2
344,112,157351,1,8
272,64,157542,1,0
192,112,157734,1,0
120,56,157925,1,8
80,136,158116,1,0
96,224,158307,1,0
96,224,158498,1,0
96,224,158689,1,8
96,224,158880,1,0
56,304,159071,6,0,B|176:304,1,110
248,280,159453,2,0,B|376:272,1,110,8|0
424,216,159835,2,0,B|320:168,1,110
240,152,160218,2,0,B|184:48,1,110,8|0
104,64,160600,2,0,B|104:304,1,220,0|8
192,296,161173,1,0
240,296,161269,1,0
280,296,161364,2,0,B|352:288|416:240|432:120,1,220,0|8
336,136,161937,1,0
336,136,162033,1,0
336,136,162128,5,0
248,136,162319,1,0
184,80,162511,1,8
184,80,162702,1,0
104,120,162893,1,4
104,120,163084,1,0
184,152,163275,1,8
184,152,163466,1,0
256,192,163657,12,4,165186
