osu file format v14

[General]
AudioFilename: Technodrome.mp3
AudioLeadIn: 0
PreviewTime: 72090
Countdown: 0
SampleSet: None
StackLeniency: 0.7
Mode: 1
LetterboxInBreaks: 0
WidescreenStoryboard: 1

[Editor]
DistanceSpacing: 1
BeatDivisor: 4
GridSize: 32
TimelineZoom: 1.6

[Metadata]
Title:Technodrome
TitleUnicode:Technodrome
Artist:Savant
ArtistUnicode:Savant
Creator:Totoro le Pacha
Version:Muzukashii
Source:
Tags:aleksander vinter overkill dubstep
BeatmapID:694469
BeatmapSetID:265945

[Difficulty]
HPDrainRate:4
CircleSize:5
OverallDifficulty:5
ApproachRate:5
SliderMultiplier:1.4
SliderTickRate:1

[Events]
//Background and Video events
0,0,"savant_by_gimpknowhow-d5zrl1i.png",0,0
//Break Periods
//Storyboard Layer 0 (Background)
//Storyboard Layer 1 (Fail)
//Storyboard Layer 2 (Pass)
//Storyboard Layer 3 (Foreground)
//Storyboard Sound Samples

[TimingPoints]
90,461.538461538462,4,1,0,20,1,0
44397,-100,4,1,0,60,0,0
44628,-100,4,1,0,30,0,0
46243,-100,4,1,0,35,0,0
48090,-100,4,1,0,40,0,0
51782,-100,4,1,0,45,0,0
53628,-100,4,1,0,49,0,0
55474,-100,4,1,0,53,0,0
56974,-100,4,1,0,60,0,0
57090,-100,4,1,0,45,0,0
57205,-100,4,1,0,30,0,0
57320,-100,4,1,0,15,0,0
58705,-100,4,1,0,50,0,0
59166,-100,4,1,0,60,0,0
72090,-100,4,1,0,30,0,0
73474,-100,4,1,0,60,0,0
73574,-80,4,1,0,60,0,1
88705,-100,4,1,0,60,0,0
133013,-133.333333333333,4,1,0,40,0,0
147782,-133.333333333333,4,1,0,70,0,0
148013,-133.333333333333,4,1,0,50,0,0
155166,-133.333333333333,4,1,0,70,0,0
155282,-133.333333333333,4,1,0,50,0,0
162551,-100,4,1,0,60,0,1
177320,-90.9090909090909,4,1,0,60,0,1
192090,-90.9090909090909,4,1,0,60,0,0
192551,-100,4,1,0,60,0,0

[HitObjects]
256,192,29628,5,0,0:0:0:0:
256,192,30090,1,8,0:0:0:0:
256,192,30551,1,8,0:0:0:0:
256,192,30782,1,8,0:0:0:0:
256,192,31243,1,8,0:0:0:0:
256,192,31474,1,0,0:0:0:0:
256,192,31936,1,8,0:0:0:0:
256,192,32397,1,8,0:0:0:0:
256,192,32628,1,8,0:0:0:0:
256,192,33090,1,8,0:0:0:0:
256,192,33320,1,0,0:0:0:0:
256,192,33782,1,8,0:0:0:0:
256,192,34243,1,8,0:0:0:0:
256,192,34474,1,8,0:0:0:0:
256,192,34936,1,8,0:0:0:0:
256,192,35166,1,0,0:0:0:0:
256,192,35397,1,0,0:0:0:0:
256,192,35628,1,0,0:0:0:0:
256,192,35859,1,8,0:0:0:0:
256,192,36320,1,8,0:0:0:0:
256,192,36782,1,8,0:0:0:0:
256,192,37013,1,0,0:0:0:0:
256,192,37243,1,8,0:0:0:0:
256,192,37474,1,8,0:0:0:0:
256,192,37936,1,8,0:0:0:0:
256,192,38166,1,8,0:0:0:0:
256,192,38628,1,8,0:0:0:0:
256,192,38859,1,0,0:0:0:0:
256,192,39090,1,8,0:0:0:0:
256,192,39320,1,8,0:0:0:0:
256,192,39782,1,8,0:0:0:0:
256,192,40013,1,8,0:0:0:0:
256,192,40474,1,0,0:0:0:0:
256,192,40705,1,0,0:0:0:0:
256,192,40936,1,8,0:0:0:0:
256,192,41166,1,8,0:0:0:0:
256,192,41628,1,8,0:0:0:0:
256,192,41859,1,8,0:0:0:0:
256,192,42320,1,8,0:0:0:0:
256,192,42551,1,0,0:0:0:0:
256,192,42782,1,0,0:0:0:0:
256,192,43013,1,0,0:0:0:0:
256,192,43243,1,8,0:0:0:0:
256,192,43705,1,8,0:0:0:0:
256,192,44166,1,8,0:0:0:0:
256,192,44397,1,4,0:0:0:0:
256,192,44628,1,8,0:0:0:0:
256,192,44859,1,0,0:0:0:0:
256,192,45320,1,8,0:0:0:0:
256,192,45551,1,8,0:0:0:0:
256,192,46013,1,8,0:0:0:0:
256,192,46243,1,0,0:0:0:0:
256,192,46474,1,8,0:0:0:0:
256,192,46705,1,0,0:0:0:0:
256,192,47166,1,8,0:0:0:0:
256,192,47397,1,8,0:0:0:0:
256,192,47859,1,8,0:0:0:0:
256,192,48090,1,0,0:0:0:0:
256,192,48320,1,0,0:0:0:0:
256,192,48551,1,8,0:0:0:0:
256,192,49013,1,0,0:0:0:0:
256,192,49243,1,8,0:0:0:0:
256,192,49705,1,8,0:0:0:0:
256,192,49936,1,0,0:0:0:0:
256,192,50166,1,0,0:0:0:0:
256,192,50397,1,8,0:0:0:0:
256,192,50628,1,0,0:0:0:0:
256,192,51090,1,8,0:0:0:0:
256,192,51551,1,8,0:0:0:0:
256,192,51782,1,0,0:0:0:0:
256,192,52013,1,8,0:0:0:0:
256,192,52243,1,8,0:0:0:0:
256,192,52705,1,8,0:0:0:0:
256,192,52936,1,8,0:0:0:0:
256,192,53397,1,8,0:0:0:0:
256,192,53628,1,0,0:0:0:0:
256,192,53859,1,8,0:0:0:0:
256,192,54090,1,8,0:0:0:0:
256,192,54551,1,0,0:0:0:0:
256,192,54782,1,8,0:0:0:0:
256,192,55243,1,8,0:0:0:0:
256,192,55474,1,0,0:0:0:0:
256,192,55705,1,8,0:0:0:0:
256,192,55936,1,8,0:0:0:0:
256,192,56397,1,8,0:0:0:0:
256,192,56628,1,8,0:0:0:0:
256,192,57090,1,0,0:0:0:0:
224,192,57320,1,8,0:0:0:0:
224,192,57551,1,8,0:0:0:0:
224,192,57782,1,0,0:0:0:0:
224,192,58013,1,8,0:0:0:0:
224,192,58474,1,0,0:0:0:0:
224,192,58705,1,12,0:0:0:0:
224,192,59166,1,4,0:0:0:0:
224,192,59397,1,8,0:0:0:0:
224,192,59513,1,8,0:0:0:0:
224,192,59628,1,8,0:0:0:0:
224,192,59859,1,0,0:0:0:0:
224,192,60090,1,8,0:0:0:0:
224,192,60320,1,0,0:0:0:0:
224,192,60551,1,0,0:0:0:0:
224,192,61013,1,0,0:0:0:0:
224,192,61359,1,0,0:0:0:0:
224,192,61705,1,8,0:0:0:0:
224,192,61936,1,0,0:0:0:0:
224,192,62166,1,0,0:0:0:0:
224,192,62397,1,8,0:0:0:0:
224,192,62859,1,0,0:0:0:0:
224,192,63090,1,8,0:0:0:0:
224,192,63205,1,8,0:0:0:0:
224,192,63320,1,8,0:0:0:0:
224,192,63551,1,8,0:0:0:0:
224,192,63782,1,0,0:0:0:0:
224,192,64013,1,0,0:0:0:0:
224,192,64243,1,8,0:0:0:0:
224,192,64705,1,0,0:0:0:0:
224,192,64936,1,8,0:0:0:0:
224,192,65051,1,8,0:0:0:0:
224,192,65166,1,8,0:0:0:0:
224,192,65397,1,8,0:0:0:0:
224,192,65628,1,0,0:0:0:0:
224,192,65859,1,0,0:0:0:0:
224,192,66090,1,8,0:0:0:0:
224,192,66551,1,0,0:0:0:0:
224,192,66782,1,8,0:0:0:0:
224,192,66897,1,8,0:0:0:0:
224,192,67013,1,8,0:0:0:0:
224,192,67243,1,8,0:0:0:0:
224,192,67474,1,0,0:0:0:0:
224,192,67705,1,0,0:0:0:0:
224,192,67936,1,8,0:0:0:0:
224,192,68397,1,0,0:0:0:0:
224,192,68743,1,8,0:0:0:0:
224,192,69090,1,8,0:0:0:0:
224,192,69320,1,0,0:0:0:0:
224,192,69551,1,0,0:0:0:0:
224,192,69782,1,8,0:0:0:0:
224,192,70243,1,0,0:0:0:0:
224,192,70474,1,8,0:0:0:0:
224,192,70590,1,8,0:0:0:0:
224,192,70705,1,8,0:0:0:0:
224,192,70936,1,0,0:0:0:0:
224,192,71166,1,8,0:0:0:0:
224,192,71397,1,0,0:0:0:0:
224,192,71628,1,0,0:0:0:0:
224,192,72090,1,0,0:0:0:0:
224,192,72320,1,0,0:0:0:0:
224,192,72551,1,8,0:0:0:0:
224,192,72782,1,0,0:0:0:0:
224,192,73243,1,0,0:0:0:0:
224,192,73474,1,12,0:0:0:0:
224,192,73936,1,4,0:0:0:0:
224,192,74166,1,8,0:0:0:0:
224,192,74397,1,0,0:0:0:0:
224,192,74628,1,8,0:0:0:0:
224,192,74859,1,0,0:0:0:0:
224,192,75320,1,8,0:0:0:0:
224,192,75782,1,0,0:0:0:0:
224,192,76013,1,0,0:0:0:0:
224,192,76243,1,8,0:0:0:0:
224,192,76705,1,8,0:0:0:0:
224,192,76936,1,0,0:0:0:0:
224,192,77166,1,8,0:0:0:0:
224,192,77397,1,0,0:0:0:0:
224,192,77628,1,4,0:0:0:0:
224,192,78090,1,8,0:0:0:0:
224,192,78551,1,0,0:0:0:0:
224,192,78782,1,0,0:0:0:0:
224,192,79013,1,8,0:0:0:0:
224,192,79243,1,8,0:0:0:0:
224,192,79474,1,0,0:0:0:0:
224,192,79705,1,0,0:0:0:0:
224,192,79936,1,8,0:0:0:0:
224,192,80166,1,8,0:0:0:0:
224,192,80397,1,0,0:0:0:0:
224,192,80859,1,8,0:0:0:0:
224,192,81320,1,0,0:0:0:0:
224,192,81551,1,8,0:0:0:0:
224,192,81782,1,0,0:0:0:0:
224,192,82013,1,8,0:0:0:0:
224,192,82243,1,0,0:0:0:0:
224,192,82474,1,8,0:0:0:0:
224,192,82705,1,8,0:0:0:0:
224,192,83166,1,0,0:0:0:0:
224,192,83397,1,0,0:0:0:0:
224,192,83628,1,8,0:0:0:0:
224,192,84090,1,8,0:0:0:0:
224,192,84205,1,8,0:0:0:0:
224,192,84320,1,8,0:0:0:0:
224,192,84551,1,0,0:0:0:0:
224,192,84782,1,8,0:0:0:0:
224,192,85013,1,4,0:0:0:0:
224,192,85474,1,8,0:0:0:0:
224,192,85936,1,0,0:0:0:0:
224,192,86166,1,0,0:0:0:0:
224,192,86397,1,8,0:0:0:0:
224,192,86628,1,8,0:0:0:0:
224,192,86859,1,0,0:0:0:0:
224,192,87090,1,0,0:0:0:0:
224,192,87320,1,8,0:0:0:0:
224,192,87551,1,8,0:0:0:0:
224,192,87782,1,0,0:0:0:0:
224,192,88013,1,0,0:0:0:0:
224,192,88128,1,0,0:0:0:0:
224,192,88243,1,0,0:0:0:0:
256,192,88705,1,4,0:0:0:0:
256,192,88936,1,8,0:0:0:0:
256,192,89397,1,8,0:0:0:0:
256,192,89628,1,0,0:0:0:0:
256,192,89974,1,8,0:0:0:0:
256,192,90320,1,8,0:0:0:0:
256,192,90551,1,0,0:0:0:0:
256,192,91013,1,8,0:0:0:0:
256,192,91474,1,0,0:0:0:0:
256,192,91705,1,0,0:0:0:0:
256,192,91936,1,8,0:0:0:0:
256,192,92166,1,8,0:0:0:0:
256,192,92397,1,0,0:0:0:0:
256,192,92743,1,8,0:0:0:0:
256,192,93090,1,8,0:0:0:0:
256,192,93320,1,0,0:0:0:0:
256,192,93666,1,8,0:0:0:0:
256,192,94243,1,0,0:0:0:0:
256,192,94590,1,8,0:0:0:0:
256,192,94936,1,0,0:0:0:0:
256,192,95166,1,8,0:0:0:0:
256,192,95397,1,0,0:0:0:0:
256,192,95628,1,8,0:0:0:0:
256,192,96090,1,4,0:0:0:0:
256,192,96320,1,8,0:0:0:0:
256,192,96782,1,8,0:0:0:0:
256,192,97013,1,0,0:0:0:0:
256,192,97359,1,8,0:0:0:0:
256,192,97705,1,8,0:0:0:0:
256,192,97936,1,0,0:0:0:0:
256,192,98282,1,8,0:0:0:0:
256,192,98859,1,0,0:0:0:0:
256,192,99090,1,0,0:0:0:0:
256,192,99320,1,8,0:0:0:0:
256,192,99551,1,8,0:0:0:0:
256,192,99782,1,0,0:0:0:0:
256,192,100013,1,8,0:0:0:0:
256,192,100474,1,8,0:0:0:0:
256,192,100705,1,0,0:0:0:0:
256,192,101051,1,8,0:0:0:0:
256,192,101397,1,8,0:0:0:0:
256,192,101628,1,0,0:0:0:0:
256,192,101974,1,8,0:0:0:0:
256,192,102320,1,8,0:0:0:0:
256,192,102551,1,0,0:0:0:0:
256,192,102782,1,0,0:0:0:0:
256,192,103013,1,8,0:0:0:0:
