osu file format v14

[General]
AudioFilename: 02. Spacewolfe (Original Mix).mp3
AudioLeadIn: 0
PreviewTime: 79420
Countdown: 0
SampleSet: Soft
StackLeniency: 0.2
Mode: 0
LetterboxInBreaks: 0
WidescreenStoryboard: 1

[Editor]
Bookmarks: 64978,295956,310392,324829,346483
DistanceSpacing: 0.9
BeatDivisor: 4
GridSize: 4
TimelineZoom: 2.5

[Metadata]
Title:Spacewolfe
TitleUnicode:Spacewolfe
Artist:Savant
ArtistUnicode:Savant
Creator:Goonychan
Version:Insane
Source:
Tags:orakel sectionz section z
BeatmapID:661594
BeatmapSetID:294241

[Difficulty]
HPDrainRate:7
CircleSize:4
OverallDifficulty:8.2
ApproachRate:9.2
SliderMultiplier:3
SliderTickRate:1

[Events]
//Background and Video events
0,0,"蒼い星の夜明け.jpg",0,0
//Break Periods
//Storyboard Layer 0 (Background)
//Storyboard Layer 1 (Fail)
//Storyboard Layer 2 (Pass)
//Storyboard Layer 3 (Foreground)
//Storyboard Sound Samples

[TimingPoints]
7234,451.129364194423,4,2,1,100,1,0
7346,-151.515151515152,4,2,1,100,0,0
8249,-200,4,2,1,70,0,0
9038,-200,4,2,1,50,0,0
10840,-151.515151515152,4,2,1,100,0,0
12196,-133.333333333333,4,2,1,100,0,0
12647,-151.515151515152,4,2,1,50,0,0
13658,-100,4,2,1,100,0,0
14452,-151.515151515152,4,2,1,70,0,0
15128,-133.333333333333,4,2,1,80,0,0
16256,-151.515151515152,4,2,1,60,0,0
18061,-100,4,2,1,100,0,0
18391,-90.9090909090909,4,2,1,100,0,0
19865,-151.515151515152,4,2,1,70,0,0
20203,-151.515151515152,4,2,1,75,0,0
20542,-151.515151515152,4,2,1,85,0,0
20880,-133.333333333333,4,2,1,100,0,0
21219,-133.333333333333,4,2,1,100,0,0
21670,-117.647058823529,4,2,0,85,0,0
35204,-117.647058823529,4,2,0,50,0,0
35316,-117.647058823529,4,2,0,100,0,0
36444,-133.333333333333,4,2,0,60,0,0
45467,-133.333333333333,4,2,0,90,0,0
45805,-133.333333333333,4,2,0,80,0,0
46143,-133.333333333333,4,2,0,70,0,0
46595,-133.333333333333,4,2,0,60,0,0
46707,-133.333333333333,4,2,0,55,0,0
46820,-133.333333333333,4,2,0,50,0,0
46933,-133.333333333333,4,2,0,45,0,0
47271,-133.333333333333,4,2,0,55,0,0
47610,-133.333333333333,4,2,0,70,0,0
48286,-133.333333333333,4,2,0,60,0,0
48386,-117.647058823529,4,2,0,60,0,0
48737,-133.333333333333,4,2,0,60,0,0
50767,-133.333333333333,4,2,1,20,0,0
51557,-133.333333333333,4,2,1,23,0,0
51670,-133.333333333333,4,2,1,25,0,0
51783,-133.333333333333,4,2,1,27,0,0
51895,-133.333333333333,4,2,1,30,0,0
53700,-133.333333333333,4,2,1,27,0,0
53813,-133.333333333333,4,2,1,25,0,0
53925,-133.333333333333,4,2,1,23,0,0
54038,-133.333333333333,4,2,1,20,0,0
54377,-133.333333333333,4,2,1,25,0,0
54489,-133.333333333333,4,2,1,30,0,0
55166,-133.333333333333,4,2,1,40,0,0
55504,-117.647058823529,4,2,1,45,0,0
55955,-111.111111111111,4,2,1,20,0,0
56294,-111.111111111111,4,2,1,30,0,0
57309,-117.647058823529,4,2,1,60,0,0
57422,-117.647058823529,4,2,1,50,0,0
57534,-117.647058823529,4,2,1,40,0,0
57647,-117.647058823529,4,2,1,30,0,0
57760,-151.515151515152,4,2,2,80,0,0
64978,-142.857142857143,4,2,2,80,0,0
78399,-100,4,2,1,100,0,0
79414,-100,4,2,1,100,0,1
79527,-100,4,2,1,100,0,0
79865,-90.9090909090909,4,2,1,100,0,0
84151,-90.9090909090909,4,2,1,100,0,0
87083,-83.3333333333333,4,2,1,100,0,0
87309,-90.9090909090909,4,2,1,100,0,0
93850,-100,4,2,1,100,0,1
94978,-76.9230769230769,4,2,1,100,0,1
95204,-100,4,2,1,100,0,1
96895,-83.3333333333333,4,2,1,100,0,1
97008,-100,4,2,1,100,0,1
98587,-83.3333333333333,4,2,1,100,0,1
99264,-100,4,2,1,100,0,1
100166,-100,4,2,1,100,0,0
101068,-100,4,2,1,100,0,1
102196,-83.3333333333333,4,2,1,100,0,1
102873,-100,4,2,1,100,0,1
108286,-100,4,2,1,100,0,0
122159,-100,4,2,1,100,0,0
122384,-100,4,2,1,100,0,0
122723,-151.515151515152,4,2,1,100,0,0
122723,-151.515151515152,4,2,1,100,0,0
136482,-151.515151515152,4,2,1,100,0,0
136708,-100,4,2,1,100,0,0
137159,-125,4,2,1,100,0,0
151595,-151.515151515152,4,2,1,100,0,0
152497,-151.515151515152,4,2,1,5,0,0
152610,-151.515151515152,4,2,1,100,0,0
153399,-151.515151515152,4,2,1,5,0,0
153512,-151.515151515152,4,2,1,100,0,0
154302,-151.515151515152,4,2,1,5,0,0
154414,-151.515151515152,4,2,1,100,0,0
155204,-151.515151515152,4,2,1,5,0,0
155317,-151.515151515152,4,2,1,100,0,0
156106,-151.515151515152,4,2,1,5,0,0
156219,-151.515151515152,4,2,1,100,0,0
159715,-151.515151515152,4,2,1,5,0,0
159828,-151.515151515152,4,2,1,100,0,0
160617,-151.515151515152,4,2,1,5,0,0
160730,-151.515151515152,4,2,1,100,0,0
161520,-151.515151515152,4,2,1,5,0,0
161633,-151.515151515152,4,2,1,100,0,0
162422,-151.515151515152,4,2,1,5,0,0
162535,-151.515151515152,4,2,1,100,0,0
165918,-151.515151515152,4,2,1,5,0,0
166031,-133.333333333333,4,2,1,40,0,0
167610,-151.515151515152,4,2,1,80,0,0
167836,-151.515151515152,4,2,1,40,0,0
168738,-151.515151515152,4,2,1,60,0,0
171445,-133.333333333333,4,2,1,80,0,0
173249,-151.515151515152,4,2,1,60,0,0
174828,-151.515151515152,4,2,1,80,0,0
177760,-178.571428571429,4,2,1,60,0,0
178663,-133.333333333333,4,2,1,80,0,0
182046,-178.571428571429,4,2,1,60,0,0
187685,-133.333333333333,4,2,2,100,0,0
194903,-151.515151515152,4,2,2,100,0,0
202121,-151.515151515152,4,2,1,100,0,0
208324,-100,4,2,1,100,0,0
209791,-83.3333333333333,4,2,1,100,0,0
210242,-100,4,2,1,100,0,0
215824,-100,4,2,1,50,0,0
215881,-100,4,2,1,100,0,0
267084,-100,4,2,3,45,0,0
280618,-100,4,2,1,100,0,0
287159,-76.9230769230769,4,2,1,100,0,0
287385,-100,4,2,1,100,0,0
295956,-66.6666666666667,4,2,1,100,0,0
310392,-151.515151515152,4,2,1,60,0,0
324829,-100,4,2,1,60,0,0
332047,-151.515151515152,4,2,1,60,0,0
333400,-116.279069767442,4,2,1,60,0,0
338814,-100,4,2,1,60,0,0

[HitObjects]
100,120,7233,5,0,0:0:0:0:
120,196,7572,2,0,P|172:148|156:68,1,148.499999546814,0|0,0:3|0:0,0:0:0:0:
248,304,8249,1,0,0:0:0:0:
176,256,8587,2,0,L|136:136,1,112.5
144,76,9038,1,0,0:0:0:0:
344,180,9376,5,2,0:0:0:0:
272,224,9715,1,0,0:0:0:0:
264,308,10053,1,2,0:0:0:0:
244,152,10391,6,0,P|188:152|140:104,1,112.5
216,80,10843,1,0,0:0:0:0:
344,20,11181,5,0,0:0:0:0:
300,212,11519,2,0,P|364:200|416:280,1,148.499999546814,2|0,0:0|0:0,0:0:0:0:
344,272,12196,2,0,B|392:156|392:156|352:164|320:140,1,168.750006437302
376,84,12647,2,0,P|432:92|464:132,1,98.999999697876
432,256,12985,2,0,P|416:276|340:280,1,98.999999697876,2|0,0:0|0:0,0:0:0:0:
204,248,13324,2,0,P|240:216|312:208,1,98.999999697876
280,92,13662,2,0,P|208:76|140:145,1,150,2|0,0:0|0:0,0:0:0:0:
228,176,14000,2,0,L|256:316,1,112.5
316,332,14226,2,0,P|360:284|444:300,1,150,0|2,0:0|0:3,0:0:0:0:
288,120,14790,2,0,P|232:140|184:132,1,98.999999697876,2|0,0:0|0:0,0:0:0:0:
152,72,15128,2,0,P|116:140|180:208,1,168.750006437302,2|0,0:0|0:0,0:0:0:0:
304,276,15805,2,0,P|380:276|444:352,1,168.750006437302
192,224,16256,6,0,L|344:176,3,148.499999546814,0|2|0|2,0:0|0:0|0:0|0:0,0:0:0:0:
416,112,17609,2,0,P|420:184|508:208,1,148.499999546814
248,308,18061,6,0,P|316:296|336:204,1,150,2|0,0:0|0:0,0:0:0:0:
268,236,18399,2,0,B|236:216|236:216|240:196|240:196|124:184|172:88|92:108,1,165.000005035401,2|0,0:0|0:0,0:0:0:0:
228,116,18737,2,0,P|304:108|320:8,1,165.000005035401,2|0,0:0|0:0,0:0:0:0:
256,48,19076,2,0,B|308:72|308:72|344:104|344:104|404:128,1,165.000005035401
304,172,19414,2,0,P|216:200|304:212,1,247.500007553101,2|0,0:0|0:0,0:0:0:0:
264,192,19865,6,0,L|80:164,2,148.499999546814,0|2|0,0:0|0:0|0:0,0:0:0:0:
332,288,20880,2,0,P|364:232|432:224,1,112.500004291535
384,32,21219,1,0,0:0:0:0:
420,240,21444,1,0,0:0:0:0:
272,172,21670,2,0,L|176:88,1,127.50000243187,0|0,1:0|0:0,0:0:0:0:
120,144,22008,6,0,L|148:272,1,127.50000243187,0|0,1:0|0:0,0:0:0:0:
208,348,22346,2,0,L|236:216,1,127.50000243187,0|0,1:0|0:0,0:0:0:0:
276,160,22685,2,0,P|348:176|368:280,1,191.250003647804,0|0,1:0|1:0,0:0:0:0:
168,352,23249,1,0,1:0:0:0:
112,168,23474,2,0,P|148:108|208:80,1,127.50000243187,0|0,1:0|0:3,0:0:0:0:
352,92,23813,2,0,P|328:148|252:176,1,127.50000243187,8|0,0:0|0:0,0:0:0:0:
124,56,24151,6,0,L|132:188,1,127.50000243187,0|0,1:0|0:3,0:0:0:0:
196,308,24489,2,8,L|236:176,1,127.50000243187,8|0,0:0|0:0,0:0:0:0:
384,160,24828,1,0,1:0:0:0:
128,128,25053,1,0,1:0:0:0:
148,344,25279,6,0,L|120:144,2,191.250003647804,0|0|0,1:0|1:0|1:0,0:0:0:0:
312,232,26181,1,0,0:0:0:0:
312,232,26294,2,0,L|348:100,1,127.50000243187,0|0,1:0|0:0,0:0:0:0:
264,72,26632,2,0,L|284:8,1,63.7500012159348,0|0,1:0|0:0,0:0:0:0:
164,120,26858,2,0,L|144:188,1,63.7500012159348,0|0,1:0|0:0,0:0:0:0:
232,184,27083,6,0,P|284:164|348:188,1,127.50000243187,0|0,1:0|0:0,0:0:0:0:
256,352,27422,2,0,P|212:328|196:256,1,127.50000243187,8|0,0:0|0:0,0:0:0:0:
388,256,27760,2,0,P|376:324|324:356,1,127.50000243187,0|0,1:0|0:0,0:0:0:0:
256,184,28098,2,0,L|180:144,1,63.7500012159348,8|0,0:0|0:0,0:0:0:0:
172,136,28324,1,0,0:0:0:0:
148,108,28437,5,0,1:0:0:0:
176,272,28662,1,0,1:0:0:0:
200,16,28888,2,0,P|264:32|304:88,1,127.50000243187,0|0,1:0|0:0,0:0:0:0:
112,208,29226,2,0,P|88:144|108:68,1,127.50000243187,0|0,1:0|0:0,0:0:0:0:
300,188,29564,2,0,P|300:244|248:312,1,127.50000243187,0|0,1:0|0:3,0:0:0:0:
224,56,29903,2,0,P|272:32|360:44,1,127.50000243187,0|0,1:0|0:0,0:0:0:0:
400,152,30241,6,0,L|392:232,1,63.7500012159348,0|0,1:0|0:0,0:0:0:0:
280,364,30467,2,0,L|292:276,1,63.7500012159348,0|0,1:0|0:0,0:0:0:0:
256,112,30692,6,0,L|180:220,1,127.50000243187,0|0,1:0|0:0,0:0:0:0:
180,292,31031,2,0,P|136:276|112:200,1,127.50000243187,8|0,1:2|0:3,0:0:0:0:
148,56,31369,2,0,P|196:88|268:72,1,127.50000243187,0|0,1:0|0:3,0:0:0:0:
392,208,31707,2,0,P|336:176|268:188,1,127.50000243187,8|0,0:0|0:3,0:0:0:0:
224,72,32046,2,0,L|204:144,1,63.7500012159348,0|0,1:0|0:0,0:0:0:0:
316,272,32271,1,0,1:0:0:0:
384,72,32497,6,0,P|344:44|268:56,1,127.50000243187,0|0,1:0|0:0,0:0:0:0:
152,144,32835,2,0,P|200:180|264:168,1,127.50000243187,8|0,0:0|0:0,0:0:0:0:
304,68,33173,2,0,P|372:148|344:212,1,127.50000243187,0|0,1:0|0:0,0:0:0:0:
312,308,33512,2,0,P|268:272|272:192,1,127.50000243187,8|0,1:2|0:0,0:0:0:0:
360,104,33850,2,0,L|388:168,1,63.7500012159348,0|0,1:0|0:0,0:0:0:0:
248,152,34076,2,0,L|180:132,1,63.7500012159348,0|0,1:0|0:0,0:0:0:0:
74,102,34301,6,0,P|112:160|92:216,1,127.50000243187,0|0,1:0|0:0,0:0:0:0:
168,96,34640,2,0,P|232:80|252:12,1,127.50000243187,8|0,1:2|0:3,0:0:0:0:
256,160,34978,2,0,P|284:212|260:300,1,127.50000243187,0|0,1:0|0:0,0:0:0:0:
192,356,35316,2,0,P|168:308|188:228,1,127.50000243187,0|0,1:0|0:3,0:0:0:0:
336,208,35655,2,0,L|400:176,1,50,0|0,1:0|0:0,0:0:0:0:
136,112,35880,2,0,L|96:64,1,50,0|0,1:0|0:0,0:0:0:0:
168,240,36106,5,2,0:0:0:0:
256,352,36444,1,0,0:0:0:0:
280,312,36557,1,8,0:0:0:0:
272,128,36782,1,0,0:0:0:0:
156,265,37008,1,8,0:0:0:0:
156,265,37121,1,0,0:0:0:0:
104,160,37459,1,8,0:0:0:0:
156,104,37685,2,0,P|100:84|40:124,1,112.500004291535,0|8,0:0|0:0,0:0:0:0:
64,208,38249,5,0,0:0:0:0:
64,208,38361,1,8,0:0:0:0:
184,288,38587,1,0,0:0:0:0:
152,112,38813,2,0,L|208:64,1,50,10|0,0:0|0:0,0:0:0:0:
264,64,39038,1,0,0:0:0:0:
304,216,39264,2,0,P|348:248|416:240,1,112.500004291535,10|10,0:0|0:0,0:0:0:0:
432,328,39602,1,2,0:0:0:0:
432,328,39715,2,0,P|376:360|280:304,1,150
216,208,40166,2,0,P|176:168|104:160,1,112.500004291535,8|0,0:0|0:0,0:0:0:0:
168,40,40617,5,8,0:0:0:0:
180,56,40730,1,0,0:0:0:0:
191,70,40843,1,0,0:0:0:0:
172,244,41068,2,0,P|204:256|244:244,1,56.2500021457673,8|0,0:0|0:0,0:0:0:0:
208,184,41294,1,0,0:0:0:0:
192,96,41519,2,0,B|80:44|80:44|32:44,2,168.750006437302,8|0|0,0:0|0:0|0:0,0:0:0:0:
328,312,42534,2,8,P|398:290|445:208,1,168.750006437302,8|0,0:0|0:0,0:0:0:0:
448,176,42986,1,0,0:0:0:0:
440,144,43098,1,0,0:0:0:0:
416,112,43211,1,0,0:0:0:0:
384,96,43324,1,8,0:0:0:0:
328,204,43662,5,0,0:0:0:0:
328,204,43775,1,8,0:0:0:0:
220,248,44001,1,0,0:0:0:0:
272,72,44226,2,0,L|280:16,1,56.2500021457673,8|0,0:0|0:0,0:0:0:0:
340,120,44452,2,0,P|396:136|448:104,1,112.500004291535,0|8,0:0|0:0,0:0:0:0:
280,256,44903,1,0,0:0:0:0:
272,72,45128,2,0,P|216:52|152:88,1,112.500004291535,8|0,0:0|0:0,0:0:0:0:
220,128,45467,2,0,B|196:212|196:212|164:244,1,112.500004291535
160,40,45805,6,0,P|120:72|52:72,1,112.500004291535
248,104,46143,2,0,P|316:64|388:124,1,168.750006437302
432,160,46595,1,0,0:0:0:0:
432,192,46707,1,0,0:0:0:0:
412,232,46820,1,0,0:0:0:0:
408,264,46933,1,0,0:0:0:0:
184,160,47271,5,0,0:0:0:0:
184,160,47384,1,0,0:0:0:0:
168,88,47610,1,0,0:0:0:0:
168,232,47835,2,0,P|220:228|256:168,1,112.500004291535
456,320,48286,2,0,P|412:340|280:296,1,168.750006437302
108,200,48737,2,0,L|296:156,2,168.750006437302,0|2|0,0:0|0:0|0:0,0:0:0:0:
500,104,49752,2,0,L|332:68,1,168.750006437302,2|0,0:0|0:0,0:0:0:0:
292,76,50204,1,0,0:0:0:0:
264,104,50316,1,0,0:0:0:0:
256,140,50429,1,0,0:0:0:0:
264,168,50542,1,0,0:0:0:0:
388,340,50767,5,0,0:0:0:0:
388,340,50880,2,0,P|428:300|436:228,1,112.500004291535
416,176,51219,2,0,P|360:144|300:148,1,112.500004291535,2|0,0:0|0:0,0:0:0:0:
336,244,51557,6,0,L|288:308,1,56.2500021457673
136,236,51783,2,0,L|192:176,1,56.2500021457673,0|2,0:0|0:0,0:0:0:0:
196,120,52008,2,0,L|248:64,1,56.2500021457673,0|2,0:0|0:0,0:0:0:0:
312,64,52234,1,0,0:0:0:0:
312,64,52346,2,0,P|344:120|336:188,1,112.500004291535,2|0,0:0|0:0,0:0:0:0:
80,80,52685,2,0,P|104:32|176:8,1,112.500004291535,2|0,0:0|0:0,0:0:0:0:
212,296,53023,2,0,P|152:296|104:264,1,112.500004291535,2|0,0:0|0:0,0:0:0:0:
368,112,53361,6,0,P|424:128|472:184,1,112.500004291535,2|0,0:0|0:0,0:0:0:0:
400,328,53700,2,0,P|368:336|324:332,1,56.2500021457673
352,256,53925,2,0,P|336:256|272:232,1,56.2500021457673
352,176,54151,2,0,P|304:152|280:72,1,112.500004291535
136,112,54489,2,0,P|110:154|52:180,1,112.500004291535,2|0,0:0|0:0,0:0:0:0:
336,200,54828,2,0,P|400:192|456:228,1,112.500004291535,2|0,0:0|0:0,0:0:0:0:
216,320,55166,2,0,P|152:304|124:264,1,112.500004291535
200,104,55504,6,0,P|248:80|328:96,2,127.50000243187,0|0|2,0:0|0:0|0:1,0:0:0:0:
352,360,56181,1,0,0:0:0:0:
376,336,56294,2,0,L|400:200,1,134.999995880127,2|0,0:1|0:0,0:0:0:0:
328,152,56632,2,0,L|336:16,1,134.999995880127,2|0,0:1|0:0,0:0:0:0:
192,168,56971,2,0,L|220:308,1,134.999995880127,2|0,0:1|0:0,0:0:0:0:
424,160,57309,1,0,0:0:0:0:
432,120,57422,1,0,0:0:0:0:
440,80,57534,1,0,0:0:0:0:
448,40,57647,1,0,0:0:0:0:
456,0,57760,5,8,0:0:0:0:
144,128,58098,1,0,0:0:0:0:
144,128,58211,1,8,0:0:0:0:
176,272,58437,1,0,0:0:0:0:
248,104,58662,1,8,0:0:0:0:
104,296,58888,1,0,0:0:0:0:
320,72,59113,1,8,0:0:0:0:
320,72,59226,1,0,0:0:0:0:
240,232,59565,6,0,P|160:244|80:192,1,148.499999546814,8|0,0:0|0:0,0:0:0:0:
96,68,60016,2,0,P|144:40|192:40,1,98.999999697876,8|0,0:0|0:0,0:0:0:0:
300,128,60467,2,0,P|252:156|180:144,1,98.999999697876,8|0,0:0|0:0,0:0:0:0:
64,128,60918,1,8,0:0:0:0:
64,128,61031,2,0,L|104:232,1,98.999999697876
168,296,61369,2,0,L|192:164,1,98.999999697876,8|0,0:0|0:0,0:0:0:0:
224,176,61707,1,0,0:0:0:0:
224,176,61820,1,8,0:0:0:0:
76,164,62046,5,0,0:0:0:0:
208,272,62271,2,0,P|252:252|320:272,1,98.999999697876,8|0,0:0|0:0,0:0:0:0:
184,152,62722,1,8,0:0:0:0:
164,168,62835,2,0,P|112:184|68:168,1,98.999999697876
120,104,63174,2,0,B|184:84|184:84|224:92,1,98.999999697876,8|0,0:0|0:0,0:0:0:0:
215,90,63512,1,0,0:0:0:0:
215,90,63625,1,8,0:0:0:0:
244,272,63850,2,0,L|212:168,1,98.999999697876,0|8,0:0|0:0,0:0:0:0:
188,160,64189,1,0,0:0:0:0:
188,160,64301,1,0,0:0:0:0:
80,64,64527,1,8,0:0:0:0:
88,96,64639,1,0,0:0:0:0:
96,128,64752,1,0,0:0:0:0:
248,296,64978,5,0,1:0:0:0:
248,296,65091,2,0,P|260:256|260:208,1,52.4999983978272,2|0,0:0|0:0,0:0:0:0:
200,112,65316,2,0,P|184:148|184:188,1,52.4999983978272,0|8,1:0|0:0,0:0:0:0:
368,184,65542,1,0,0:0:0:0:
368,184,65655,2,0,L|396:116,1,52.4999983978272,0|0,1:0|0:0,0:0:0:0:
240,216,65880,2,0,L|272:144,1,52.4999983978272,8|0,0:0|1:0,0:0:0:0:
128,224,66106,1,0,0:0:0:0:
128,224,66219,2,0,L|160:152,1,52.4999983978272,0|8,0:0|0:0,0:0:0:0:
216,100,66444,2,0,P|252:88|288:92,1,52.4999983978272,0|0,0:0|1:0,0:0:0:0:
344,224,66670,5,2,0:0:0:0:
344,224,66783,2,0,P|316:240|276:232,1,52.4999983978272,0|0,1:0|0:0,0:0:0:0:
160,216,67008,2,0,P|204:188|236:192,1,52.4999983978272,2|0,0:0|1:0,0:0:0:0:
304,144,67234,2,0,P|320:120|336:72,1,52.4999983978272,8|0,0:0|0:0,0:0:0:0:
264,28,67459,2,0,P|263:51|256:80,1,52.4999983978272,0|0,1:0|0:0,0:0:0:0:
192,40,67685,2,0,P|193:10|188:-19,1,52.4999983978272,8|0,0:0|1:0,0:0:0:0:
208,168,67910,1,2,0:0:0:0:
208,168,68023,2,0,L|216:240,1,52.4999983978272,0|8,0:0|0:0,0:0:0:0:
320,336,68249,1,2,0:0:0:0:
320,336,68362,2,0,P|352:332|392:312,1,52.4999983978272
352,224,68587,6,0,L|404:196,1,52.4999983978272,0|0,1:0|0:0,0:0:0:0:
256,152,68813,1,0,0:0:0:0:
256,152,68925,1,0,1:0:0:0:
256,152,69038,2,0,L|216:72,1,52.4999983978272,8|0,0:0|0:0,0:0:0:0:
176,248,69264,2,0,L|180:168,1,52.4999983978272,0|0,1:0|0:0,0:0:0:0:
52,276,69489,2,0,L|72:212,1,52.4999983978272,8|0,0:0|1:0,0:0:0:0:
80,128,69715,5,0,0:0:0:0:
80,128,69828,1,0,0:0:0:0:
80,128,69940,2,0,L|156:136,1,52.4999983978272,8|0,0:0|0:0,0:0:0:0:
272,88,70166,2,0,L|212:80,1,52.4999983978272,0|0,1:0|0:0,0:0:0:0:
80,128,70392,2,0,L|156:136,1,52.4999983978272,0|0,1:0|0:0,0:0:0:0:
240,176,70617,5,0,0:0:0:0:
240,176,70730,1,0,1:0:0:0:
240,176,70843,2,0,L|232:236,1,52.4999983978272,8|0,0:0|0:0,0:0:0:0:
352,112,71068,1,0,1:0:0:0:
352,112,71181,1,0,0:0:0:0:
352,112,71294,2,0,L|352:44,1,52.4999983978272,8|0,0:0|1:0,0:0:0:0:
248,120,71519,5,0,0:0:0:0:
248,120,71632,2,0,P|272:144|300:168,1,52.4999983978272,0|8,0:0|0:0,0:0:0:0:
392,80,71858,1,2,0:0:0:0:
392,80,71971,2,0,L|400:16,1,52.4999983978272,0|0,1:0|0:0,0:0:0:0:
320,216,72196,5,8,1:3:0:0:
192,360,72422,1,0,0:0:0:0:
160,344,72534,1,4,1:3:0:0:
104,64,72760,1,0,0:0:0:0:
136,48,72873,1,4,1:3:0:0:
416,192,73098,1,8,0:3:0:0:
72,256,73324,1,0,0:0:0:0:
56,224,73437,2,0,P|72:136|172:112,1,157.499995193482,8|4,0:3|0:3,0:0:0:0:
272,80,78399,5,8,0:3:0:0:
296,120,78512,2,0,L|368:172,1,75,0|0,1:0|0:0,0:0:0:0:
296,304,78738,2,0,L|360:372,1,75,8|8,0:3|0:3,0:0:0:0:
72,200,78963,2,0,P|140:168|156:92,1,150,0|8,1:0|0:3,0:0:0:0:
456,192,79414,6,0,P|368:304|280:216,1,240,4|0,0:3|0:0,0:0:0:0:
216,160,79865,2,0,P|140:176|120:276,1,165.000005035401,0|0,1:0|0:0,0:0:0:0:
196,240,80204,1,2,0:0:0:0:
196,240,80316,2,0,B|252:280|252:280|264:328,1,103.125003147125,0|0,1:0|0:0,0:0:0:0:
348,280,80542,2,0,L|344:112,1,165.000005035401
252,176,80880,2,0,P|200:232|104:200,1,165.000005035401,2|0,0:0|0:0,0:0:0:0:
228,312,81219,2,0,L|164:128,1,165.000005035401,0|2,1:0|0:0,0:0:0:0:
240,56,81557,2,0,P|284:48|332:64,1,82.5000025177003,0|0,0:0|1:0,0:0:0:0:
324,188,81895,5,2,0:0:0:0:
352,208,82008,1,2,0:0:0:0:
384,232,82121,2,0,L|320:400,1,160,4|0,1:2|0:0,0:0:0:0:
180,292,82459,1,4,0:0:0:0:
224,228,82572,2,0,P|148:220|104:288,1,165.000005035401,2|2,1:2|0:0,0:0:0:0:
184,176,82910,5,0,0:0:0:0:
200,144,83023,2,0,B|328:48|328:48|244:212,1,330.000010070801,0|2,1:0|1:3,0:0:0:0:
200,64,83700,1,2,0:3:0:0:
216,268,83925,2,0,P|284:272|344:328,1,123.75000377655,0|0,1:0|0:0,0:0:0:0:
354,334,84151,2,0,L|394:222,1,80,2|0,0:3|0:0,0:0:0:0:
456,232,84377,2,2,P|396:180|316:216,1,165.000005035401,2|0,1:3|0:0,0:3:0:0:
120,184,84828,6,0,P|176:248|160:320,1,160,2|2,1:3|0:0,0:0:0:0:
244,200,85166,2,0,P|284:200|328:160,1,82.5000025177003,0|2,0:0|1:1,0:0:0:0:
260,124,85392,1,0,0:0:0:0:
260,124,85504,2,0,B|152:72|152:72|100:80,1,165.000005035401,0|0,0:0|1:0,0:0:0:0:
36,200,85843,1,0,0:0:0:0:
36,200,85956,2,0,P|84:208|132:184,1,82.5000025177003,2|0,0:3|0:0,0:0:0:0:
200,92,86181,2,0,P|200:188|332:168,1,247.500007553101,8|0,0:1|0:0,0:0:0:0:
264,136,86632,2,0,B|160:240|160:240|84:260|56:200,1,247.500007553101,0|0,1:0|0:0,0:0:0:0:
124,168,87083,2,0,P|144:108|84:140,1,134.999995880127,2|0,1:3|0:0,0:0:0:0:
116,132,87309,2,0,P|192:108|256:136,1,123.75000377655
284,184,87535,2,0,P|368:208|432:156,1,165.000005035401,0|2,1:0|0:3,0:0:0:0:
348,128,87873,1,0,0:3:0:0:
348,128,87986,2,0,P|308:104|204:160,1,165.000005035401,0|0,1:0|0:0,0:0:0:0:
140,188,88324,1,0,0:0:0:0:
140,188,88437,2,0,P|243:224|284:124,1,240,0|0,1:0|0:0,0:0:0:0:
176,328,88888,5,2,1:3:0:0:
212,152,89113,1,0,0:0:0:0:
228,104,89226,1,0,0:0:0:0:
244,56,89339,1,0,1:0:0:0:
188,0,89565,1,2,0:3:0:0:
272,192,89790,2,0,P|200:196|156:284,1,165.000005035401,0|2,1:0|0:0,0:0:0:0:
292,304,90129,1,0,0:0:0:0:
292,304,90241,2,0,B|332:288|364:248|364:248|364:208|396:168|396:168|364:144|364:144|344:88|280:76,1,330.000010070801,0|2,1:0|1:3,0:0:0:0:
272,152,90805,6,0,P|248:208|204:224,1,82.5000025177003,0|2,0:0|0:3,0:0:0:0:
196,148,90974,2,0,B|148:132|148:132|104:132|104:132|44:108,1,123.75000377655,0|0,0:0|1:0,0:0:0:0:
284,336,91369,6,0,P|312:272|392:316,1,165.000005035401,2|0,0:3|1:0,0:0:0:0:
336,320,91707,2,0,B|312:280|312:280|256:248|256:248|224:184,1,165.000005035401,2|0,0:3|0:0,0:0:0:0:
304,172,92046,2,0,P|208:124|160:232,1,247.500007553101,2|0,1:3|0:0,0:0:0:0:
260,240,92497,6,0,P|352:240|384:172,1,165.000005035401,2|2,1:3|0:3,0:0:0:0:
384,144,92835,1,0,0:0:0:0:
400,120,92948,2,0,L|456:36,1,82.5000025177003,8|0,0:1|0:0,0:0:0:0:
304,112,93174,1,0,0:0:0:0:
304,112,93286,1,0,0:0:0:0:
304,112,93399,2,0,L|368:16,1,82.5000025177003,8|0,0:1|0:0,0:0:0:0:
240,56,93625,6,0,P|224:136|292:192,2,165.000005035401,0|0|2,1:0|1:0|0:3,0:0:0:0:
304,112,94189,1,0,0:0:0:0:
200,152,94301,2,0,P|192:240|248:304,1,150,0|2,1:0|0:3,0:0:0:0:
296,304,94640,2,0,B|256:272|256:272|196:260|144:292,1,150,2|0,0:0|3:0,0:0:0:0:
240,248,94978,2,0,P|328:232|372:324,1,194.999991073609,2|0,0:0|1:0,0:0:0:0:
232,360,95317,2,0,B|180:340|180:340|156:296|156:296|96:268,1,150,2|8,0:3|0:3,0:0:0:0:
176,216,95655,2,0,P|272:216|300:152,1,150,0|2,1:0|0:0,0:0:0:0:
224,156,95993,2,0,L|192:56,1,75,0|0,0:0|1:0,0:0:0:0:
464,120,96332,6,8,L|424:208,1,80
296,288,96557,2,0,L|368:128,1,160,0|2,1:0|0:0,0:0:0:0:
388,68,96895,2,0,P|348:64|292:108,1,89.9999972534181,0|0,0:0|1:0,0:0:0:0:
472,304,97234,1,8,0:3:0:0:
192,36,97459,2,0,P|128:108|208:192,1,225,0|0,1:0|0:0,0:0:0:0:
208,116,97911,2,0,P|288:85|288:8,1,150,0|2,1:0|0:3,0:0:0:0:
272,136,98249,1,2,0:3:0:0:
272,168,98362,1,0,1:0:0:0:
224,344,98587,2,0,L|196:244,1,89.9999972534181,2|2,3:0|0:3,0:0:0:0:
124,304,98813,2,0,L|72:104,1,179.999994506836,0|0,1:0|0:0,0:0:0:0:
256,52,99264,6,0,P|202:101|128:76,1,150,0|2,1:0|0:0,0:0:0:0:
184,24,99602,1,2,0:3:0:0:
184,24,99715,1,2,1:3:0:0:
216,340,99941,1,8,0:3:0:0:
144,192,100166,2,0,B|200:216|200:216|216:192|216:192|272:216|328:192|352:128|352:128|324:88|352:48,1,320,0|8,1:0|0:1,0:0:0:0:
136,176,100843,1,2,0:3:0:0:
272,296,101068,2,0,P|328:248|400:284,1,150,2|2,1:3|0:0,0:0:0:0:
336,232,101407,1,0,0:0:0:0:
336,232,101520,2,0,B|288:200|288:200|264:160|264:160|216:124,1,150,0|2,1:0|0:3,0:0:0:0:
200,204,101858,6,0,P|224:276|156:332,1,150,2|2,0:0|3:3,0:0:0:0:
148,260,102196,2,0,P|252:268|296:324,1,179.999994506836,0|8,0:0|0:0,0:0:0:0:
372,356,102535,2,0,B|384:208|384:208|428:180,1,179.999994506836,2|0,0:3|0:0,0:0:0:0:
352,136,102873,2,0,B|272:184|204:88|116:152,1,225,0|0,1:0|0:0,0:0:0:0:
180,204,103324,6,0,P|248:248|244:312,1,150,8|0,1:2|0:0,0:0:0:0:
256,200,103662,2,0,B|264:172|264:172|280:160|280:160|288:120,1,75,8|0,0:0|1:0,0:0:0:0:
56,200,104001,2,0,B|80:232|80:232|72:284,1,75,2|0,0:3|0:0,0:0:0:0:
160,232,104226,2,0,B|176:208|176:208|208:192|208:192|192:112|296:144|288:36,1,225,8|0,1:3|0:0,3:0:0:0:
280,144,104677,6,0,P|308:248|208:292,1,225,2|0,1:3|0:0,0:0:0:0:
120,240,105129,2,0,B|96:240|80:248|80:248|72:272|80:300,1,75,0|0,1:0|0:0,0:0:0:0:
192,296,105354,2,0,P|224:280|244:224,1,75,4|0,0:2|0:0,0:0:0:0:
224,160,105580,2,0,B|248:132|248:132|276:132|304:144,1,75,0|8,1:0|0:0,0:0:0:0:
376,192,105805,1,2,0:3:0:0:
376,192,105918,2,0,P|344:228|340:264,1,75,8|0,0:0|1:0,0:0:0:0:
416,256,106144,2,0,P|452:204|412:124,1,150,2|0,0:3|0:0,0:0:0:0:
344,128,106482,2,0,B|296:64|296:64|208:80,1,150,0|8,1:0|0:0,0:0:0:0:
208,272,106933,6,0,B|288:288|288:288|352:240,1,150,0|2,1:0|0:3,0:0:0:0:
408,64,107384,1,0,1:0:0:0:
400,80,107497,1,0,1:3:0:0:
384,184,107610,2,0,B|392:200|416:208|416:208|440:200|448:188,1,75,2|2,0:3|0:3,0:3:0:0:
336,304,107835,2,0,B|312:344|280:352|280:352|224:336|204:288,1,150,8|8,0:1|0:3,0:0:0:0:
56,256,108286,6,0,B|72:192|96:156|96:156|176:136|256:160,1,225,0|0,1:0|0:0,0:0:0:0:
176,240,108738,2,0,P|248:248|268:324,1,150,0|12,1:0|0:3,0:0:0:0:
272,168,109189,2,0,L|296:0,2,150,0|4|4,1:0|0:3|1:3,0:0:0:0:
212,220,109753,2,0,P|280:284|332:268,1,150,2|0,0:1|0:0,0:0:0:0:
320,196,110091,2,0,P|392:228|340:348,1,225,6|0,0:3|0:0,0:0:0:0:
460,168,110542,6,0,B|476:116|476:116|480:56|480:56|508:-4,2,150,8|12|8,1:3|0:3|1:3,0:0:0:0:
272,336,111219,2,0,L|248:276,1,37.5,2|0,0:1|0:0,0:0:0:0:
127,208,111444,2,0,P|126:228|128:248,1,37.5,2|0,1:0|0:0,0:0:0:0:
79,40,111670,2,0,P|62:50|52:64,1,37.5,2|0,0:1|0:0,0:0:0:0:
244,120,111896,6,0,B|276:148|328:136|328:136|360:160|368:216,1,150,0|8,1:0|0:3,0:0:0:0:
464,116,112234,2,0,P|432:88|384:80,1,75,0|0,0:0|1:0,0:0:0:0:
272,88,112459,1,2,0:3:0:0:
272,88,112572,2,0,B|248:128|248:128|264:184|320:200,1,150,2|0,0:3|1:0,0:0:0:0:
212,292,112911,2,0,P|156:240|84:260,1,150,0|0,0:3|0:3,0:0:0:0:
136,316,113249,2,0,L|180:144,1,150,2|0,1:3|0:0,0:0:0:0:
264,136,113587,5,0,0:0:0:0:
256,160,113700,2,0,B|224:48|224:48|200:96,1,150,0|0,1:0|0:0,0:0:0:0:
192,296,114151,2,0,B|210:342|210:342|248:248,1,150,0|0,1:0|0:0,0:0:0:0:
304,112,114490,2,0,P|328:80|372:60,1,75,2|0,0:3|1:0,0:0:0:0:
372,252,114828,2,0,P|344:280|328:288,1,37.5,2|0,1:1|0:0,0:0:0:0:
104,160,115053,1,10,0:1:0:0:
416,120,115279,2,0,P|432:104|460:88,1,37.5,0|0,1:1|0:0,0:0:0:0:
240,280,115505,6,0,B|216:320|216:320|184:176,1,150,0|0,1:0|0:0,0:0:0:0:
288,60,115956,2,0,P|352:132|432:48,1,225,2|0,1:3|0:0,0:0:0:0:
360,56,116407,2,0,B|360:120|360:120|376:172|376:172|360:224|360:224|368:300,1,225,2|0,1:0|0:0,0:0:0:0:
296,168,116858,2,0,B|280:144|280:144|224:136|224:136|176:96|176:96|128:112|128:112|100:152,1,225,2|0,1:0|0:0,0:0:0:0:
264,64,117309,2,0,B|320:72|320:72|352:112|352:112|384:120|384:120|424:104|424:104|440:64|440:64|448:48,1,225,0|0,1:0|0:0,0:0:0:0:
376,200,117760,2,0,P|340:268|352:304,1,112.5,8|0,1:3|0:0,0:0:0:0:
416,264,117986,2,0,L|496:220,1,75,4|0,1:3|0:0,0:0:0:0:
264,244,118211,6,0,L|180:212,1,75,8|0,1:3|0:0,0:0:0:0:
56,136,118437,2,0,L|76:92,1,37.5,2|0,1:1|0:0,0:0:0:0:
188,296,118662,2,0,L|180:384,1,75,2|0,1:0|0:0,0:0:0:0:
472,128,118888,2,0,L|508:140,1,37.5,2|0,0:0|0:0,0:0:0:0:
260,268,119114,2,0,P|156:224|116:320,1,225,2|0,1:3|0:0,0:0:0:0:
224,364,119565,6,0,B|272:340|272:340|320:340|320:340|384:308,1,150,2|0,1:3|0:0,0:0:0:0:
376,96,120016,2,0,B|336:88|336:88|304:112|304:112|240:128,1,112.5,0|0,1:0|0:0,0:0:0:0:
220,188,120241,2,0,P|180:224|112:212,1,112.5,2|0,0:3|0:0,0:0:0:0:
156,152,120467,2,0,L|212:304,1,150,2|2,1:3|0:3,0:0:0:0:
400,312,120918,2,0,B|376:264|376:264|336:224|336:224|312:152|312:152|256:112,1,225,0|0,1:0|0:0,0:0:0:0:
248,200,121369,2,0,B|264:248|264:248|256:304|176:320,1,150,2|2,1:3|0:3,0:0:0:0:
340,280,121708,6,0,P|352:248|384:272,1,75,0|8,0:0|0:1,0:0:0:0:
320,160,121933,1,0,0:0:0:0:
312,136,122046,1,0,0:0:0:0:
304,112,122159,2,0,L|272:40,1,75,0|8,0:0|0:1,0:0:0:0:
240,224,122384,2,0,L|200:140,1,75,0|8,0:0|0:1,0:0:0:0:
116,312,122723,6,0,P|152:328|212:312,1,98.999999697876,0|0,3:0|0:0,0:0:0:0:
264,248,123061,1,0,0:0:0:0:
264,248,123174,2,0,P|212:232|160:252,1,98.999999697876,0|0,3:0|0:0,0:0:0:0:
96,336,123625,6,0,L|96:272,1,49.499999848938,0|0,1:0|0:0,0:0:0:0:
132,144,123850,2,0,P|180:124|240:132,1,98.999999697876,0|0,0:0|3:0,0:0:0:0:
368,108,124302,5,0,0:0:0:0:
360,132,124414,1,0,0:0:0:0:
352,152,124527,2,0,B|336:176|336:176|332:216|332:216|304:248,2,98.999999697876,0|0|0,1:0|0:0|3:0,0:0:0:0:
432,88,125204,2,0,L|432:188,1,98.999999697876,0|0,0:0|1:0,0:0:0:0:
380,264,125542,1,0,0:0:0:0:
380,264,125655,2,0,L|364:292|332:312,1,49.499999848938,0|0,1:0|0:0,0:0:0:0:
312,240,125881,1,0,1:0:0:0:
128,212,126106,6,0,P|164:164|200:144,1,98.999999697876,0|0,3:0|1:0,0:0:0:0:
296,128,126444,1,0,0:3:0:0:
296,128,126557,2,0,P|352:96|368:56,2,98.999999697876,0|0|0,0:0|1:0|0:0,0:0:0:0:
148,152,127234,5,0,1:0:0:0:
148,172,127347,1,0,0:0:0:0:
152,192,127459,2,0,P|176:232|228:256,1,98.999999697876,0|0,3:0|1:0,0:0:0:0:
272,312,127798,1,0,0:0:0:0:
272,312,127911,2,0,P|296:268|284:216,2,98.999999697876,0|0|0,0:0|1:0|0:0,0:0:0:0:
216,184,128475,1,0,0:0:0:0:
216,184,128587,2,0,P|248:152|312:148,2,98.999999697876,0|0|0,1:0|3:0|1:0,0:0:0:0:
224,128,129151,5,0,0:0:0:0:
228,104,129264,1,0,3:0:0:0:
232,80,129377,1,0,0:0:0:0:
304,40,129490,2,0,P|352:40|400:80,1,98.999999697876,8|0,1:0|0:0,0:0:0:0:
424,148,129828,1,0,0:0:0:0:
424,148,129941,2,0,P|372:148|328:112,2,98.999999697876,0|0|0,1:0|0:0|1:0,0:0:0:0:
344,220,130505,1,0,0:0:0:0:
344,220,130617,2,0,L|300:328,1,98.999999697876,0|0,0:0|1:0,0:0:0:0:
216,236,130956,5,0,0:0:0:0:
208,212,131069,1,0,3:0:0:0:
200,192,131181,2,0,L|192:144,1,49.499999848938,0|0,0:0|1:0,0:0:0:0:
296,32,131520,1,0,3:0:0:0:
332,184,131745,1,0,1:0:0:0:
348,192,131858,1,0,0:0:0:0:
360,208,131971,2,0,P|408:216|456:176,2,98.999999697876,0|0|0,3:0|1:0|0:0,0:0:0:0:
392,144,132535,5,0,0:0:0:0:
392,144,132647,2,0,L|400:200,1,40,0|0,1:0|0:0,0:0:0:0:
308,308,132873,2,0,L|292:244,1,40,0|0,1:0|0:0,0:0:0:0:
204,192,133099,2,0,P|168:144|172:100,1,98.999999697876,0|0,1:0|3:0,0:0:0:0:
120,48,133550,6,0,P|56:88|48:128,1,98.999999697876,0|0,1:0|3:0,0:0:0:0:
124,128,133888,1,0,0:0:0:0:
124,128,134001,2,0,P|120:184|116:236,2,98.999999697876,0|0|0,1:0|3:0|1:0,0:0:0:0:
204,304,134565,1,0,0:0:0:0:
204,304,134678,2,0,L|232:208,1,98.999999697876,0|0,1:0|1:0,0:0:0:0:
440,148,135129,5,0,3:0:0:0:
444,168,135241,1,0,0:0:0:0:
447,187,135354,2,0,L|416:284,2,98.999999697876,0|0|0,1:0|2:0|1:0,0:0:0:0:
376,144,135918,1,0,0:0:0:0:
376,144,136031,2,0,P|332:172|256:160,1,98.999999697876,0|8,1:0|0:1,0:0:0:0:
152,200,136369,5,8,0:1:0:0:
120,216,136482,2,0,L|92:272,1,49.499999848938
216,152,136708,2,0,P|292:148|380:120,1,150,8|8,1:0|0:3,0:0:0:0:
120,80,137159,2,0,L|104:216,1,120,0|0,1:0|0:0,0:0:0:0:
160,256,137497,1,0,0:0:0:0:
160,256,137610,2,0,P|216:240|272:264,1,120,8|2,0:0|0:0,0:0:0:0:
387,329,137948,6,0,L|324:336,1,60,2|0,0:3|1:0,0:0:0:0:
192,152,138174,1,2,0:0:0:0:
192,152,138287,2,0,L|256:164,1,60,0|0,1:0|0:0,0:0:0:0:
448,104,138512,2,0,L|464:56,1,30.0000011444092,8|0,1:2|0:0,0:0:0:0:
280,276,138738,5,0,0:0:0:0:
256,264,138850,1,0,0:0:0:0:
240,248,138963,2,0,P|224:192|248:120,1,120,0|2,1:0|0:0,0:0:0:0:
136,64,139302,1,0,0:0:0:0:
136,64,139414,2,0,P|144:136|124:184,1,120,8|2,1:2|0:0,0:0:0:0:
192,240,139753,2,0,L|264:224,1,60.0000022888184,0|0,0:3|1:0,0:0:0:0:
320,128,139978,5,0,0:0:0:0:
320,128,140091,2,0,L|336:208,1,60.0000022888184,0|0,3:0|0:0,0:0:0:0:
312,280,140317,1,8,1:2:0:0:
128,92,140542,6,0,P|172:56|220:60,1,90,2|0,1:2|0:0,0:0:0:0:
192,128,140768,2,0,L|160:288,1,120.000004577637,2|0,1:3|0:0,0:0:0:0:
200,360,141106,2,0,L|280:256,1,120.000004577637,2|0,1:3|0:0,0:0:0:0:
312,112,141444,6,0,P|344:104|384:112,1,60,2|0,0:0|0:0,0:0:0:0:
456,188,141670,2,0,P|416:204|376:196,1,60.0000022888184,0|0,1:0|0:0,0:0:0:0:
224,208,141896,2,0,P|176:224|152:248,1,60.0000022888184,0|0,3:0|0:0,0:0:0:0:
136,360,142121,2,0,L|192:344,1,30.0000011444092,8|0,1:2|0:0,0:0:0:0:
356,300,142347,6,0,P|388:244|368:176,1,120,0|0,3:0|1:0,0:0:0:0:
336,40,142798,2,0,P|312:64|304:112,1,60.0000022888184
312,232,143023,2,0,P|376:224|416:160,1,120.000004577637,8|2,1:2|0:0,0:0:0:0:
488,88,143362,2,0,L|480:168,1,60.0000022888184,0|0,0:0|1:0,0:0:0:0:
368,328,143587,2,0,L|408:256,1,60.0000022888184,2|0,0:0|1:0,0:0:0:0:
300,88,143813,1,0,0:0:0:0:
308,60,143926,2,0,L|317:31,1,30.0000011444092,8|0,0:1|0:0,0:0:0:0:
176,248,144151,6,0,P|224:288|284:284,1,120,0|0,0:0|1:0,0:0:0:0:
396,160,144602,1,0,0:0:0:0:
396,160,144715,1,0,0:0:0:0:
396,160,144828,1,8,0:0:0:0:
240,72,145054,2,0,P|176:80|128:128,1,120.000004577637,0|0,0:0|1:0,0:0:0:0:
192,304,145392,1,0,0:0:0:0:
192,304,145505,2,0,P|220:304|256:288,1,60,0|0,3:0|0:0,0:0:0:0:
396,160,145730,2,0,P|376:128|376:88,1,60,0|0,1:0|0:0,0:0:0:0:
348,312,145956,2,0,P|352:264|300:200,1,120,0|0,0:0|1:0,0:0:0:0:
160,88,146407,6,0,P|152:128|168:176,1,60.0000022888184
248,164,146632,2,0,P|216:228|144:244,2,120,10|0|0,2:0|0:0|1:0,0:0:0:0:
336,80,147196,2,0,L|376:152,1,60.0000022888184,0|8,0:0|0:0,0:0:0:0:
288,312,147422,1,0,0:0:0:0:
288,312,147535,2,0,L|256:280,1,30.0000011444092,0|0,1:0|0:0,0:0:0:0:
192,72,147760,6,0,L|232:120,1,60.0000022888184
312,160,147986,2,0,L|400:56,1,120.000004577637,2|0,1:3|0:0,0:0:0:0:
480,24,148324,2,0,L|472:144,1,120.000004577637,2|0,1:3|0:0,0:0:0:0:
368,208,148663,2,0,L|496:248,1,120.000004577637,2|0,0:3|1:0,0:0:0:0:
456,128,149001,2,0,L|400:80,1,60.0000022888184,0|2,0:0|0:3,0:0:0:0:
296,72,149226,1,0,0:0:0:0:
296,72,149339,1,8,1:2:0:0:
264,216,149565,2,0,P|224:160|176:152,1,120.000004577637,0|0,0:0|1:0,0:0:0:0:
184,312,150016,6,0,P|256:344|312:328,1,120.000004577637,0|8,0:0|0:0,0:0:0:0:
384,184,150467,2,0,B|392:136|392:136|408:112|408:112|424:40,1,120.000004577637,0|0,0:0|1:0,0:0:0:0:
349,13,150805,2,0,L|336:72,1,60.0000022888184,0|0,0:0|1:0,0:0:0:0:
384,184,151031,1,0,0:0:0:0:
368,208,151144,1,8,0:1:0:0:
208,288,151369,1,0,1:0:0:0:
64,104,151595,6,0,P|232:176|196:24,1,395.999998791504
160,116,152610,6,0,P|224:156|72:224,1,346.499998942566
232,128,153512,6,0,P|376:120|272:16,1,346.499998942566
304,192,154414,2,0,B|284:224|284:224|288:252|288:252|220:332|120:308|80:208|152:152,1,346.499998942566
208,136,155317,2,0,B|272:112|276:32|276:32|384:136|300:216,1,346.499998942566
220,212,156219,2,0,P|352:324|392:152,1,395.999998791504
240,88,158926,6,0,P|152:208|76:84,1,346.499998942566
164,120,159828,2,0,B|184:188|184:188|160:272|160:272|172:344|252:388|336:320|308:252,2,395.999998791504
184,204,162535,6,0,P|318:146|210:246,1,395.999998791504
256,192,163550,12,0,165918,0:0:0:0:
240,208,166031,5,2,0:0:0:0:
160,112,166933,1,2,0:0:0:0:
148,292,167610,1,0,0:0:0:0:
148,292,167836,2,0,P|200:236|292:312,1,197.999999395752,2|0,0:0|0:0,0:0:0:0:
297,152,168738,6,0,L|256:60,1,98.999999697876,2|0,0:0|0:0,0:0:0:0:
220,216,169076,1,0,0:0:0:0:
220,216,169189,2,0,L|268:320,1,98.999999697876,2|0,0:0|0:0,0:0:0:0:
176,136,169527,2,0,B|236:40|352:148|404:28,1,247.49999924469,2|0,0:0|0:0,0:0:0:0:
336,304,170542,5,2,0:0:0:0:
236,112,171219,1,0,0:0:0:0:
232,312,171445,2,0,L|252:116,1,168.750006437302,2|0,0:0|0:0,0:0:0:0:
344,200,171896,2,0,L|412:104,1,112.500004291535,2|0,0:0|0:0,0:0:0:0:
176,92,172347,2,0,P|112:100|80:160,1,112.500004291535,2|0,0:0|0:0,0:0:0:0:
156,164,172685,1,2,0:0:0:0:
184,232,173024,5,0,0:0:0:0:
240,112,173249,2,0,P|308:176|384:112,1,197.999999395752,2|0,0:0|0:0,0:0:0:0:
292,48,174151,2,0,B|264:208|264:208|232:244,1,197.999999395752,2|0,0:0|0:0,0:0:0:0:
160,256,174828,1,2,0:0:0:0:
160,256,175054,2,0,L|124:92,1,148.499999546814,2|0,0:0|0:0,0:0:0:0:
108,88,175505,1,0,0:0:0:0:
352,112,175956,6,0,L|376:216,1,98.999999697876,2|0,0:0|0:0,0:0:0:0:
312,304,176407,2,0,L|272:204,1,98.999999697876,2|0,0:0|0:0,0:0:0:0:
208,160,176745,2,0,P|124:160|92:272,1,197.999999395752,2|0,0:0|0:0,0:0:0:0:
304,352,177760,2,0,L|344:184,1,168.000002050781,2|0,0:0|0:0,0:0:0:0:
320,120,178437,1,0,0:0:0:0:
320,120,178663,5,2,0:0:0:0:
120,320,179114,1,2,0:0:0:0:
168,60,179565,1,2,0:0:0:0:
208,272,179903,1,0,0:0:0:0:
88,136,180242,5,0,0:0:0:0:
96,176,180354,1,0,0:0:0:0:
104,216,180467,1,4,0:2:0:0:
120,216,182046,5,0,0:0:0:0:
144,288,182272,2,0,P|188:248|156:152,1,168.000002050781,4|0,0:2|0:0,0:0:0:0:
88,176,183174,5,4,0:2:0:0:
272,320,183625,1,4,0:2:0:0:
272,112,184076,5,4,0:2:0:0:
128,192,185655,6,0,L|96:244,1,42.0000005126953,4|0,0:2|0:0,0:0:0:0:
144,296,185881,2,0,P|192:256|200:176,1,126.000001538086,4|0,0:2|0:0,0:0:0:0:
320,144,186557,1,0,0:0:0:0:
328,168,186670,1,0,0:0:0:0:
336,192,186783,1,2,0:0:0:0:
260,336,187009,6,0,L|244:292,1,42.0000005126953
216,232,187234,2,0,L|184:144,1,84.0000010253906,2|0,0:0|0:0,0:0:0:0:
140,80,187685,2,0,P|64:136|88:240,1,168.750006437302,8|0,0:2|0:0,0:0:0:0:
112,276,188136,2,8,P|144:220|128:152,1,112.500004291535,8|0,0:0|0:0,0:0:0:0:
208,96,188588,2,0,P|256:112|324:76,1,112.500004291535,8|0,0:0|0:0,0:0:0:0:
416,48,189039,1,8,0:0:0:0:
416,48,189151,2,0,L|388:228,1,168.750006437302,8|8,0:0|0:0,0:0:0:0:
136,160,189715,5,0,0:0:0:0:
136,160,189828,1,0,0:0:0:0:
136,160,189941,2,0,L|256:228,1,112.500004291535,8|0,0:0|0:0,0:0:0:0:
272,352,190392,2,0,L|324:236,1,112.500004291535,8|0,0:0|0:0,0:0:0:0:
320,104,190843,1,8,0:0:0:0:
320,104,190956,2,0,L|208:52,1,112.500004291535
128,40,191294,6,0,L|184:160,1,112.500004291535,8|0,0:0|0:0,0:0:0:0:
208,156,191633,1,0,0:0:0:0:
208,156,191745,1,8,0:0:0:0:
372,132,191971,1,0,0:0:0:0:
416,192,192197,2,0,P|368:208|308:172,1,112.500004291535,8|0,0:0|0:0,0:0:0:0:
252,48,192648,1,8,0:0:0:0:
252,48,192760,2,0,L|224:160,1,112.500004291535,0|0,0:0|0:0,0:0:0:0:
120,204,193099,6,0,L|236:252,1,112.500004291535,10|0,0:0|0:0,0:0:0:0:
352,208,193437,2,0,L|292:184,1,56.2500021457673,0|8,0:0|0:0,0:0:0:0:
192,184,193775,2,0,P|176:232|192:300,1,112.500004291535,0|8,0:0|0:0,0:0:0:0:
252,332,194114,1,0,0:0:0:0:
252,332,194227,1,0,0:0:0:0:
320,272,194452,1,8,0:0:0:0:
312,232,194565,1,0,0:0:0:0:
304,192,194678,1,0,0:0:0:0:
288,48,194903,5,0,1:0:0:0:
248,64,195016,1,0,0:0:0:0:
208,80,195129,2,0,P|184:112|176:152,1,49.499999848938,0|0,0:0|1:0,0:0:0:0:
256,144,195354,1,8,0:0:0:0:
256,144,195467,2,0,P|248:184|264:216,1,49.499999848938,0|0,0:0|1:0,0:0:0:0:
320,176,195693,6,0,L|368:136,1,49.499999848938,0|8,0:0|0:0,0:0:0:0:
180,296,195918,1,0,0:0:0:0:
180,296,196031,2,0,L|136:332,1,49.499999848938,0|0,1:0|0:0,0:0:0:0:
168,96,196257,2,0,L|216:152,1,49.499999848938,8|0,0:0|0:0,0:0:0:0:
272,264,196482,2,0,L|304:212,1,49.499999848938,0|0,0:0|1:0,0:0:0:0:
168,340,196708,6,0,P|148:348|108:348,1,49.499999848938,8|0,0:0|0:0,0:0:0:0:
108,220,196933,1,0,1:0:0:0:
108,220,197046,2,0,P|140:188|148:160,1,49.499999848938,0|8,0:0|0:0,0:0:0:0:
76,148,197272,1,0,0:0:0:0:
76,148,197385,2,0,P|84:100|76:72,1,49.499999848938,0|0,1:0|0:0,0:0:0:0:
144,188,197610,2,0,L|176:264,1,49.499999848938,8|0,0:0|0:0,0:0:0:0:
232,296,197836,2,0,L|260:220,1,49.499999848938,0|0,1:0|0:0,0:0:0:0:
216,144,198061,2,0,P|240:144|272:128,1,49.499999848938,8|0,0:0|0:0,0:0:0:0:
292,304,198287,5,0,1:0:0:0:
292,304,198400,1,0,0:0:0:0:
292,304,198512,2,0,L|272:380,1,49.499999848938,8|0,0:0|0:0,0:0:0:0:
176,208,198738,1,0,1:0:0:0:
176,208,198851,2,0,L|144:144,1,49.499999848938,0|8,0:0|0:0,0:0:0:0:
256,72,199076,1,0,0:0:0:0:
256,72,199189,2,0,L|292:136,1,49.499999848938,0|0,1:0|0:0,0:0:0:0:
328,272,199415,2,0,L|292:328,1,49.499999848938,8|0,0:0|0:0,0:0:0:0:
224,160,199640,6,0,L|212:88,1,49.499999848938,0|0,1:0|0:0,0:0:0:0:
44,44,199866,2,0,L|64:136,1,49.499999848938,8|0,0:0|1:0,0:0:0:0:
88,272,200091,2,0,L|160:216,1,49.499999848938,0|8,0:0|0:0,0:0:0:0:
264,120,200317,1,8,0:0:0:0:
264,120,200430,2,0,L|280:196,1,49.499999848938
88,64,200655,1,8,0:0:0:0:
88,64,200768,2,0,L|96:132,1,49.499999848938,8|0,0:0|0:0,0:0:0:0:
136,288,200994,6,0,L|148:360,1,49.499999848938,8|0,0:0|0:0,0:0:0:0:
208,128,201219,2,0,L|232:44,1,49.499999848938,8|0,0:0|0:0,0:0:0:0:
264,304,201445,2,0,L|316:336,1,49.499999848938,0|0,1:0|0:0,0:0:0:0:
104,140,201670,2,0,L|48:80,1,49.499999848938,8|0,0:0|0:0,0:0:0:0:
328,128,201896,2,0,L|384:88,1,49.499999848938
24,352,202121,5,8,0:3:0:0:
384,40,202460,1,4,0:3:0:0:
48,240,202686,1,0,0:0:0:0:
64,192,202798,1,4,0:3:0:0:
432,88,203024,1,8,0:3:0:0:
104,360,203362,1,8,0:3:0:0:
208,24,203700,1,4,0:3:0:0:
232,144,208324,5,8,0:3:0:0:
264,176,208437,1,8,0:1:0:0:
136,168,208550,2,0,L|76:100,1,75,8|8,0:1|0:3,3:0:0:0:
136,304,208776,1,8,0:3:0:0:
136,304,208888,2,0,P|224:304|264:232,1,150,8|8,0:1|0:3,0:0:0:0:
80,56,209339,6,0,B|112:72|112:72|108:108|108:108|148:148|116:228|52:208,1,225,8|0,0:3|0:0,0:0:0:0:
208,176,209791,2,0,P|272:128|360:176,1,179.999994506836,2|2,1:3|0:0,0:0:0:0:
284,208,210129,1,2,0:0:0:0:
276,316,210242,2,0,P|148:308|28:356,1,225,2|0,1:3|0:0,0:0:0:0:
96,224,210693,2,0,P|192:208|208:136,1,150,0|0,1:0|0:0,0:0:0:0:
464,64,211144,6,0,L|448:156,1,75,0|0,1:0|0:0,0:0:0:0:
360,284,211370,2,0,P|324:280|268:300,1,75,2|2,0:3|0:0,0:0:0:0:
216,336,211595,2,0,B|176:308|176:308|164:276|164:276|120:232,1,112.5,2|0,1:3|0:0,0:0:0:0:
80,208,211821,2,0,L|152:128,1,75,8|0,0:3|0:0,0:0:0:0:
272,56,212046,2,0,P|360:128|412:40,1,225,2|0,1:3|3:0,0:0:0:0:
216,144,212497,2,0,P|180:240|172:304,1,150,0|2,1:0|0:0,0:0:0:0:
173,286,212836,1,2,0:0:0:0:
112,160,212948,6,0,L|80:4,1,150,0|2,1:0|0:3,0:0:0:0:
248,284,213400,2,0,P|312:244|376:284,1,150,0|2,1:0|0:0,0:0:0:0:
312,316,213738,1,2,0:0:0:0:
240,192,213851,2,0,B|220:148|148:136|148:136|76:148|44:220,1,225,0|0,1:0|3:0,0:0:0:0:
296,312,214302,2,0,B|336:248|336:248|320:168|320:168|372:80,1,225,2|0,1:3|0:0,0:0:0:0:
354,109,214753,6,0,L|424:80,1,75,2|0,1:3|0:0,0:0:0:0:
176,224,214979,2,0,L|152:260,1,37.5,2|2,0:0|0:0,0:0:0:0:
416,240,215204,2,0,L|504:252,1,75,2|2,0:3|0:3,0:0:0:0:
308,108,215430,2,0,P|232:96|156:120,1,150,4|2,0:3|0:3,0:0:0:0:
80,336,215768,2,0,L|124:308,1,37.5,2|2,0:0|0:0,0:0:0:0:
128,296,215881,1,0,1:0:0:0:
432,48,216106,2,0,L|400:96,1,37.5,8|0,1:1|0:0,0:0:0:0:
288,168,216332,2,0,B|304:192|304:192|288:208|288:208|300:228,1,75,2|2,0:0|0:0,0:0:0:0:
188,152,216558,6,0,P|100:88|40:184,1,225,0|0,1:0|0:0,0:0:0:0:
112,160,217009,2,0,L|96:8,1,150,8|2,1:1|0:0,0:0:0:0:
112,160,217347,1,8,0:2:0:0:
112,160,217460,2,0,B|124:212|124:212|112:260|112:260|124:328,1,150,0|2,1:0|0:0,0:0:0:0:
121,306,217798,1,0,0:0:0:0:
216,276,217911,2,0,P|276:200|360:280,1,225,8|2,1:0|0:0,0:0:0:0:
208,104,218362,6,0,P|128:172|52:88,1,225,2|0,1:3|0:0,0:0:0:0:
208,288,218813,2,0,B|260:264|260:264|296:232|296:232|360:208,1,150,2|2,1:3|0:0,0:0:0:0:
337,216,219152,1,0,0:0:0:0:
232,124,219264,2,0,P|176:168|136:160,1,112.5,2|0,1:3|0:0,0:0:0:0:
168,96,219490,2,0,L|200:208,1,75,2|0,0:3|0:0,0:0:0:0:
192,280,219715,2,0,L|264:344,1,80,8|0,1:0|0:0,0:0:0:0:
336,312,219941,2,0,L|372:244,1,75,0|0,1:0|0:0,0:0:0:0:
424,80,220167,6,0,P|320:112|192:88,1,225,0|0,1:0|0:0,0:0:0:0:
208,184,220618,2,0,L|236:344,1,150,8|2,1:0|0:3,0:0:0:0:
233,331,220956,1,8,0:2:0:0:
208,184,221069,2,0,P|180:136|116:124,1,112.5,0|0,1:0|0:0,0:0:0:0:
132,196,221294,2,0,L|156:280,1,75,2|0,0:0|0:0,0:0:0:0:
224,352,221520,6,0,P|296:272|364:364,1,225,2|0,1:3|0:0,0:0:0:0:
296,344,221971,2,0,L|268:192,1,150,2|0,1:3|0:0,0:0:0:0:
200,96,222309,1,0,0:0:0:0:
200,96,222422,2,0,B|168:144|168:144|184:192|184:192|136:264|56:200,1,225,2|0,1:3|0:1,0:0:0:0:
216,272,222873,1,8,0:1:0:0:
264,240,222986,1,8,0:1:0:0:
312,208,223099,2,0,L|340:120,1,75,2|0,0:3|0:0,0:0:0:0:
316,56,223324,1,8,1:0:0:0:
48,56,223550,6,0,L|72:204,1,150,8|4,0:3|0:3,0:0:0:0:
136,256,223888,1,0,0:0:0:0:
136,256,224001,2,0,P|208:216|272:260,1,150,2|0,0:3|1:0,0:0:0:0:
120,152,224340,6,0,B|88:120|88:120|76:88|76:88|28:40,1,112.5,2|0,0:0|0:0,0:0:0:0:
8,120,224621,2,0,B|24:168|24:168|116:248,1,150,2|0,3:3|0:0,0:0:0:0:
172,212,224960,2,0,P|160:284|72:308,1,150,4|0,0:3|0:0,0:0:0:0:
184,224,225298,2,0,P|236:156|340:192,1,187.5,2|0,0:3|1:0,0:0:0:0:
326,174,225693,1,0,0:0:0:0:
136,136,225806,6,0,L|72:76,1,75,2|0,0:3|0:0,0:0:0:0:
96,200,226031,2,0,L|140:352,1,150,2|4,1:3|0:3,0:0:0:0:
137,344,226370,1,0,0:0:0:0:
176,88,226482,2,0,P|264:192|352:88,1,300,0|8,1:0|1:2,0:0:0:0:
76,132,227159,5,2,0:0:0:0:
92,184,227272,1,2,0:0:0:0:
104,240,227385,2,0,L|76:352,1,75,2|0,1:3|0:0,0:0:0:0:
176,304,227610,2,0,P|216:232|292:216,1,150,2|0,0:3|1:0,0:0:0:0:
168,160,227949,1,0,3:0:0:0:
168,160,228061,1,0,0:0:0:0:
280,312,228174,1,0,0:0:0:0:
280,312,228287,2,0,P|320:320|360:304,1,75,0|0,1:0|0:0,0:0:0:0:
400,176,228512,6,0,B|392:128|392:128|400:72|400:72|388:16,1,150,2|0,3:0|0:0,0:0:0:0:
472,152,228851,2,0,P|448:240|392:252,1,150,2|0,3:0|0:0,0:0:0:0:
224,164,229189,2,0,P|144:152|100:232,1,150,0|2,1:0|0:3,0:0:0:0:
176,224,229527,1,0,0:0:0:0:
176,224,229640,2,0,L|124:72,1,150,2|4,1:3|0:3,0:0:0:0:
368,56,230994,6,0,P|292:108|328:28,1,225,2|0,1:3|0:0,0:0:0:0:
328,72,231445,2,0,B|292:176|292:176|248:212,1,150,8|8,1:2|0:3,0:0:0:0:
176,160,231783,1,2,0:0:0:0:
176,160,231896,2,0,P|88:152|68:84,1,150,2|4,1:3|0:3,0:0:0:0:
232,320,232234,5,0,0:0:0:0:
232,320,232347,2,0,L|252:244,1,75,0|0,1:0|0:3,0:0:0:0:
304,176,232573,2,0,B|280:100|280:100|200:92,1,150,4|2,0:3|1:3,0:0:0:0:
148,268,232911,2,0,P|200:240|276:292,1,150,0|2,0:3|0:3,0:3:0:0:
352,352,233249,2,0,L|404:196,1,150,2|0,1:3|0:0,0:0:0:0:
408,88,233588,6,0,P|352:96|320:80,1,75,2|0,0:3|1:0,0:0:0:0:
248,16,233813,1,2,0:3:0:0:
248,16,233926,2,0,B|224:56|224:56|240:80|240:80|208:112|236:172,1,150,2|8,0:3|1:2,0:0:0:0:
356,232,234264,1,0,0:0:0:0:
356,232,234377,2,0,L|276:192,1,75,8|0,0:2|0:0,0:0:0:0:
176,224,234603,2,0,B|148:192|148:192|136:64,2,150,2|2|0,1:3|0:0|1:0,0:0:0:0:
116,264,235167,1,8,0:3:0:0:
144,144,235279,6,0,P|204:148|244:100,1,112.5,0|2,1:0|0:3,0:0:0:0:
176,80,235505,2,0,L|120:24,1,75,0|0,1:0|0:0,0:0:0:0:
32,56,235731,2,0,B|48:96|48:96|48:212,1,150,8|2,0:3|1:3,0:0:0:0:
48,202,236069,1,0,0:0:0:0:
316,316,236182,6,0,P|288:256|304:208,1,112.5,2|0,0:0|0:0,0:0:0:0:
352,160,236407,2,0,P|288:104|212:136,1,150,2|0,1:3|0:0,0:0:0:0:
272,184,236746,2,0,B|256:208|256:208|208:216,1,75,2|8,0:3|1:2,0:0:0:0:
400,264,236971,1,0,0:0:0:0:
400,264,237084,2,0,P|432:248|480:252,1,75,0|0,3:0|0:0,0:0:0:0:
400,104,237309,5,8,0:1:0:0:
392,80,237422,1,8,0:1:0:0:
304,48,237535,2,0,L|320:128,1,75,2|0,0:3|0:0,0:0:0:0:
280,272,237761,2,0,B|256:164|256:164|224:136,1,150,8|8,0:1|1:1,0:0:0:0:
512,140,238212,6,0,P|439:204|372:116,1,225,10|0,0:3|0:0,0:0:0:0:
440,128,238663,2,0,L|432:288,2,150,4|4|4,1:3|0:3|1:3,0:0:0:0:
240,64,239227,1,0,0:0:0:0:
240,64,239340,2,0,P|192:112|112:84,1,150,8|8,0:3|1:2,0:0:0:0:
228,296,239678,2,0,B|236:184|236:184|280:152,1,150,2|0,0:1|0:0,0:0:0:0:
80,56,240016,6,0,B|100:124|48:160|48:160|28:232|112:260,1,225,2|0,1:3|0:0,0:0:0:0:
176,184,240467,2,0,P|216:152|264:152,1,75,0|0,1:0|0:0,0:0:0:0:
408,160,240693,2,0,L|452:240,1,75,4|0,0:3|0:0,0:0:0:0:
176,160,240919,2,0,L|168:68,1,75,4|0,0:3|0:0,0:0:0:0:
304,296,241144,6,0,L|252:320,1,37.5,2|0,0:1|0:0,0:0:0:0:
368,64,241370,2,0,L|428:40,1,37.5,2|0,1:0|0:0,0:0:0:0:
176,328,241595,2,0,L|180:268,1,37.5,2|0,0:1|0:0,0:0:0:0:
288,160,241821,2,0,P|368:184|440:148,1,150,0|0,1:0|0:0,0:0:0:0:
280,144,242159,1,0,0:0:0:0:
280,144,242272,2,0,P|228:120|168:152,1,112.5,2|2,1:3|0:3,0:0:0:0:
228,192,242497,2,0,L|216:272,1,75
232,344,242723,6,0,L|400:296,1,150,0|2,1:0|0:3,0:0:0:0:
336,144,243061,1,0,0:0:0:0:
336,144,243174,2,0,L|364:64,1,75,0|0,1:0|0:3,0:0:0:0:
88,256,243513,1,0,0:0:0:0:
88,256,243625,2,0,L|184:104,1,150,0|0,1:0|0:0,0:0:0:0:
424,96,244076,6,0,L|408:248,1,150,8|2,1:2|0:3,0:0:0:0:
336,364,244415,1,0,0:0:0:0:
336,364,244528,2,0,L|312:208,1,150,2|0,1:3|0:0,0:0:0:0:
136,48,244979,2,0,L|152:108,1,37.5,10|0,1:0|0:0,0:0:0:0:
216,308,245204,2,0,L|216:248,1,37.5,0|0,1:0|0:0,0:0:0:0:
296,120,245430,2,0,P|368:52|432:136,1,225,2|0,1:3|0:0,0:0:0:0:
336,248,245881,2,0,P|368:272|372:232,1,75,2|0,1:3|0:3,0:0:0:0:
264,220,246106,1,0,0:0:0:0:
96,80,246332,6,0,B|128:132|80:184|80:184|132:240|100:292,1,225,2|4,1:0|0:3,0:0:0:0:
36,120,246783,2,0,P|4:192|44:256,1,150,2|0,1:0|0:0,0:0:0:0:
176,144,247122,1,0,0:0:0:0:
176,144,247234,2,0,B|252:136|252:136|316:104|316:104|412:96,1,225,2|0,1:0|0:0,0:0:0:0:
256,136,247685,2,0,B|248:64|248:64|240:64|240:64|248:64|248:64|240:-8,2,150,8|4|8,0:3|0:3|0:3,0:0:0:0:
128,272,248362,6,0,B|112:288|112:288|116:312|116:312|84:340,1,75,2|0,0:0|0:0,0:0:0:0:
272,332,248588,2,0,L|320:160,1,150,0|2,1:0|0:3,0:0:0:0:
148,52,248926,1,0,0:0:0:0:
148,52,249039,2,0,P|240:112|296:24,1,225,0|0,1:0|0:0,0:0:0:0:
220,36,249490,2,0,L|244:204,1,150,2|0,1:3|0:0,0:0:0:0:
344,304,249828,5,0,0:0:0:0:
344,304,249941,2,0,L|396:212,1,75,0|0,1:0|0:0,0:0:0:0:
160,344,250167,2,0,L|188:320,1,37.5,2|0,0:3|0:0,0:0:0:0:
144,156,250392,2,0,P|184:156|232:120,1,75,2|0,1:3|0:0,0:0:0:0:
96,352,250618,2,0,L|104:300,1,37.5
160,72,250843,6,0,P|272:80|280:188,1,225,0|0,1:0|0:0,0:0:0:0:
344,336,251294,2,0,B|364:284|364:284|368:232|368:232|392:168,1,150,0|2,1:0|0:3,0:0:0:0:
184,168,251633,5,0,0:0:0:0:
184,168,251746,2,0,L|224:252,1,75,8|8,0:1|0:1,0:0:0:0:
256,304,251971,1,0,3:0:0:0:
144,96,252084,2,0,L|100:16,1,75,0|8,0:0|0:1,0:0:0:0:
296,372,252422,2,0,P|336:304|288:232,1,150,8|0,1:0|1:0,0:0:0:0:
240,224,252761,5,0,0:0:0:0:
200,304,252873,1,2,0:0:0:0:
120,328,252986,1,2,0:0:0:0:
40,280,253099,1,0,1:0:0:0:
40,192,253212,1,2,0:0:0:0:
96,128,253325,1,2,0:0:0:0:
128,232,253437,2,0,L|216:84,1,150,2|2,0:0|0:0,0:0:0:0:
272,160,253776,5,2,0:0:0:0:
272,240,253888,1,2,0:0:0:0:
180,200,254001,2,0,P|116:212|68:252,1,112.5,0|0,1:0|0:0,0:0:0:0:
32,300,254227,2,0,L|-8:316,3,37.5
120,328,254452,2,0,B|164:288|204:356|276:312,1,150,2|0,1:3|0:0,0:0:0:0:
344,336,254791,6,0,L|376:256,1,75,2|0,0:3|1:0,0:0:0:0:
380,172,255016,2,0,P|336:192|264:160,1,112.5,0|0,0:0|0:1,0:0:0:0:
224,112,255242,2,2,L|168:92,3,37.5
200,184,255467,2,0,L|176:264,1,75,2|8,0:0|0:0,0:0:0:0:
276,320,255693,5,0,0:0:0:0:
396,280,255806,2,0,L|380:168,1,112.5,8|0,1:2|0:0,0:0:0:0:
328,112,256031,2,2,P|292:92|272:72,2,37.5
288,176,256257,1,0,1:0:0:0:
112,256,256370,1,0,0:0:0:0:
104,216,256482,1,2,0:0:0:0:
168,56,256595,1,0,0:0:0:0:
208,40,256708,1,8,1:2:0:0:
280,256,256821,1,0,0:0:0:0:
256,288,256934,1,2,0:0:0:0:
40,152,257046,1,2,0:0:0:0:
56,112,257159,1,0,1:0:0:0:
184,344,257272,1,0,0:0:0:0:
144,344,257385,1,2,0:0:0:0:
248,96,257498,5,2,0:0:0:0:
296,80,257610,2,0,L|384:72,1,75,8|0,1:2|0:0,0:0:0:0:
432,120,257836,5,2,0:1:0:0:
408,240,257949,1,2,0:1:0:0:
376,368,258061,2,0,B|320:344|320:344|296:312|296:312|224:272,1,150,2|8,1:1|0:0,0:0:0:0:
116,320,258400,6,0,B|176:288|148:224|216:192,1,150,2|0,1:0|0:0,0:0:0:0:
92,148,258738,6,0,P|160:128|176:32,1,150,0|4,1:0|1:0,0:0:0:0:
104,64,259076,1,4,0:1:0:0:
224,336,259189,1,2,0:0:0:0:
228,344,259246,1,2,0:0:0:0:
232,352,259302,1,2,0:0:0:0:
236,360,259358,1,2,0:0:0:0:
240,368,259415,2,0,L|284:256,1,112.5,8|0,0:1|0:0,0:0:0:0:
352,208,259640,2,2,L|396:192,2,37.5
280,168,259866,6,0,L|192:144,1,75,2|0,0:0|0:0,0:0:0:0:
400,320,260092,1,2,0:0:0:0:
272,72,260204,1,0,0:0:0:0:
304,56,260317,1,2,0:0:0:0:
288,320,260430,1,0,0:0:0:0:
248,304,260543,1,2,0:0:0:0:
128,120,260655,1,0,0:0:0:0:
112,96,260768,1,2,0:0:0:0:
160,224,260881,1,2,0:0:0:0:
152,336,260994,1,2,0:0:0:0:
184,344,261107,1,0,0:0:0:0:
320,248,261219,6,0,P|340:220|336:256,1,75,2|0,0:0|0:0,0:0:0:0:
272,156,261445,2,0,L|264:96,3,37.5
200,56,261670,2,0,L|160:216,1,150,2|0,0:0|0:0,0:0:0:0:
200,320,262009,2,0,P|264:248|320:344,1,225,2|0,0:0|0:0,0:0:0:0:
326,327,262404,2,0,L|352:285,3,37.5
344,112,262686,2,0,L|436:88,1,75,2|0,0:0|0:0,0:0:0:0:
104,64,263024,5,2,0:0:0:0:
72,192,263193,1,2,0:0:0:0:
48,288,263306,1,2,0:0:0:0:
208,320,263475,2,0,L|196:164,1,150,2|0,0:0|0:0,0:0:0:0:
288,48,263813,2,0,B|320:88|392:56|436:104,1,150,2|0,0:0|0:0,0:0:0:0:
328,184,264152,1,2,0:0:0:0:
160,80,264264,1,0,0:0:0:0:
144,112,264377,1,2,0:0:0:0:
168,248,264490,1,0,0:0:0:0:
192,272,264603,1,2,0:0:0:0:
444,212,264828,6,0,B|412:168|412:168|396:116|396:116|360:60,1,150,0|2,0:0|0:1,0:0:0:0:
384,272,265167,2,0,L|424:364,1,75,2|0,0:1|0:0,0:0:0:0:
152,160,265505,1,2,0:1:0:0:
120,176,265618,1,2,0:1:0:0:
328,320,265843,5,0,0:0:0:0:
336,288,265956,1,2,0:0:0:0:
328,112,266182,2,0,L|384:52,1,75,8|8,0:1|0:1,0:0:0:0:
232,260,266407,2,0,L|196:348,1,75
203,329,266633,1,8,0:1:0:0:
128,92,266858,2,0,P|200:136|232:80,1,150
376,184,267310,5,0,0:0:0:0:
112,216,267535,1,0,0:0:0:0:
104,248,267648,2,0,B|160:272|160:272|192:248|192:248|260:296|336:224,1,225
88,336,268212,1,0,0:0:0:0:
248,192,268325,1,0,0:0:0:0:
264,160,268437,1,0,0:0:0:0:
400,96,268550,1,0,0:0:0:0:
416,128,268663,1,0,0:0:0:0:
360,272,268889,2,0,P|320:328|296:272,1,150
128,112,269340,1,0,0:0:0:0:
112,144,269452,1,0,0:0:0:0:
212,336,269791,6,0,B|252:296|180:216|232:168,1,150
320,56,270129,1,0,0:0:0:0:
336,88,270242,1,0,0:0:0:0:
300,320,270355,1,0,0:0:0:0:
300,320,270467,2,0,P|260:264|168:268,1,150
344,208,270806,2,0,B|348:176|348:176|364:180|364:180|368:128,1,75
136,48,271144,1,0,0:0:0:0:
104,64,271257,1,0,0:0:0:0:
184,336,271595,6,0,P|240:288|320:344,1,150
144,224,271934,1,0,0:0:0:0:
160,192,272046,1,0,0:0:0:0:
40,120,272159,1,0,0:0:0:0:
56,152,272272,1,0,0:0:0:0:
172,348,272498,2,0,L|256:328,1,75
256,256,272723,2,0,P|316:308|288:392,1,150
80,320,273061,2,0,B|40:296|40:296|0:188,1,150
88,80,273400,6,0,P|164:96|208:28,1,150
136,24,273738,1,0,0:0:0:0:
136,24,273851,2,0,L|156:104,1,75
208,264,274077,2,0,B|236:212|236:212|244:168|244:168|280:104,1,150
56,224,274528,2,0,L|96:372,1,150
176,320,274866,2,0,B|192:296|192:296|224:296|224:296|240:208|352:304|380:184,1,225
184,148,275430,5,0,0:0:0:0:
184,148,275543,2,0,L|176:232,1,75
276,160,275768,1,0,0:0:0:0:
276,160,275881,2,0,L|296:80,1,75
208,64,276107,2,0,B|128:56|128:56|148:112,1,112.5
240,232,276332,2,0,P|328:224|352:184,1,112.5
336,232,276558,2,0,L|356:132,1,75
148,180,277009,6,0,L|196:332,1,150
276,252,277347,1,0,0:0:0:0:
276,252,277460,2,0,P|308:216|360:216,1,75
344,284,277686,2,0,P|404:228|384:152,1,150
168,284,278137,2,0,P|116:240|120:180,1,112.5
184,212,278362,1,0,0:0:0:0:
184,212,278475,2,0,B|284:140|284:140|216:148,1,187.5
232,204,278813,2,0,P|288:256|372:216,1,150
88,168,279152,5,0,0:0:0:0:
88,168,279265,2,0,L|104:264,1,75
180,324,279490,2,0,P|208:236|252:224,1,112.5
252,300,279716,2,0,L|408:312,2,150
176,352,280280,2,0,L|168:200,1,150
108,288,280618,5,8,0:1:0:0:
108,288,280731,2,0,L|136:208,1,75,8|4,0:1|0:1,0:0:0:0:
296,204,280956,1,0,0:0:0:0:
296,204,281069,2,0,L|296:116,1,75,12|0,0:1|0:0,0:0:0:0:
224,228,281295,6,0,P|300:280|368:212,2,150,4|8|0,1:3|0:3|0:0,0:0:0:0:
152,140,281859,2,0,L|144:240,1,75,0|0,0:0|1:0,0:0:0:0:
184,300,282084,1,4,0:1:0:0:
184,300,282197,2,0,P|252:276|304:312,1,112.5
240,348,282422,2,0,L|224:180,1,150,4|2,1:0|0:3,0:0:0:0:
128,200,282761,5,4,0:1:0:0:
128,200,282874,2,0,L|172:76,1,75,4|4,0:1|0:1,0:0:0:0:
224,240,283099,2,0,B|176:340|176:340|168:272,1,150,4|4,0:1|1:0,0:0:0:0:
276,144,283437,5,0,0:1:0:0:
276,144,283550,2,0,P|332:152|376:104,1,112.5,4|0,0:1|0:0,0:0:0:0:
308,80,283776,2,0,L|328:156,1,75,0|4,1:0|0:1,0:0:0:0:
384,228,284001,2,0,P|332:268|308:356,2,150,4|4|4,0:3|0:1|0:3,0:0:0:0:
184,256,284565,5,0,0:0:0:0:
184,256,284678,2,0,L|148:176,1,75,4|0,0:1|0:0,0:0:0:0:
144,88,284904,2,0,P|224:104|264:72,1,112.5,4|0,0:1|0:0,0:0:0:0:
300,32,285129,2,0,L|392:68,1,75,4|0,1:0|0:0,0:0:0:0:
320,136,285355,2,0,L|464:200,1,150,4|0,0:1|1:0,0:0:0:0:
264,72,285693,5,4,0:1:0:0:
264,72,285806,2,0,P|200:120|124:104,2,150,0|4|2,0:0|1:0|0:3,0:0:0:0:
220,192,286370,1,0,0:0:0:0:
220,216,286483,1,4,0:1:0:0:
284,296,286595,1,0,0:0:0:0:
284,296,286708,2,0,B|312:212|312:212|352:180,1,112.5,4|0,0:1|0:0,0:0:0:0:
292,128,286934,2,0,P|216:152|172:112,1,112.5,4|0,1:0|0:0,0:0:0:0:
236,80,287159,2,0,P|336:68|360:156,1,194.999991073609,2|0,0:3|1:0,0:0:0:0:
196,180,287498,6,0,B|164:280|164:280|176:332,1,150,4|0,0:1|0:0,0:0:0:0:
248,280,287836,2,0,L|296:120,1,150,4|0,1:1|0:0,0:0:0:0:
376,112,288174,1,4,0:1:0:0:
376,112,288287,2,0,L|464:104,1,75,8|4,0:1|0:1,0:0:0:0:
256,168,288513,6,0,P|188:216|128:200,1,150,4|4,0:1|1:0,0:0:0:0:
56,244,288851,1,0,0:0:0:0:
56,244,288964,2,0,B|116:332|116:332|176:344,1,150,4|8,0:1|1:2,0:0:0:0:
56,244,289302,2,0,L|56:76,1,150,4|0,0:1|0:0,0:0:0:0:
152,80,289640,2,0,P|208:108|292:48,1,150,4|4,1:0|0:1,0:0:0:0:
140,208,289979,5,4,0:1:0:0:
240,276,290092,2,0,P|280:276|320:240,1,75,0|4,1:0|0:1,0:0:0:0:
160,176,290317,2,0,P|104:172|56:224,1,112.5
128,244,290543,2,0,B|152:316|152:316|184:348,1,112.5,4|0,1:0|0:0,0:0:0:0:
240,276,290768,2,0,P|300:240|372:280,1,150,4|0,0:1|1:0,0:0:0:0:
176,120,291219,6,0,P|104:156|32:104,1,150,4|0,0:1|1:0,0:0:0:0:
112,256,291558,1,4,0:1:0:0:
112,256,291671,2,0,L|252:232,1,112.5
280,272,291896,2,0,P|316:228|280:140,1,150,0|0,1:0|0:0,0:0:0:0:
244,204,292234,1,4,0:1:0:0:
244,204,292347,2,0,L|384:200,1,112.5,4|0,1:0|0:0,0:0:0:0:
364,300,292573,2,0,L|492:192,1,150,4|0,0:1|1:0,0:0:0:0:
244,204,292911,6,0,P|168:188|116:256,1,150,4|0,0:1|0:0,0:0:0:0:
192,260,293250,2,0,L|152:100,1,150,4|0,1:0|0:0,0:0:0:0:
200,272,293588,1,4,0:1:0:0:
208,284,293701,1,4,0:1:0:0:
216,296,293813,1,4,0:1:0:0:
224,312,293926,2,4,P|280:324|320:280,1,112.5,4|4,0:1|0:1,0:1:0:0:
276,224,294152,6,0,P|320:180|392:184,1,112.5,0|0,1:0|0:0,0:0:0:0:
444,204,294377,2,0,P|460:280|432:336,1,112.5,4|0,0:1|0:0,0:0:0:0:
380,348,294603,2,0,P|324:340|276:280,1,112.5,4|0,1:1|0:0,0:0:0:0:
276,224,294828,2,0,L|204:88,1,150,4|8,0:1|0:1,0:0:0:0:
112,88,295167,1,8,0:1:0:0:
100,104,295280,1,0,0:0:0:0:
104,192,295392,1,0,0:0:0:0:
116,208,295505,2,0,P|156:224|204:220,1,75,8|0,0:1|0:0,0:0:0:0:
392,204,295731,2,0,P|384:164|352:112,1,75,8|0,1:1|0:0,0:0:0:0:
216,88,295956,6,0,P|196:176|176:92,1,225.000008583069,2|0,1:3|0:0,0:0:0:0:
200,132,296295,2,0,B|216:248|216:248|140:336,1,225.000008583069,8|0,1:2|0:0,0:0:0:0:
304,260,296633,2,0,B|344:116|344:116|424:52,1,225.000008583069,2|8,1:3|0:0,0:0:0:0:
272,88,296971,2,0,P|188:136|76:72,1,225.000008583069,0|0,1:0|0:0,0:0:0:0:
152,268,297310,6,0,L|344:244,1,168.750006437302,0|0,1:0|0:0,0:0:0:0:
248,176,297535,2,0,P|336:148|336:60,1,168.750006437302,0|0,1:0|0:0,0:0:0:0:
276,104,297761,6,0,P|184:128|224:248,1,225.000008583069,2|0,1:3|0:0,0:0:0:0:
152,176,298099,2,0,B|92:72|92:72|208:24,1,225.000008583069,2|0,1:3|0:0,0:0:0:0:
64,176,298438,2,0,B|120:288|120:288|84:384,1,225.000008583069,2|8,1:3|0:0,0:0:0:0:
64,176,298776,2,0,P|172:208|196:104,1,225.000008583069,0|0,1:0|0:0,0:0:0:0:
132,144,299114,6,0,L|248:320,1,168.750006437302,0|0,1:0|0:0,0:0:0:0:
184,348,299340,2,0,P|276:340|292:256,1,168.750006437302,0|0,1:0|0:0,0:0:0:0:
264,208,299565,6,0,P|216:144|308:160,1,225.000008583069,2|0,1:3|0:0,0:0:0:0:
260,160,299904,2,0,B|180:284|180:284|104:312,1,225.000008583069,0|0,1:0|0:0,0:0:0:0:
260,304,300242,2,0,L|388:96,1,225.000008583069,0|8,1:0|0:0,0:0:0:0:
264,108,300580,2,0,P|176:172|88:88,1,225.000008583069,0|0,1:0|0:0,0:0:0:0:
320,192,300919,6,0,L|372:380,1,168.750006437302,0|0,1:0|0:0,0:0:0:0:
428,284,301144,2,0,L|376:104,1,168.750006437302,0|0,1:0|0:0,0:0:0:0:
336,268,301370,6,0,P|244:248|220:356,1,225.000008583069,2|0,1:3|0:0,0:0:0:0:
280,316,301708,2,0,L|148:104,1,225.000008583069,2|0,1:3|0:0,0:0:0:0:
200,184,302047,2,0,B|244:208|244:208|424:224,1,225.000008583069,2|8,1:3|0:0,0:0:0:0:
248,128,302385,2,0,P|144:132|144:232,1,225.000008583069,0|0,1:0|0:0,0:0:0:0:
136,124,302723,6,0,B|48:48|48:48|-8:32,1,168.750006437302,0|0,1:0|0:0,0:0:0:0:
16,120,302949,2,0,L|156:240,1,168.750006437302,0|0,1:0|0:0,0:0:0:0:
144,180,303174,6,0,P|152:276|108:196,1,225.000008583069,2|0,1:3|0:0,0:0:0:0:
192,48,303513,2,0,P|248:112|328:24,1,225.000008583069,8|0,1:2|0:0,0:0:0:0:
216,132,303851,2,0,B|176:188|176:188|168:276|168:276|124:344,1,225.000008583069,0|8,1:0|0:0,0:0:0:0:
176,200,304189,2,0,B|72:160|72:160|68:32,1,225.000008583069,0|0,1:0|0:0,0:0:0:0:
228,148,304528,6,0,P|240:244|180:276,1,168.750006437302,0|0,1:0|0:0,0:0:0:0:
124,208,304753,2,0,B|92:324|92:324|48:360,1,168.750006437302,0|0,1:0|0:0,0:0:0:0:
188,292,304979,6,0,P|252:192|376:176,1,225.000008583069,2|0,1:3|0:0,0:0:0:0:
192,128,305317,2,0,P|100:152|68:48,1,225.000008583069,2|0,1:3|0:0,0:0:0:0:
132,84,305656,2,0,B|168:48|168:48|348:32,1,225.000008583069,2|0,1:3|0:0,0:0:0:0:
416,92,305994,2,0,L|444:336,1,225.000008583069,2|0,1:3|0:0,0:0:0:0:
268,228,306332,6,0,L|236:48,1,168.750006437302,0|0,1:0|0:0,0:0:0:0:
166,151,306558,2,0,L|156:320,1,168.750006437302,0|0,1:0|0:0,0:0:0:0:
244,300,306783,6,0,P|344:236|296:160,1,225.000008583069,2|8,1:3|0:0,0:0:0:0:
184,88,307122,2,0,P|304:40|404:72,1,225.000008583069,2|0,1:3|0:0,0:0:0:0:
304,188,307460,2,0,B|272:300|272:300|168:356,1,225.000008583069,0|8,1:0|0:0,0:0:0:0:
128,244,307798,2,0,L|96:-16,1,225.000008583069,0|0,1:0|0:0,0:0:0:0:
112,104,308137,6,0,L|168:272,1,168.750006437302,0|0,1:0|0:0,0:0:0:0:
116,320,308362,2,0,P|208:324|232:240,1,168.750006437302,0|0,1:0|0:0,0:0:0:0:
268,172,308588,6,0,B|292:28|292:28|244:108,1,225.000008583069,2|0,1:3|0:0,0:0:0:0:
268,172,308926,2,0,P|380:208|456:136,1,225.000008583069,2|0,1:3|0:0,0:0:0:0:
288,52,309265,2,0,P|176:52|84:120,1,225.000008583069,2|0,1:3|0:0,0:0:0:0:
200,224,309603,2,0,B|316:188|316:188|448:232,1,225.000008583069,2|0,1:3|0:0,0:0:0:0:
272,116,309941,2,0,L|36:192,2,225.000008583069,0|0|2,1:1|1:0|0:0,0:1:0:0:
372,152,311295,6,0,P|360:248|256:120,1,346.499998942566,2|0,0:0|0:0,0:0:0:0:
300,192,312197,2,0,L|304:24,1,148.499999546814,2|0,0:0|0:0,0:0:0:0:
224,96,312648,6,0,B|220:204|220:204|176:260,1,148.499999546814
280,264,313099,2,0,P|340:240|396:288,1,98.999999697876,2|0,0:0|0:0,0:0:0:0:
436,344,313550,2,0,L|476:220,1,98.999999697876,2|0,0:0|0:0,0:0:0:0:
424,156,313889,2,0,P|332:168|436:136,1,395.999998791504
272,128,314904,6,0,P|260:240|140:160,1,296.999999093628,2|0,0:0|0:0,0:0:0:0:
216,180,315693,1,0,0:0:0:0:
216,180,315806,2,0,L|300:340,1,148.499999546814,2|0,0:0|0:0,0:0:0:0:
360,344,316257,2,0,B|356:288|356:288|300:184,1,148.499999546814,2|0,0:0|0:0,0:0:0:0:
236,196,316708,2,0,P|288:132|364:152,2,148.499999546814,2|2|0,0:0|0:0|0:0,0:0:0:0:
196,332,317611,6,0,B|156:268|156:268|172:204|172:204|160:128|160:128|184:144|272:176|360:120,1,395.999998791504,2|2,0:0|0:0,0:0:0:0:
272,208,319415,6,0,P|324:256|408:152,2,197.999999395752,2|0|2,0:0|0:0|0:0,0:0:0:0:
224,120,320543,2,0,P|184:140|128:124,1,98.999999697876,0|2,0:0|0:0,0:0:0:0:
88,64,320994,1,0,0:0:0:0:
88,64,321107,2,0,P|112:120|76:216,1,148.499999546814,2|0,0:0|0:0,0:0:0:0:
184,168,321558,6,0,P|228:136|296:152,1,98.999999697876,2|0,0:0|0:0,0:0:0:0:
248,208,321896,2,0,L|296:328,1,98.999999697876,2|0,0:0|0:0,0:0:0:0:
192,280,322235,2,0,L|104:212,1,98.999999697876,2|0,0:0|0:0,0:0:0:0:
108,132,322573,2,0,P|164:140|216:112,2,98.999999697876,0|0|2,0:0|0:0|0:0,0:0:0:0:
32,68,323137,6,0,L|40:172,1,98.999999697876
88,224,323475,2,0,P|144:204|212:224,1,98.999999697876,2|0,0:0|0:0,0:0:0:0:
236,284,323814,2,0,P|304:272|332:220,2,98.999999697876,0|2|0,0:0|0:0|0:0,0:0:0:0:
288,124,324377,6,0,P|260:136|244:152,1,49.499999848938
304,196,324603,2,0,P|288:236|292:272,1,49.499999848938
380,256,324829,6,0,P|416:212|408:136,1,112.5,2|0,0:0|0:0,0:0:0:0:
344,184,325054,2,0,P|272:160|240:136,1,112.5
240,240,325280,2,0,B|168:316|168:316|112:328,2,150,2|0|0,0:0|0:0|0:0,0:0:0:0:
216,68,325956,6,0,P|280:44|340:56,1,112.5
380,112,326182,2,0,L|376:232,1,112.5,2|0,0:0|0:0,0:0:0:0:
328,288,326408,2,0,P|264:272|216:304,1,112.5,2|0,0:0|0:0,0:0:0:0:
280,344,326633,2,0,L|284:164,1,150
140,72,327084,6,0,L|172:220,1,150,2|0,0:0|0:0,0:0:0:0:
268,356,327535,2,0,L|296:192,1,150,2|0,0:0|0:0,0:0:0:0:
72,68,327986,2,0,L|88:240,1,150,2|0,0:0|0:0,0:0:0:0:
416,276,328438,6,0,P|412:164|276:188,1,262.5
352,224,328889,2,0,L|276:320,1,112.5,2|0,0:0|0:0,0:0:0:0:
188,332,329114,2,0,L|228:212,1,112.5
264,128,329340,2,0,P|200:144|156:108,1,112.5,2|0,0:0|0:0,0:0:0:0:
220,72,329565,2,0,P|272:56|324:84,1,112.5
336,160,329791,6,0,L|320:284,1,112.5,2|0,0:0|0:0,0:0:0:0:
408,216,330017,2,0,L|448:96,1,112.5
332,80,330242,2,0,P|264:104|192:80,1,150
280,208,330580,2,0,P|360:180|428:212,1,150
216,324,330919,6,0,L|188:160,1,150,2|0,0:0|0:0,0:0:0:0:
236,356,331370,1,0,0:0:0:0:
112,256,331596,1,2,0:0:0:0:
116,88,331821,1,0,0:0:0:0:
128,280,332047,2,0,P|192:284|256:208,1,150
224,140,332498,6,0,P|264:116|316:124,1,98.999999697876,2|0,0:0|0:0,0:0:0:0:
280,188,332836,2,0,L|276:292,1,98.999999697876,2|0,0:0|0:0,0:0:0:0:
208,336,333174,2,0,L|192:240,1,74.249999773407
160,176,333400,2,0,P|232:184|276:160,1,96.7500014762879,2|0,0:0|0:0,0:0:0:0:
296,104,333626,2,0,L|320:8,1,96.7500014762879,2|0,0:0|0:0,0:0:0:0:
216,64,333851,2,0,L|232:208,1,129.000001968384
168,272,334190,6,0,L|320:260,1,129.000001968384,2|0,0:0|0:0,0:0:0:0:
336,200,334528,2,0,P|372:268|336:324,1,129.000001968384
428,172,334866,2,0,L|456:40,1,129.000001968384,2|0,0:0|0:0,0:0:0:0:
440,188,335205,2,0,L|432:320,1,129.000001968384
344,344,335543,5,0,0:0:0:0:
344,344,335656,2,0,P|280:324|224:364,1,129.000001968384
216,268,335994,1,0,0:0:0:0:
216,268,336107,2,0,L|264:136,1,129.000001968384
124,152,336445,1,0,0:0:0:0:
124,152,336558,2,0,L|44:284,1,129.000001968384
132,304,336896,5,0,0:0:0:0:
144,304,337009,1,0,0:0:0:0:
152,300,337122,1,0,0:0:0:0:
160,296,337235,1,0,0:0:0:0:
168,288,337347,1,0,0:0:0:0:
176,280,337460,5,2,0:0:0:0:
192,260,337573,1,0,0:0:0:0:
208,244,337686,1,0,0:0:0:0:
228,240,337799,1,2,0:0:0:0:
252,248,337911,5,0,0:0:0:0:
272,276,338024,1,0,0:0:0:0:
292,304,338137,5,2,0:0:0:0:
336,312,338250,1,0,0:0:0:0:
376,296,338362,1,0,0:0:0:0:
412,260,338475,1,2,0:0:0:0:
424,208,338588,5,0,0:0:0:0:
420,148,338701,1,0,0:0:0:0:
384,100,338814,6,0,P|340:116|260:92,1,112.5,2|0,0:0|0:0,0:0:0:0:
208,32,339039,2,0,L|192:192,1,150,2|0,0:0|0:0,0:0:0:0:
272,276,339377,5,0,0:0:0:0:
276,268,339490,1,0,0:0:0:0:
280,260,339603,1,0,0:0:0:0:
280,252,339716,5,2,0:0:0:0:
276,236,339829,1,0,0:0:0:0:
260,228,339941,1,0,0:0:0:0:
240,232,340054,5,2,0:0:0:0:
216,236,340167,1,0,0:0:0:0:
192,240,340280,1,0,0:0:0:0:
168,236,340393,1,0,0:0:0:0:
152,228,340505,1,0,0:0:0:0:
140,216,340618,1,0,0:0:0:0:
136,200,340731,1,0,0:0:0:0:
140,176,340844,1,0,0:0:0:0:
156,156,340956,1,0,0:0:0:0:
188,140,341069,5,2,0:0:0:0:
224,140,341182,1,0,0:0:0:0:
256,152,341295,1,0,0:0:0:0:
296,176,341408,5,2,0:0:0:0:
340,168,341520,1,0,0:0:0:0:
376,144,341633,1,0,0:0:0:0:
384,192,341746,5,2,0:0:0:0:
392,232,341859,1,0,0:0:0:0:
396,276,341971,1,0,0:0:0:0:
392,312,342084,5,2,0:0:0:0:
368,340,342197,1,0,0:0:0:0:
328,332,342310,1,0,0:0:0:0:
312,304,342423,5,2,0:0:0:0:
316,276,342535,1,0,0:0:0:0:
332,260,342648,1,0,0:0:0:0:
356,260,342761,1,0,0:0:0:0:
368,264,342874,5,2,0:0:0:0:
380,264,342987,1,0,0:0:0:0:
392,260,343099,1,0,0:0:0:0:
400,252,343212,1,0,0:0:0:0:
412,240,343325,1,2,0:0:0:0:
420,228,343438,1,0,0:0:0:0:
428,216,343550,1,0,0:0:0:0:
432,196,343663,1,2,0:0:0:0:
428,176,343776,1,0,0:0:0:0:
420,168,343889,1,0,0:0:0:0:
408,152,344002,1,2,0:0:0:0:
400,144,344114,1,0,0:0:0:0:
384,128,344227,1,0,0:0:0:0:
352,120,344340,1,0,0:0:0:0:
320,132,344453,1,2,0:0:0:0:
300,172,344565,1,0,0:0:0:0:
296,192,344678,5,2,0:0:0:0:
284,208,344791,1,0,0:0:0:0:
264,220,344904,1,0,0:0:0:0:
244,228,345017,1,0,0:0:0:0:
212,224,345129,1,2,0:0:0:0:
184,204,345242,1,0,0:0:0:0:
168,172,345355,1,0,0:0:0:0:
172,136,345468,1,0,0:0:0:0:
204,96,345581,1,2,0:0:0:0:
252,84,345693,1,0,0:0:0:0:
300,108,345806,1,0,0:0:0:0:
332,152,345919,1,0,0:0:0:0:
344,208,346032,1,2,0:0:0:0:
332,264,346144,1,0,0:0:0:0:
288,300,346257,1,0,0:0:0:0:
92,256,346483,6,0,B|112:204|112:204|108:148|108:148|124:96,1,150,0|0,1:0|0:0,0:0:0:0:
196,148,346821,2,0,P|248:160|336:120,1,150,8|0,1:2|0:0,0:0:0:0:
216,228,347159,2,0,L|188:352,1,112.5,2|0,1:3|0:0,0:0:0:0:
132,256,347385,2,0,P|60:260|32:352,1,150,0|0,1:0|0:0,0:0:0:0:
100,324,347723,2,0,B|216:348|216:348|264:328,1,150,0|0,1:2|0:0,0:0:0:0:
296,272,348062,1,0,0:0:0:0:
