osu file format v12

[General]
AudioFilename: Savant - Snake Eyes.mp3
AudioLeadIn: 0
PreviewTime: -1
Countdown: 0
SampleSet: Normal
StackLeniency: 0.7
Mode: 0
LetterboxInBreaks: 1
WidescreenStoryboard: 1

[Editor]
Bookmarks: 25938,50984
DistanceSpacing: 0.7
BeatDivisor: 4
GridSize: 8
TimelineZoom: 1

[Metadata]
Title:Snake Eyes
TitleUnicode:Snake Eyes
Artist:Savant
ArtistUnicode:Savant
Creator:R3b0rn
Version:stronk
Source:
Tags:Electronic
BeatmapID:364767
BeatmapSetID:147336

[Difficulty]
HPDrainRate:6
CircleSize:4
OverallDifficulty:7
ApproachRate:10
SliderMultiplier:1.4
SliderTickRate:1

[Events]
//Background and Video events
0,0,"Backgroungimage.jpg",0,0
//Break Periods
//Storyboard Layer 0 (Background)
//Storyboard Layer 1 (Fail)
//Storyboard Layer 2 (Pass)
//Storyboard Layer 3 (Foreground)
//Storyboard Sound Samples
//Background Colour Transformations
3,100,163,162,255

[TimingPoints]
2200.07197619077,275.229357798165,4,1,0,100,1,0
11000,-50,4,1,0,100,0,0
63851,-50,4,1,0,100,0,1
73071,-50,4,1,0,5,0,0
73209,-50,4,1,0,100,0,0
117108,-50,4,1,0,5,0,0
117245,-50,4,1,0,100,0,0
134310,-50,4,1,0,100,0,1
151649,-50,4,1,0,100,0,0
171053,-50,4,1,0,5,0,0
171122,-50,4,1,0,100,0,0

[HitObjects]
112,200,2200,5,0,0:0:0:0:
440,72,2337,1,0,0:0:0:0:
368,240,2750,1,0,0:0:0:0:
368,240,2888,2,0,P|352:304|288:344,1,140
232,320,3576,5,0,0:0:0:0:
128,80,3713,1,0,0:0:0:0:
288,56,3851,1,0,0:0:0:0:
320,64,3920,1,0,0:0:0:0:
344,88,3989,1,0,0:0:0:0:
440,280,4126,1,0,0:0:0:0:
168,88,4264,1,0,0:0:0:0:
312,336,4401,1,0,0:0:0:0:
256,120,4677,5,0,0:0:0:0:
424,336,4952,1,0,0:0:0:0:
96,288,5089,1,0,0:0:0:0:
216,56,5365,1,0,0:0:0:0:
224,328,5778,1,0,0:0:0:0:
312,48,5915,1,0,0:0:0:0:
128,64,6053,1,0,0:0:0:0:
104,88,6122,1,0,0:0:0:0:
88,120,6190,1,0,0:0:0:0:
176,136,6328,5,0,0:0:0:0:
464,256,6466,1,0,0:0:0:0:
80,320,6603,2,0,P|72:280|152:272,1,140
408,216,7154,1,0,0:0:0:0:
216,32,7291,2,0,P|144:32|176:96,1,140
104,112,7979,5,0,0:0:0:0:
152,320,8117,1,0,0:0:0:0:
360,304,8255,1,0,0:0:0:0:
400,288,8323,1,0,0:0:0:0:
432,256,8392,1,0,0:0:0:0:
248,304,8530,1,0,0:0:0:0:
456,160,8667,1,0,0:0:0:0:
304,56,8805,6,0,P|232:80|280:120,1,140
80,96,9356,1,0,0:0:0:0:
80,296,9493,2,0,P|160:256|136:224,1,140
408,296,10044,1,0,0:0:0:0:
192,64,10319,1,0,0:0:0:0:
216,96,10388,1,0,0:0:0:0:
192,128,10456,1,0,0:0:0:0:
336,96,10594,1,0,0:0:0:0:
312,336,10732,1,0,0:0:0:0:
112,232,11007,6,0,B|184:96|272:344|360:96,1,280
352,272,11557,1,0,0:0:0:0:
136,112,11695,1,0,0:0:0:0:
360,104,11970,2,0,B|304:288|200:0|168:304,1,280
416,200,12383,5,0,0:0:0:0:
64,144,12521,1,0,0:0:0:0:
152,304,12658,1,0,0:0:0:0:
184,304,12727,1,0,0:0:0:0:
216,304,12796,1,0,0:0:0:0:
368,328,12934,1,0,0:0:0:0:
104,64,13071,1,0,0:0:0:0:
320,80,13209,6,0,B|376:200|144:160|200:336,2,280
432,80,13897,1,0,0:0:0:0:
144,144,14172,1,0,0:0:0:0:
248,104,14585,1,0,0:0:0:0:
400,328,14723,1,0,0:0:0:0:
176,296,14860,1,0,0:0:0:0:
160,264,14929,1,0,0:0:0:0:
152,232,14998,1,0,0:0:0:0:
352,64,15135,1,0,0:0:0:0:
272,328,15273,1,0,0:0:0:0:
160,96,15411,6,0,B|352:88|176:248|392:264,2,280
400,104,16099,1,0,0:0:0:0:
104,144,16236,1,0,0:0:0:0:
392,296,16374,1,0,0:0:0:0:
120,312,16511,5,0,0:0:0:0:
424,232,16787,1,0,0:0:0:0:
216,40,17062,1,0,0:0:0:0:
432,168,17200,1,0,0:0:0:0:
192,224,17337,1,0,0:0:0:0:
416,352,17475,1,0,0:0:0:0:
416,80,17612,5,0,0:0:0:0:
160,144,17888,1,0,0:0:0:0:
296,344,18163,1,0,0:0:0:0:
56,344,18300,1,0,0:0:0:0:
64,104,18438,1,0,0:0:0:0:
296,112,18576,1,0,0:0:0:0:
448,208,18713,6,0,P|408:56|264:40,1,280
344,200,19264,1,0,0:0:0:0:
104,288,19401,1,0,0:0:0:0:
400,304,19539,1,0,0:0:0:0:
216,160,19677,1,0,0:0:0:0:
240,64,19814,5,0,0:0:0:0:
208,64,19883,1,0,0:0:0:0:
176,72,19952,1,0,0:0:0:0:
152,88,20021,1,0,0:0:0:0:
128,112,20089,1,0,0:0:0:0:
112,144,20158,1,0,0:0:0:0:
112,176,20227,1,0,0:0:0:0:
72,320,20365,5,0,0:0:0:0:
440,288,20502,1,0,0:0:0:0:
240,64,20778,1,0,0:0:0:0:
112,320,21190,1,0,0:0:0:0:
416,192,21328,1,0,0:0:0:0:
192,168,21466,1,0,0:0:0:0:
160,144,21534,1,0,0:0:0:0:
128,120,21603,1,0,0:0:0:0:
344,56,21741,6,0,P|432:88|456:160,1,140
368,152,22016,2,0,B|192:160|320:-8|88:48,1,280
88,152,22567,1,0,0:0:0:0:
192,344,22704,1,0,0:0:0:0:
464,192,22979,1,0,0:0:0:0:
272,320,23392,5,0,0:0:0:0:
296,56,23530,1,0,0:0:0:0:
112,296,23667,2,0,P|88:272|104:240,1,70
128,232,23805,1,0,0:0:0:0:
368,304,23943,1,0,0:0:0:0:
160,96,24080,1,0,0:0:0:0:
448,240,24218,6,0,P|416:136|264:144,1,280
64,104,24768,1,0,0:0:0:0:
192,336,24906,1,0,0:0:0:0:
240,104,25181,1,0,0:0:0:0:
400,72,25594,5,0,0:0:0:0:
160,256,25732,1,0,0:0:0:0:
344,312,25869,1,0,0:0:0:0:
376,296,25938,1,0,0:0:0:0:
400,264,26007,1,0,0:0:0:0:
168,144,26145,2,0,L|296:56,1,140
112,312,26420,5,0,0:0:0:0:
424,160,26695,1,0,0:0:0:0:
88,40,26970,1,0,0:0:0:0:
384,248,27108,1,0,0:0:0:0:
72,160,27383,6,0,P|80:280|224:344,1,280
296,208,27934,1,0,0:0:0:0:
320,240,28002,1,0,0:0:0:0:
328,280,28071,1,0,0:0:0:0:
312,104,28209,1,0,0:0:0:0:
152,312,28346,1,0,0:0:0:0:
176,80,28622,6,0,L|80:208,2,140
256,336,29172,1,0,0:0:0:0:
256,48,29310,1,0,0:0:0:0:
88,192,29447,1,0,0:0:0:0:
424,192,29585,1,0,0:0:0:0:
160,336,29723,1,0,0:0:0:0:
0,144,29998,1,0,0:0:0:0:
96,56,30135,5,0,0:0:0:0:
112,88,30204,1,0,0:0:0:0:
128,120,30273,1,0,0:0:0:0:
144,152,30342,1,0,0:0:0:0:
160,184,30411,1,0,0:0:0:0:
176,208,30479,1,0,0:0:0:0:
192,240,30548,1,0,0:0:0:0:
224,32,30686,6,0,L|320:144,1,140
56,224,31099,1,0,0:0:0:0:
456,168,31374,1,0,0:0:0:0:
160,336,31511,1,0,0:0:0:0:
312,72,31649,1,0,0:0:0:0:
392,336,31787,1,0,0:0:0:0:
248,144,31924,1,0,0:0:0:0:
192,48,32200,1,0,0:0:0:0:
416,56,32337,5,0,0:0:0:0:
400,88,32406,1,0,0:0:0:0:
384,120,32475,1,0,0:0:0:0:
368,152,32544,1,0,0:0:0:0:
352,184,32612,1,0,0:0:0:0:
336,216,32681,1,0,0:0:0:0:
320,256,32750,1,0,0:0:0:0:
64,208,32888,5,0,0:0:0:0:
208,64,33025,2,0,B|336:184|16:184|208:336,1,280
256,336,33576,1,0,0:0:0:0:
280,112,33713,1,0,0:0:0:0:
80,296,33851,1,0,0:0:0:0:
432,224,33989,1,0,0:0:0:0:
400,328,34401,1,0,0:0:0:0:
400,128,34539,5,0,0:0:0:0:
384,168,34608,1,0,0:0:0:0:
352,200,34677,1,0,0:0:0:0:
320,224,34745,1,0,0:0:0:0:
280,248,34814,1,0,0:0:0:0:
240,256,34883,1,0,0:0:0:0:
200,248,34952,1,0,0:0:0:0:
176,56,35089,5,0,0:0:0:0:
448,224,35434,1,0,0:0:0:0:
96,192,35709,1,0,0:0:0:0:
432,344,35984,1,0,0:0:0:0:
400,64,36259,1,0,0:0:0:0:
160,320,36534,1,0,0:0:0:0:
448,224,36810,1,0,0:0:0:0:
96,192,37085,1,0,0:0:0:0:
256,64,37429,6,0,P|392:152|400:320,1,280
152,56,37979,1,0,0:0:0:0:
56,216,38255,1,0,0:0:0:0:
96,192,38323,1,0,0:0:0:0:
136,216,38392,1,0,0:0:0:0:
176,192,38461,1,0,0:0:0:0:
216,216,38530,1,0,0:0:0:0:
328,304,38805,6,0,L|160:304,1,140
320,64,39080,2,0,L|432:192,1,140
192,64,39356,2,0,L|80:200,1,140
160,312,39631,5,0,0:0:0:0:
384,144,39906,2,0,L|448:192,1,70
400,248,40044,2,0,L|328:192,1,70
112,248,40319,2,0,L|184:192,1,70
128,144,40456,2,0,L|56:200,1,70
304,56,40732,5,0,0:0:0:0:
416,336,41007,2,0,P|304:320|224:168,1,280
416,48,41489,2,0,L|464:104,1,70
200,80,41833,5,0,0:0:0:0:
448,160,42108,2,0,B|296:352|288:280|224:192,1,280
192,336,42658,1,0,0:0:0:0:
344,72,42934,1,0,0:0:0:0:
80,240,43209,2,0,B|200:16|208:80|312:168,1,280
304,304,43622,2,0,L|168:200,1,140
344,216,43897,2,0,L|464:304,1,140
256,64,44310,5,0,0:0:0:0:
216,72,44378,1,0,0:0:0:0:
184,88,44447,1,0,0:0:0:0:
152,112,44516,1,0,0:0:0:0:
128,136,44585,1,0,0:0:0:0:
112,176,44654,1,0,0:0:0:0:
128,216,44723,1,0,0:0:0:0:
160,240,44791,1,0,0:0:0:0:
208,240,44860,1,0,0:0:0:0:
248,224,44929,1,0,0:0:0:0:
288,192,44998,1,0,0:0:0:0:
424,296,45135,5,0,0:0:0:0:
96,64,45411,1,0,0:0:0:0:
448,160,45686,1,0,0:0:0:0:
360,48,45823,2,0,B|120:40|360:192|344:232|48:152|192:320,1,420
248,328,46305,1,0,0:0:0:0:
288,312,46374,1,0,0:0:0:0:
328,288,46443,1,0,0:0:0:0:
368,264,46511,1,0,0:0:0:0:
400,232,46580,1,0,0:0:0:0:
432,200,46649,1,0,0:0:0:0:
440,328,46787,5,0,0:0:0:0:
440,56,47062,1,0,0:0:0:0:
296,120,47245,1,0,0:0:0:0:
272,144,47337,1,0,0:0:0:0:
248,168,47429,1,0,0:0:0:0:
224,192,47521,1,0,0:0:0:0:
200,216,47612,1,0,0:0:0:0:
96,336,47796,1,0,0:0:0:0:
96,224,47888,1,0,0:0:0:0:
328,288,48071,5,0,0:0:0:0:
448,256,48163,1,0,0:0:0:0:
256,48,48346,1,0,0:0:0:0:
152,104,48438,2,0,P|48:160|48:184,2,140
424,80,48989,1,0,0:0:0:0:
200,240,49172,1,0,0:0:0:0:
328,312,49264,1,0,0:0:0:0:
88,80,49539,5,0,0:0:0:0:
120,96,49631,1,0,0:0:0:0:
152,112,49723,1,0,0:0:0:0:
184,128,49814,1,0,0:0:0:0:
112,216,49975,1,0,0:0:0:0:
192,328,50067,1,0,0:0:0:0:
320,56,50273,5,0,0:0:0:0:
400,168,50365,1,0,0:0:0:0:
256,192,50548,1,0,0:0:0:0:
352,280,50640,2,0,P|416:352|464:344,2,140
320,136,51099,1,0,0:0:0:0:
272,304,51190,1,0,0:0:0:0:
168,328,51466,1,0,0:0:0:0:
256,208,51649,5,0,0:0:0:0:
264,168,51741,1,0,0:0:0:0:
264,128,51833,1,0,0:0:0:0:
256,88,51924,1,0,0:0:0:0:
232,56,52016,1,0,0:0:0:0:
120,48,52177,1,0,0:0:0:0:
88,216,52268,1,0,0:0:0:0:
368,56,52475,1,0,0:0:0:0:
392,216,52567,1,0,0:0:0:0:
32,328,52842,5,0,0:0:0:0:
128,328,53117,2,0,B|144:48|392:296|408:8|408:8,1,420
120,112,53805,1,0,0:0:0:0:
272,328,53943,1,0,0:0:0:0:
256,80,54218,2,0,P|184:200|40:240,1,280
392,152,54700,2,0,L|448:104,1,70
96,32,55044,6,0,B|64:328|456:8|416:360,1,560
416,360,55732,1,0,0:0:0:0:
88,256,56007,1,0,0:0:0:0:
152,96,56420,1,0,0:0:0:0:
296,336,56557,1,0,0:0:0:0:
432,192,56695,1,0,0:0:0:0:
416,160,56764,1,0,0:0:0:0:
392,136,56833,1,0,0:0:0:0:
328,256,56970,5,0,0:0:0:0:
224,80,57108,2,0,P|144:24|88:96,1,140
144,328,57521,1,0,0:0:0:0:
280,48,57796,1,0,0:0:0:0:
56,168,57934,1,0,0:0:0:0:
424,272,58209,1,0,0:0:0:0:
104,272,58622,5,0,0:0:0:0:
304,144,58759,1,0,0:0:0:0:
448,192,58897,1,0,0:0:0:0:
424,232,58966,1,0,0:0:0:0:
376,240,59034,1,0,0:0:0:0:
456,40,59172,2,0,P|392:8|392:72,2,140
256,328,59723,5,0,0:0:0:0:
120,64,59998,1,0,0:0:0:0:
376,328,60135,1,0,0:0:0:0:
368,144,60411,1,0,0:0:0:0:
456,64,60823,2,0,P|400:8|376:56,1,140
376,36,61099,2,0,L|288:88,1,70
288,96,61236,1,0,0:0:0:0:
352,304,61374,1,0,0:0:0:0:
128,96,61511,1,0,0:0:0:0:
192,336,61649,6,0,P|112:208|216:208,1,280
32,336,62200,1,0,0:0:0:0:
400,224,62337,1,0,0:0:0:0:
184,32,62612,2,0,P|88:160|32:64,1,280
240,240,63163,1,0,0:0:0:0:
264,216,63232,1,0,0:0:0:0:
296,200,63300,1,0,0:0:0:0:
88,296,63438,1,0,0:0:0:0:
392,64,63576,1,0,0:0:0:0:
216,304,63851,6,0,B|416:184|96:216|288:88,2,280
416,248,64539,1,0,0:0:0:0:
224,48,64677,1,0,0:0:0:0:
304,336,64814,1,0,0:0:0:0:
448,56,65227,6,0,L|312:112,1,140
288,128,65434,1,0,0:0:0:0:
256,144,65502,1,0,0:0:0:0:
224,160,65571,1,0,0:0:0:0:
192,176,65640,1,0,0:0:0:0:
160,192,65709,1,0,0:0:0:0:
128,208,65778,1,0,0:0:0:0:
56,320,65915,5,0,0:0:0:0:
352,320,66053,2,0,P|376:184|472:272,1,280
192,304,66603,1,0,0:0:0:0:
192,64,66741,1,0,0:0:0:0:
440,64,66878,1,0,0:0:0:0:
440,304,67016,1,0,0:0:0:0:
56,336,67429,6,0,L|208:272,1,140
216,272,67635,1,0,0:0:0:0:
248,256,67704,1,0,0:0:0:0:
280,240,67773,1,0,0:0:0:0:
312,224,67842,1,0,0:0:0:0:
344,208,67911,1,0,0:0:0:0:
376,192,67979,1,0,0:0:0:0:
288,328,68117,5,0,0:0:0:0:
88,184,68255,2,0,B|88:0|288:224|264:-16,2,280
320,104,68943,1,0,0:0:0:0:
144,280,69080,1,0,0:0:0:0:
56,48,69218,1,0,0:0:0:0:
168,352,69631,1,0,0:0:0:0:
64,288,69768,5,0,0:0:0:0:
80,248,69837,1,0,0:0:0:0:
112,216,69906,1,0,0:0:0:0:
152,200,69975,1,0,0:0:0:0:
192,200,70044,1,0,0:0:0:0:
232,216,70112,1,0,0:0:0:0:
264,240,70181,2,0,P|232:304|288:296,2,140
144,64,70732,5,0,0:0:0:0:
312,312,71007,1,0,0:0:0:0:
312,72,71145,1,0,0:0:0:0:
472,192,71282,1,0,0:0:0:0:
200,312,71557,5,0,0:0:0:0:
200,72,71695,1,0,0:0:0:0:
40,192,71833,1,0,0:0:0:0:
344,192,71970,1,0,0:0:0:0:
160,192,72108,5,0,0:0:0:0:
136,216,72177,1,0,0:0:0:0:
120,240,72245,1,0,0:0:0:0:
256,152,72383,1,0,0:0:0:0:
408,312,72521,1,0,0:0:0:0:
184,344,72658,6,0,B|8:192|8:168|192:24,1,420
440,192,73209,1,0,0:0:0:0:
40,264,73484,1,0,0:0:0:0:
64,72,73622,1,0,0:0:0:0:
264,336,73897,5,0,0:0:0:0:
352,96,74034,1,0,0:0:0:0:
440,312,74172,1,0,0:0:0:0:
224,104,74447,1,0,0:0:0:0:
200,136,74516,1,0,0:0:0:0:
192,176,74585,1,0,0:0:0:0:
336,208,74723,1,0,0:0:0:0:
128,240,74860,6,0,P|168:320|248:320,1,140
392,144,75135,2,0,P|360:80|264:64,1,140
112,56,75411,1,0,0:0:0:0:
192,336,75686,1,0,0:0:0:0:
72,176,75823,1,0,0:0:0:0:
264,232,76099,1,0,0:0:0:0:
280,128,76236,5,0,0:0:0:0:
293,102,76328,1,0,0:0:0:0:
312,80,76420,1,0,0:0:0:0:
336,56,76511,1,0,0:0:0:0:
192,160,76649,1,0,0:0:0:0:
64,320,76924,1,0,0:0:0:0:
75,56,77062,6,0,B|391:55|405:64|412:78|412:353,1,560,0|0,0:0|0:0,0:0:0:0:
240,328,77888,1,0,0:0:0:0:
176,128,78025,1,0,0:0:0:0:
440,328,78300,1,0,0:0:0:0:
112,208,78438,1,0,0:0:0:0:
400,48,78576,1,0,0:0:0:0:
440,328,78851,1,0,0:0:0:0:
112,208,78989,1,0,0:0:0:0:
400,48,79126,1,0,0:0:0:0:
152,128,79264,6,0,P|224:112|264:40,1,140
352,256,79539,2,0,P|272:288|264:352,1,140
256,192,79814,1,0,0:0:0:0:
136,336,80089,2,0,P|64:296|112:256,1,140
256,192,80365,12,0,81190,0:0:0:0:
320,64,81466,6,0,P|256:32|192:64,1,140
192,320,81741,2,0,P|256:352|320:312,1,140
80,112,82016,1,0,0:0:0:0:
392,152,82291,2,0,L|448:216,1,70
408,320,82429,2,0,L|352:264,1,70
64,304,82704,5,0,0:0:0:0:
216,40,82842,1,0,0:0:0:0:
304,336,82979,1,0,0:0:0:0:
320,120,83255,1,0,0:0:0:0:
296,144,83323,1,0,0:0:0:0:
280,176,83392,1,0,0:0:0:0:
112,224,83530,1,0,0:0:0:0:
432,240,83667,6,0,P|480:160|424:96,1,140
128,64,83943,2,0,P|56:104|56:168,1,140
160,328,84218,1,0,0:0:0:0:
240,64,84493,1,0,0:0:0:0:
432,256,84631,1,0,0:0:0:0:
344,184,84906,1,0,0:0:0:0:
120,128,85044,2,0,L|56:184,1,70
128,232,85181,2,0,L|192:176,1,70
200,288,85319,2,0,P|128:320|64:288,2,140
32,176,85732,1,0,0:0:0:0:
296,32,85869,6,0,B|488:208|320:336|216:176|256:72|456:104|472:344,1,560
152,72,86695,1,0,0:0:0:0:
80,304,86833,1,0,0:0:0:0:
256,304,87108,1,0,0:0:0:0:
352,96,87245,1,0,0:0:0:0:
128,240,87383,1,0,0:0:0:0:
248,40,87658,1,0,0:0:0:0:
472,200,87796,1,0,0:0:0:0:
136,160,87934,1,0,0:0:0:0:
256,192,88071,12,0,89998,0:0:0:0:
96,272,90273,6,0,P|160:304|256:288,1,140
72,168,90548,1,0,0:0:0:0:
312,320,90686,1,0,0:0:0:0:
256,64,90961,1,0,0:0:0:0:
232,312,91099,1,0,0:0:0:0:
392,168,91236,6,0,P|352:104|400:32,1,140
128,216,91511,2,0,P|160:288|128:336,1,140
384,320,92062,1,0,0:0:0:0:
456,88,92200,1,0,0:0:0:0:
232,80,92475,6,0,P|184:104|80:48,1,140
280,304,92750,2,0,P|352:280|408:304,1,140
336,40,93163,1,0,0:0:0:0:
200,296,93300,1,0,0:0:0:0:
104,128,93438,2,0,P|128:208|88:264,1,140
408,128,93713,2,0,P|384:208|432:272,1,140
408,240,94264,1,0,0:0:0:0:
120,288,94401,1,0,0:0:0:0:
320,88,94677,6,0,P|232:64|184:104,1,140
192,296,94952,2,0,P|280:320|336:280,1,140
64,72,95365,1,0,0:0:0:0:
256,248,95502,1,0,0:0:0:0:
448,72,95640,1,0,0:0:0:0:
464,264,95778,2,0,P|384:296|328:272,2,140
320,88,96190,1,0,0:0:0:0:
256,336,96466,5,0,0:0:0:0:
128,192,96603,2,0,B|240:256|128:368|0:248|144:184,1,280
392,192,97154,2,0,B|288:112|384:40|512:112|392:192,1,280
176,200,97567,1,0,0:0:0:0:
360,288,97704,1,0,0:0:0:0:
152,32,97842,1,0,0:0:0:0:
320,88,97979,2,0,B|184:176|368:224|144:304,1,280
144,304,99080,6,0,P|72:232|88:152,1,140
352,96,99356,2,0,P|440:152|432:232,1,140
256,72,99631,1,0,0:0:0:0:
448,272,99768,1,0,0:0:0:0:
72,328,100044,1,0,0:0:0:0:
56,64,100319,1,0,0:0:0:0:
240,272,100456,1,0,0:0:0:0:
48,200,100732,1,0,0:0:0:0:
352,200,100869,1,0,0:0:0:0:
176,88,101282,6,0,B|344:152|152:256|384:312,1,280
352,80,101833,1,0,0:0:0:0:
112,264,101970,1,0,0:0:0:0:
408,320,102245,1,0,0:0:0:0:
176,88,102521,1,0,0:0:0:0:
448,88,102658,1,0,0:0:0:0:
304,256,102796,1,0,0:0:0:0:
72,336,103071,1,0,0:0:0:0:
56,128,103209,1,0,0:0:0:0:
376,240,103484,6,0,B|288:80|200:320|128:104,2,280
216,120,104172,1,0,0:0:0:0:
456,336,104447,1,0,0:0:0:0:
88,168,104723,1,0,0:0:0:0:
392,48,104860,1,0,0:0:0:0:
232,296,105135,1,0,0:0:0:0:
136,48,105273,1,0,0:0:0:0:
376,200,105548,1,0,0:0:0:0:
120,328,105686,5,0,0:0:0:0:
256,48,106236,1,0,0:0:0:0:
416,312,106787,1,0,0:0:0:0:
64,216,107337,1,0,0:0:0:0:
152,256,107888,6,0,B|208:96|320:288|368:104,2,280
400,296,108576,1,0,0:0:0:0:
152,112,108851,1,0,0:0:0:0:
400,64,108989,1,0,0:0:0:0:
88,184,109264,1,0,0:0:0:0:
368,184,109401,1,0,0:0:0:0:
272,288,109539,1,0,0:0:0:0:
256,304,109608,1,0,0:0:0:0:
232,312,109677,1,0,0:0:0:0:
56,320,109814,1,0,0:0:0:0:
152,112,109952,1,0,0:0:0:0:
360,56,110089,6,0,P|336:144|288:176,1,140
160,328,110365,2,0,P|176:240|232:208,1,140
216,56,110640,1,0,0:0:0:0:
368,288,110778,1,0,0:0:0:0:
144,240,111053,1,0,0:0:0:0:
432,112,111190,1,0,0:0:0:0:
240,344,111466,1,0,0:0:0:0:
312,160,111603,1,0,0:0:0:0:
432,240,111741,5,0,0:0:0:0:
448,256,111810,1,0,0:0:0:0:
456,280,111878,1,0,0:0:0:0:
272,248,112016,1,0,0:0:0:0:
248,40,112154,1,0,0:0:0:0:
432,128,112291,6,0,P|312:168|296:216,1,140
88,280,112567,2,0,P|192:232|208:192,1,140
80,80,112842,1,0,0:0:0:0:
160,344,112979,1,0,0:0:0:0:
240,72,113255,1,0,0:0:0:0:
448,144,113392,1,0,0:0:0:0:
72,152,113667,1,0,0:0:0:0:
312,328,113805,1,0,0:0:0:0:
304,112,113943,5,0,0:0:0:0:
312,96,114011,1,0,0:0:0:0:
328,80,114080,1,0,0:0:0:0:
160,88,114218,1,0,0:0:0:0:
144,296,114493,2,0,B|208:160|304:344|384:208,1,280
376,96,115044,2,0,B|288:216|200:24|128:184,1,280
120,128,115594,5,0,0:0:0:0:
440,168,115732,1,0,0:0:0:0:
248,320,115869,1,0,0:0:0:0:
272,32,116007,1,0,0:0:0:0:
336,208,116145,1,0,0:0:0:0:
320,192,116213,1,0,0:0:0:0:
296,184,116282,1,0,0:0:0:0:
176,272,116420,1,0,0:0:0:0:
80,56,116557,1,0,0:0:0:0:
312,40,116695,6,0,B|496:176|496:208|304:352,1,420
56,192,117245,1,0,0:0:0:0:
344,160,117521,2,0,P|360:192|344:224,1,70
280,192,117658,2,0,P|264:160|288:120,1,70
160,328,117934,1,0,0:0:0:0:
232,64,118071,1,0,0:0:0:0:
432,256,118209,1,0,0:0:0:0:
160,168,118484,5,0,0:0:0:0:
144,152,118553,1,0,0:0:0:0:
136,128,118622,1,0,0:0:0:0:
256,312,118759,1,0,0:0:0:0:
336,72,118897,6,0,P|416:144|416:192,1,140
120,264,119172,2,0,P|64:216|56:144,1,140
408,336,119447,1,0,0:0:0:0:
56,320,119723,1,0,0:0:0:0:
240,80,119860,1,0,0:0:0:0:
176,168,120135,6,0,P|272:192|328:160,1,140
328,160,120365,1,0,0:0:0:0:
352,144,120456,1,0,0:0:0:0:
376,128,120548,1,0,0:0:0:0:
440,336,120686,1,0,0:0:0:0:
248,160,120961,1,0,0:0:0:0:
160,352,121099,6,0,B|16:224|40:112|272:40|272:344|40:280|16:160|168:24,1,560
288,216,121924,1,0,0:0:0:0:
448,72,122062,1,0,0:0:0:0:
304,320,122337,1,0,0:0:0:0:
168,80,122475,1,0,0:0:0:0:
104,296,122612,1,0,0:0:0:0:
200,336,122888,1,0,0:0:0:0:
272,80,123025,1,0,0:0:0:0:
416,296,123163,1,0,0:0:0:0:
128,56,123300,6,0,P|128:152|72:128,1,140
448,120,123576,2,0,P|384:176|456:200,1,140
88,208,123851,1,0,0:0:0:0:
384,72,124126,1,0,0:0:0:0:
256,192,124401,12,0,125227,0:0:0:0:
176,72,125502,6,0,L|40:216,1,140
352,176,125778,2,0,L|456:64,1,140
192,320,126053,1,0,0:0:0:0:
256,128,126328,1,0,0:0:0:0:
448,288,126466,1,0,0:0:0:0:
368,64,126741,2,0,P|448:136|448:208,1,140
264,304,127016,5,0,0:0:0:0:
152,136,127291,1,0,0:0:0:0:
128,120,127360,1,0,0:0:0:0:
104,104,127429,1,0,0:0:0:0:
256,320,127567,1,0,0:0:0:0:
360,120,127704,6,0,B|184:128|328:248|152:264,2,280
88,224,128530,1,0,0:0:0:0:
368,32,128667,1,0,0:0:0:0:
384,320,128943,1,0,0:0:0:0:
64,312,129080,1,0,0:0:0:0:
320,136,129493,1,0,0:0:0:0:
64,128,129906,6,0,B|80:32|408:0|400:256|112:256|104:0|424:32|464:144,1,560
328,320,130732,1,0,0:0:0:0:
168,152,130869,1,0,0:0:0:0:
336,48,131145,1,0,0:0:0:0:
272,248,131282,1,0,0:0:0:0:
72,320,131420,1,0,0:0:0:0:
88,128,131695,1,0,0:0:0:0:
400,208,131833,1,0,0:0:0:0:
152,320,132108,5,0,0:0:0:0:
400,112,132245,1,0,0:0:0:0:
144,48,132521,1,0,0:0:0:0:
320,192,132658,1,0,0:0:0:0:
40,256,132934,1,0,0:0:0:0:
304,336,133209,1,0,0:0:0:0:
208,48,133346,1,0,0:0:0:0:
416,144,133484,1,0,0:0:0:0:
112,240,133622,1,0,0:0:0:0:
240,208,133759,5,0,0:0:0:0:
256,192,133828,1,0,0:0:0:0:
272,176,133897,1,0,0:0:0:0:
192,280,134034,1,0,0:0:0:0:
456,288,134172,1,0,0:0:0:0:
456,56,134310,6,0,B|136:24|128:32|96:352,1,560
296,320,134998,1,0,0:0:0:0:
200,112,135135,1,0,0:0:0:0:
32,288,135273,1,0,0:0:0:0:
384,344,135548,1,0,0:0:0:0:
376,96,135686,1,0,0:0:0:0:
160,272,135823,1,0,0:0:0:0:
120,136,136099,5,0,0:0:0:0:
136,120,136167,1,0,0:0:0:0:
152,104,136236,1,0,0:0:0:0:
224,240,136374,1,0,0:0:0:0:
368,64,136511,6,0,P|464:152|368:184,2,280
296,344,137200,1,0,0:0:0:0:
64,184,137337,1,0,0:0:0:0:
288,64,137475,1,0,0:0:0:0:
120,312,137750,1,0,0:0:0:0:
184,72,137888,1,0,0:0:0:0:
392,240,138025,1,0,0:0:0:0:
216,320,138300,1,0,0:0:0:0:
312,144,138576,5,0,0:0:0:0:
88,40,138713,2,0,B|-32:264|120:352|240:0|352:24|176:336|224:336|360:160|384:168|384:288,1,560
424,136,139401,1,0,0:0:0:0:
256,56,139539,1,0,0:0:0:0:
280,336,139677,1,0,0:0:0:0:
80,272,139952,1,0,0:0:0:0:
320,208,140089,1,0,0:0:0:0:
432,32,140227,1,0,0:0:0:0:
88,64,140502,1,0,0:0:0:0:
192,256,140640,1,0,0:0:0:0:
456,216,140778,1,0,0:0:0:0:
248,48,140915,6,0,P|328:40|376:104,1,140
248,336,141190,2,0,P|328:344|376:296,1,140
96,328,141466,1,0,0:0:0:0:
176,80,141603,1,0,0:0:0:0:
352,280,141741,1,0,0:0:0:0:
112,144,141878,1,0,0:0:0:0:
384,48,142016,6,0,P|312:96|304:144,1,140
128,336,142291,2,0,P|200:288|208:232,1,140
336,192,142567,1,0,0:0:0:0:
360,168,142635,1,0,0:0:0:0:
392,168,142704,1,0,0:0:0:0:
392,320,142842,1,0,0:0:0:0:
256,96,142979,1,0,0:0:0:0:
120,256,143117,6,0,B|192:152|312:320|384:184,2,280
192,56,143805,1,0,0:0:0:0:
264,336,143943,1,0,0:0:0:0:
88,120,144080,1,0,0:0:0:0:
424,64,144356,1,0,0:0:0:0:
256,192,144631,1,0,0:0:0:0:
456,264,144906,5,0,0:0:0:0:
440,288,144975,1,0,0:0:0:0:
416,304,145044,1,0,0:0:0:0:
192,272,145181,1,0,0:0:0:0:
112,136,145319,1,0,0:0:0:0:
128,112,145388,1,0,0:0:0:0:
152,104,145456,1,0,0:0:0:0:
424,112,145594,1,0,0:0:0:0:
240,56,145869,6,0,P|216:136|152:112,1,140
336,256,146145,2,0,P|264:280|272:336,1,140
192,168,146557,1,0,0:0:0:0:
424,344,146833,1,0,0:0:0:0:
104,112,147245,1,0,0:0:0:0:
368,72,147383,1,0,0:0:0:0:
440,176,147521,1,0,0:0:0:0:
440,200,147589,1,0,0:0:0:0:
440,224,147658,1,0,0:0:0:0:
320,304,147796,5,0,0:0:0:0:
80,192,148071,1,0,0:0:0:0:
416,88,148346,1,0,0:0:0:0:
416,312,148622,1,0,0:0:0:0:
224,280,148759,1,0,0:0:0:0:
312,32,149034,1,0,0:0:0:0:
112,88,149172,1,0,0:0:0:0:
40,344,149447,1,0,0:0:0:0:
200,96,149723,5,0,0:0:0:0:
256,328,149860,1,0,0:0:0:0:
392,328,150135,1,0,0:0:0:0:
432,96,150273,1,0,0:0:0:0:
256,192,150548,1,0,0:0:0:0:
256,192,150823,12,0,151649,0:0:0:0:
152,48,151924,5,0,0:0:0:0:
376,144,152062,1,0,0:0:0:0:
368,344,152200,1,0,0:0:0:0:
160,144,152475,1,0,0:0:0:0:
64,320,152612,1,0,0:0:0:0:
304,88,152888,1,0,0:0:0:0:
248,320,153025,6,0,L|136:224,1,140
376,264,153300,1,0,0:0:0:0:
152,64,153576,1,0,0:0:0:0:
400,184,153713,1,0,0:0:0:0:
160,248,153989,1,0,0:0:0:0:
360,80,154126,6,0,L|224:32,1,140,0|0,0:0|0:0,0:0:0:0:
296,144,154401,1,0,0:0:0:0:
448,336,154677,1,0,0:0:0:0:
208,312,154814,1,0,0:0:0:0:
304,24,155089,1,0,0:0:0:0:
112,56,155227,6,0,L|208:168,1,140
336,336,155640,2,0,P|304:256|440:272,1,280
72,168,156053,2,0,P|136:128|144:264,1,280
320,96,156466,5,0,0:0:0:0:
416,288,156603,1,0,0:0:0:0:
128,72,156878,1,0,0:0:0:0:
208,256,157016,1,0,0:0:0:0:
216,56,157291,1,0,0:0:0:0:
128,240,157429,6,0,L|16:368,1,140
32,168,157704,1,0,0:0:0:0:
392,64,157979,1,0,0:0:0:0:
200,152,158117,1,0,0:0:0:0:
336,336,158392,1,0,0:0:0:0:
448,240,158530,6,0,L|328:160,1,140
176,336,158805,1,0,0:0:0:0:
320,128,159080,1,0,0:0:0:0:
96,56,159218,1,0,0:0:0:0:
160,240,159493,1,0,0:0:0:0:
400,176,159631,2,0,P|376:72|248:56,1,210
32,80,160044,2,0,B|192:104|48:272|296:256,2,350
416,88,161557,5,0,0:0:0:0:
120,96,162658,1,0,0:0:0:0:
400,264,162934,1,0,0:0:0:0:
168,272,163759,1,0,0:0:0:0:
56,184,164585,1,0,0:0:0:0:
320,336,164860,1,0,0:0:0:0:
368,48,165135,1,0,0:0:0:0:
448,256,166236,1,0,0:0:0:0:
128,160,167337,1,0,0:0:0:0:
344,296,169539,6,0,B|168:216|344:176|160:88,2,280
280,64,170365,1,0,0:0:0:0:
80,264,170502,1,0,0:0:0:0:
408,104,170915,2,0,L|464:240,1,140
208,80,171374,1,0,0:0:0:0:
80,120,171466,1,0,0:0:0:0:
280,312,171649,1,0,0:0:0:0:
120,288,171741,6,0,B|192:152|288:304|360:136,2,280
136,48,172475,1,0,0:0:0:0:
288,64,172567,1,0,0:0:0:0:
408,336,172750,1,0,0:0:0:0:
424,56,173117,2,0,P|280:48|200:160,1,280
408,328,173599,2,0,P|456:304|464:256,1,70
216,328,173943,6,0,B|48:312|208:176|32:144,2,280
336,104,174768,1,0,0:0:0:0:
440,280,174952,1,0,0:0:0:0:
72,336,175319,2,0,P|144:312|160:248,1,140
296,192,175778,2,0,P|344:240|344:296,1,93.3333333333333
152,304,176007,1,0,0:0:0:0:
48,48,176145,2,0,P|0:120|32:200,1,140
256,40,176420,6,0,B|24:160|24:224|224:376|288:376|488:224|488:160|224:24,1,840
80,312,177521,1,0,0:0:0:0:
416,312,177796,1,0,0:0:0:0:
232,136,177934,1,0,0:0:0:0:
440,56,178346,5,0,0:0:0:0:
416,80,178415,1,0,0:0:0:0:
392,104,178484,1,0,0:0:0:0:
368,128,178553,1,0,0:0:0:0:
344,152,178622,1,0,0:0:0:0:
320,176,178690,1,0,0:0:0:0:
296,200,178759,1,0,0:0:0:0:
80,128,178897,1,0,0:0:0:0:
328,48,179172,1,0,0:0:0:0:
200,176,179356,5,0,0:0:0:0:
176,192,179447,1,0,0:0:0:0:
152,208,179539,1,0,0:0:0:0:
128,224,179631,1,0,0:0:0:0:
104,240,179723,1,0,0:0:0:0:
232,304,179906,1,0,0:0:0:0:
392,208,180181,5,0,0:0:0:0:
240,64,180273,1,0,0:0:0:0:
48,144,180456,1,0,0:0:0:0:
96,344,180548,1,0,0:0:0:0:
288,224,180732,1,0,0:0:0:0:
320,64,180823,2,0,P|368:32|456:80,2,140
128,72,181282,1,0,0:0:0:0:
200,272,181374,1,0,0:0:0:0:
432,200,181649,6,0,P|472:176|488:120,1,93.3333333333333
408,112,181833,2,0,P|368:136|352:192,1,93.3333333333333
200,56,182108,1,0,0:0:0:0:
80,176,182383,1,0,0:0:0:0:
280,344,182475,1,0,0:0:0:0:
328,152,182658,1,0,0:0:0:0:
160,256,182750,2,0,P|88:336|56:336,2,140
400,264,183209,1,0,0:0:0:0:
192,144,183300,1,0,0:0:0:0:
184,336,183576,1,0,0:0:0:0:
312,168,183759,5,0,0:0:0:0:
328,152,183851,1,0,0:0:0:0:
344,136,183943,1,0,0:0:0:0:
360,120,184034,1,0,0:0:0:0:
376,104,184126,1,0,0:0:0:0:
272,64,184287,1,0,0:0:0:0:
144,80,184378,1,0,0:0:0:0:
272,280,184585,1,0,0:0:0:0:
144,256,184677,1,0,0:0:0:0:
256,192,184952,12,0,186053,0:0:0:0:
176,280,186328,6,0,P|328:264|368:152,1,280
168,120,186810,2,0,P|208:80|256:80,1,70
256,192,187154,1,0,0:0:0:0:
