osu file format v14

[General]
AudioFilename: Savant - Sledgehammer.mp3
AudioLeadIn: 0
PreviewTime: -1
Countdown: 1
SampleSet: None
StackLeniency: 0.7
Mode: 1
LetterboxInBreaks: 1
WidescreenStoryboard: 0

[Editor]
DistanceSpacing: 1.2
BeatDivisor: 4
GridSize: 4
TimelineZoom: 1.3

[Metadata]
Title:Sledgehammer
TitleUnicode:Sledgehammer
Artist:Savant
ArtistUnicode:Savant
Creator:dani
Version:HAMMER
Source:
Tags:
BeatmapID:671591
BeatmapSetID:299319

[Difficulty]
HPDrainRate:7
CircleSize:5
OverallDifficulty:7
ApproachRate:0
SliderMultiplier:1.6
SliderTickRate:2

[Events]
//Background and Video events
0,0,"maxresdefault.jpg",0,0
//Break Periods
//Storyboard Layer 0 (Background)
//Storyboard Layer 1 (Fail)
//Storyboard Layer 2 (Pass)
//Storyboard Layer 3 (Foreground)
//Storyboard Sound Samples

[TimingPoints]
57765,299.9400119976,4,1,0,100,1,0
115353,599.880023995201,4,1,0,100,1,0
159144,299.9400119976,4,1,0,100,1,0

[HitObjects]
36,200,57615,5,8,0:0:0:0:
248,188,57765,5,4,0:0:0:0:
248,188,58064,1,8,0:0:0:0:
248,196,58139,1,8,0:0:0:0:
248,188,58214,1,8,0:0:0:0:
248,196,58289,1,8,0:0:0:0:
248,196,58364,1,8,0:0:0:0:
248,188,58664,1,8,0:0:0:0:
248,188,58964,1,8,0:0:0:0:
248,188,59114,1,8,0:0:0:0:
248,188,59264,1,8,0:0:0:0:
248,188,59414,1,8,0:0:0:0:
248,188,59564,1,8,0:0:0:0:
248,188,59714,1,8,0:0:0:0:
248,188,59864,1,8,0:0:0:0:
248,188,60014,1,8,0:0:0:0:
248,188,60164,1,4,0:0:0:0:
240,184,60464,1,8,0:0:0:0:
240,184,60539,1,8,0:0:0:0:
240,184,60614,1,8,0:0:0:0:
240,184,60689,1,8,0:0:0:0:
240,184,60764,1,8,0:0:0:0:
248,188,61064,1,8,0:0:0:0:
244,184,61364,1,8,0:0:0:0:
244,184,61514,1,8,0:0:0:0:
244,184,61664,1,8,0:0:0:0:
244,184,61814,1,8,0:0:0:0:
244,184,61964,1,8,0:0:0:0:
240,184,62114,1,8,0:0:0:0:
240,184,62264,1,8,0:0:0:0:
240,184,62414,1,8,0:0:0:0:
248,184,62564,1,0,0:0:0:0:
236,184,62714,1,8,0:0:0:0:
236,184,62788,1,8,0:0:0:0:
236,184,62863,1,8,0:0:0:0:
236,184,62938,1,8,0:0:0:0:
232,192,63013,1,8,0:0:0:0:
236,184,63088,1,8,0:0:0:0:
236,184,63163,1,0,0:0:0:0:
240,192,63238,1,8,0:0:0:0:
240,192,63313,1,8,0:0:0:0:
240,192,63388,1,8,0:0:0:0:
240,192,63463,1,8,0:0:0:0:
240,192,63538,1,8,0:0:0:0:
240,192,63613,1,8,0:0:0:0:
240,192,63763,1,8,0:0:0:0:
240,192,63913,1,8,0:0:0:0:
240,192,64063,1,8,0:0:0:0:
240,192,64213,1,8,0:0:0:0:
240,192,64363,1,8,0:0:0:0:
240,192,64513,1,8,0:0:0:0:
248,192,64663,1,8,0:0:0:0:
248,192,64813,1,8,0:0:0:0:
248,196,64963,1,0,0:0:0:0:
232,196,65263,1,8,0:0:0:0:
232,196,65338,1,8,0:0:0:0:
232,196,65413,1,8,0:0:0:0:
232,196,65488,1,8,0:0:0:0:
232,196,65563,1,8,0:0:0:0:
260,192,65863,1,8,0:0:0:0:
248,196,66163,1,8,0:0:0:0:
248,196,66238,1,8,0:0:0:0:
248,196,66313,1,8,0:0:0:0:
248,192,66463,1,0,0:0:0:0:
244,200,66613,1,8,0:0:0:0:
244,200,66763,1,0,0:0:0:0:
248,200,66913,1,8,0:0:0:0:
248,196,67063,1,0,0:0:0:0:
248,192,67138,1,0,0:0:0:0:
248,192,67213,1,0,0:0:0:0:
248,196,67962,1,4,0:0:0:0:
248,196,68562,1,8,0:0:0:0:
248,196,68712,1,8,0:0:0:0:
248,196,68862,1,8,0:0:0:0:
248,192,69012,1,8,0:0:0:0:
248,196,69162,1,0,0:0:0:0:
248,196,69312,1,8,0:0:0:0:
248,196,69462,1,8,0:0:0:0:
248,196,69612,1,8,0:0:0:0:
244,192,69762,1,0,0:0:0:0:
248,196,69912,1,8,0:0:0:0:
248,196,69987,1,8,0:0:0:0:
248,196,70062,1,8,0:0:0:0:
248,196,70212,1,0,0:0:0:0:
248,196,70362,1,0,0:0:0:0:
248,196,70662,1,8,0:0:0:0:
248,192,70962,1,8,0:0:0:0:
248,192,71112,1,8,0:0:0:0:
248,192,71262,1,8,0:0:0:0:
248,196,71412,1,8,0:0:0:0:
248,196,71562,1,8,0:0:0:0:
248,196,71712,1,8,0:0:0:0:
248,196,71862,1,8,0:0:0:0:
248,196,72012,1,8,0:0:0:0:
248,196,72162,1,4,0:0:0:0:
252,196,72762,1,4,0:0:0:0:
248,196,73361,1,8,0:0:0:0:
248,196,73511,1,8,0:0:0:0:
248,196,73661,1,8,0:0:0:0:
248,196,73811,1,8,0:0:0:0:
248,196,73961,1,8,0:0:0:0:
248,196,74111,1,8,0:0:0:0:
248,196,74261,1,8,0:0:0:0:
252,204,74411,1,8,0:0:0:0:
252,204,74561,1,4,0:0:0:0:
248,200,74861,1,8,0:0:0:0:
252,200,75161,1,4,0:0:0:0:
248,204,75386,1,8,0:0:0:0:
248,204,75461,1,8,0:0:0:0:
244,200,75536,1,8,0:0:0:0:
244,204,75761,1,4,0:0:0:0:
244,200,76061,1,12,0:0:0:0:
244,208,76361,1,4,0:0:0:0:
248,200,76661,1,12,0:0:0:0:
244,204,76961,1,4,0:0:0:0:
232,212,78160,1,0,0:0:0:0:
236,220,78310,1,8,0:0:0:0:
236,220,78460,1,8,0:0:0:0:
236,216,78610,1,8,0:0:0:0:
236,216,78760,1,8,0:0:0:0:
232,212,78910,1,8,0:0:0:0:
232,212,79060,1,8,0:0:0:0:
244,216,79210,1,8,0:0:0:0:
232,212,80560,1,0,0:0:0:0:
236,220,80710,1,8,0:0:0:0:
236,220,80860,1,8,0:0:0:0:
236,216,81010,1,8,0:0:0:0:
236,216,81160,1,8,0:0:0:0:
232,212,81310,1,8,0:0:0:0:
232,212,81460,1,8,0:0:0:0:
244,216,81610,1,8,0:0:0:0:
232,212,82959,1,0,0:0:0:0:
236,220,83109,1,8,0:0:0:0:
236,220,83259,1,8,0:0:0:0:
236,216,83409,1,8,0:0:0:0:
236,216,83559,1,8,0:0:0:0:
232,212,83709,1,8,0:0:0:0:
232,212,83859,1,8,0:0:0:0:
244,216,84009,1,8,0:0:0:0:
232,212,84159,1,0,0:0:0:0:
236,220,84309,1,8,0:0:0:0:
236,220,84459,1,8,0:0:0:0:
236,216,84609,1,8,0:0:0:0:
236,216,84759,1,8,0:0:0:0:
232,212,84909,1,8,0:0:0:0:
232,212,85059,1,8,0:0:0:0:
244,216,85209,1,8,0:0:0:0:
232,224,85359,1,4,0:0:0:0:
236,216,86559,1,0,0:0:0:0:
232,212,86634,1,8,0:0:0:0:
232,212,86709,1,8,0:0:0:0:
232,212,86784,1,8,0:0:0:0:
232,212,86859,1,8,0:0:0:0:
236,216,86934,1,8,0:0:0:0:
236,216,87009,1,8,0:0:0:0:
236,216,87084,1,8,0:0:0:0:
232,208,87159,1,0,0:0:0:0:
232,208,87759,1,0,0:0:0:0:
232,208,87908,1,8,0:0:0:0:
240,208,88058,1,8,0:0:0:0:
240,208,88208,1,8,0:0:0:0:
236,204,88358,1,0,0:0:0:0:
240,208,88508,1,8,0:0:0:0:
240,208,88658,1,8,0:0:0:0:
240,208,88808,1,8,0:0:0:0:
236,204,88958,1,4,0:0:0:0:
252,200,89108,1,8,0:0:0:0:
252,200,89183,1,8,0:0:0:0:
252,200,89258,1,8,0:0:0:0:
252,200,89333,1,8,0:0:0:0:
252,200,89408,1,8,0:0:0:0:
244,200,89558,1,0,0:0:0:0:
248,204,90158,1,0,0:0:0:0:
236,196,90233,1,8,0:0:0:0:
236,196,90308,1,8,0:0:0:0:
248,208,90458,1,8,0:0:0:0:
248,208,90608,1,8,0:0:0:0:
244,208,90758,1,0,0:0:0:0:
244,208,90833,1,8,0:0:0:0:
244,208,90908,1,8,0:0:0:0:
240,204,91058,1,8,0:0:0:0:
240,204,91208,1,8,0:0:0:0:
240,208,91358,1,0,0:0:0:0:
240,204,91658,1,8,0:0:0:0:
240,204,91958,1,8,0:0:0:0:
240,204,92258,1,8,0:0:0:0:
232,204,92558,1,0,0:0:0:0:
232,204,92633,1,8,0:0:0:0:
232,204,92708,1,8,0:0:0:0:
232,208,92857,1,8,0:0:0:0:
232,208,93007,1,8,0:0:0:0:
232,208,93157,1,0,0:0:0:0:
232,208,93232,1,8,0:0:0:0:
232,208,93307,1,8,0:0:0:0:
232,208,93457,1,8,0:0:0:0:
232,208,93607,1,8,0:0:0:0:
232,208,93757,1,0,0:0:0:0:
232,208,93907,1,8,0:0:0:0:
232,208,94057,1,8,0:0:0:0:
232,204,94207,1,8,0:0:0:0:
232,204,94357,1,0,0:0:0:0:
224,208,94507,1,8,0:0:0:0:
232,208,94657,1,8,0:0:0:0:
232,208,94807,1,8,0:0:0:0:
224,212,94957,1,12,0:0:0:0:
224,208,95257,1,4,0:0:0:0:
228,216,95557,1,12,0:0:0:0:
236,212,95857,1,4,0:0:0:0:
232,212,96157,1,4,0:0:0:0:
236,216,96757,1,8,0:0:0:0:
236,216,97357,1,0,0:0:0:0:
236,212,97507,1,8,0:0:0:0:
236,212,97657,1,8,0:0:0:0:
232,212,97806,1,8,0:0:0:0:
232,212,97956,1,0,0:0:0:0:
236,216,98106,1,8,0:0:0:0:
236,216,98256,1,8,0:0:0:0:
236,216,98406,1,8,0:0:0:0:
228,220,98556,1,0,0:0:0:0:
232,220,98631,1,8,0:0:0:0:
232,220,98706,1,8,0:0:0:0:
236,216,98781,1,8,0:0:0:0:
236,216,99006,1,0,0:0:0:0:
236,216,99156,1,0,0:0:0:0:
228,216,99456,1,8,0:0:0:0:
232,216,99756,1,0,0:0:0:0:
236,216,99906,1,8,0:0:0:0:
236,216,100056,1,8,0:0:0:0:
236,216,100206,1,8,0:0:0:0:
240,212,100356,1,0,0:0:0:0:
240,216,100506,1,8,0:0:0:0:
236,216,100656,1,8,0:0:0:0:
236,216,100806,1,8,0:0:0:0:
236,216,100956,1,0,0:0:0:0:
232,224,101106,1,8,0:0:0:0:
224,224,101181,1,8,0:0:0:0:
232,224,101256,1,8,0:0:0:0:
224,224,101331,1,8,0:0:0:0:
232,224,101406,1,8,0:0:0:0:
236,220,101556,1,0,0:0:0:0:
224,224,102156,1,0,0:0:0:0:
224,232,102306,1,8,0:0:0:0:
224,232,102456,1,8,0:0:0:0:
224,232,102606,1,8,0:0:0:0:
228,228,102756,1,0,0:0:0:0:
224,228,102905,1,8,0:0:0:0:
224,228,103055,1,8,0:0:0:0:
224,228,103205,1,8,0:0:0:0:
224,228,103355,1,0,0:0:0:0:
224,224,103655,1,8,0:0:0:0:
224,224,103805,1,0,0:0:0:0:
224,224,103955,1,0,0:0:0:0:
228,224,104555,1,12,0:0:0:0:
224,236,104855,1,4,0:0:0:0:
224,228,105155,1,12,0:0:0:0:
228,240,105455,1,4,0:0:0:0:
228,232,105755,1,4,0:0:0:0:
224,248,105905,1,8,0:0:0:0:
224,248,106055,1,8,0:0:0:0:
224,248,106205,1,8,0:0:0:0:
224,248,106355,1,8,0:0:0:0:
220,244,106505,1,8,0:0:0:0:
220,244,106655,1,8,0:0:0:0:
220,244,106805,1,8,0:0:0:0:
220,244,106955,1,0,0:0:0:0:
224,248,107105,1,8,0:0:0:0:
224,252,107255,1,8,0:0:0:0:
224,252,107405,1,8,0:0:0:0:
224,248,107555,1,8,0:0:0:0:
208,264,107705,1,8,0:0:0:0:
208,264,107854,1,8,0:0:0:0:
208,264,108004,1,8,0:0:0:0:
208,264,108154,1,0,0:0:0:0:
216,264,108304,1,8,0:0:0:0:
216,264,108454,1,8,0:0:0:0:
216,264,108604,1,8,0:0:0:0:
216,264,108754,1,8,0:0:0:0:
216,264,108904,1,8,0:0:0:0:
216,264,109054,1,8,0:0:0:0:
212,264,109204,1,8,0:0:0:0:
208,252,109354,1,0,0:0:0:0:
188,256,109504,1,8,0:0:0:0:
188,256,109654,1,8,0:0:0:0:
188,256,109804,1,8,0:0:0:0:
188,256,109954,1,8,0:0:0:0:
188,252,110104,1,8,0:0:0:0:
188,252,110254,1,8,0:0:0:0:
188,252,110404,1,8,0:0:0:0:
200,248,110554,1,0,0:0:0:0:
208,244,110704,1,8,0:0:0:0:
208,244,110854,1,8,0:0:0:0:
208,244,111004,1,8,0:0:0:0:
208,244,111154,1,0,0:0:0:0:
208,244,111304,1,8,0:0:0:0:
208,244,111454,1,8,0:0:0:0:
208,244,111604,1,8,0:0:0:0:
208,244,111754,1,0,0:0:0:0:
220,248,111904,1,8,0:0:0:0:
220,248,112054,1,8,0:0:0:0:
220,248,112204,1,8,0:0:0:0:
216,248,112354,1,0,0:0:0:0:
220,248,112504,1,8,0:0:0:0:
220,248,112654,1,8,0:0:0:0:
220,248,112804,1,8,0:0:0:0:
216,248,112954,1,0,0:0:0:0:
220,248,113103,1,8,0:0:0:0:
220,248,113253,1,8,0:0:0:0:
220,248,113403,1,8,0:0:0:0:
216,248,113553,1,0,0:0:0:0:
212,248,113703,1,0,0:0:0:0:
212,248,113853,1,0,0:0:0:0:
216,256,114003,1,0,0:0:0:0:
224,244,114153,1,0,0:0:0:0:
224,244,115353,1,0,0:0:0:0:
224,244,115802,1,8,0:0:0:0:
224,244,115952,1,0,0:0:0:0:
228,248,116252,1,8,0:0:0:0:
232,248,116552,1,0,0:0:0:0:
224,244,116702,1,8,0:0:0:0:
224,244,117002,1,8,0:0:0:0:
224,244,117152,1,0,0:0:0:0:
224,244,117452,1,8,0:0:0:0:
216,240,117752,1,0,0:0:0:0:
228,232,118202,1,8,0:0:0:0:
220,240,118352,1,0,0:0:0:0:
220,228,118652,1,8,0:0:0:0:
224,240,118952,1,0,0:0:0:0:
216,240,119102,1,8,0:0:0:0:
224,232,119402,1,8,0:0:0:0:
224,232,119552,1,0,0:0:0:0:
224,232,119852,1,8,0:0:0:0:
224,236,120152,1,0,0:0:0:0:
216,228,120601,1,8,0:0:0:0:
236,232,120751,1,0,0:0:0:0:
224,232,121051,1,8,0:0:0:0:
232,228,121351,1,0,0:0:0:0:
232,228,121651,1,8,0:0:0:0:
236,228,121951,1,0,0:0:0:0:
236,228,122251,1,8,0:0:0:0:
244,224,122551,1,4,0:0:0:0:
236,224,123151,1,8,0:0:0:0:
232,224,123451,1,8,0:0:0:0:
232,224,123601,1,8,0:0:0:0:
232,224,123751,1,8,0:0:0:0:
232,220,124051,1,8,0:0:0:0:
232,220,124351,1,8,0:0:0:0:
232,220,124501,1,8,0:0:0:0:
232,220,124651,1,8,0:0:0:0:
224,224,124951,1,4,0:0:0:0:
228,216,125400,1,8,0:0:0:0:
232,220,125700,1,8,0:0:0:0:
232,220,125850,1,8,0:0:0:0:
224,216,126150,1,0,0:0:0:0:
232,216,126450,1,8,0:0:0:0:
232,216,126600,1,8,0:0:0:0:
228,216,126900,1,8,0:0:0:0:
224,216,127050,1,8,0:0:0:0:
232,220,127350,1,8,0:0:0:0:
232,220,127650,1,8,0:0:0:0:
232,220,127950,1,0,0:0:0:0:
232,224,128100,1,8,0:0:0:0:
232,216,128400,1,8,0:0:0:0:
224,216,128700,1,0,0:0:0:0:
236,232,128850,1,8,0:0:0:0:
236,232,129150,1,8,0:0:0:0:
216,232,129750,1,8,0:0:0:0:
228,244,130200,1,8,0:0:0:0:
232,240,130499,1,0,0:0:0:0:
232,240,130649,1,8,0:0:0:0:
240,232,131249,1,8,0:0:0:0:
248,232,131399,1,8,0:0:0:0:
232,240,131699,1,0,0:0:0:0:
232,240,131849,1,8,0:0:0:0:
248,240,132149,1,8,0:0:0:0:
248,240,132449,1,8,0:0:0:0:
236,236,132749,1,8,0:0:0:0:
240,240,133049,1,8,0:0:0:0:
228,216,133199,1,0,0:0:0:0:
244,228,133349,1,8,0:0:0:0:
236,236,133649,1,8,0:0:0:0:
244,224,133949,1,8,0:0:0:0:
244,224,134099,1,8,0:0:0:0:
244,224,134249,1,8,0:0:0:0:
228,232,134549,1,8,0:0:0:0:
236,232,134849,1,8,0:0:0:0:
232,228,135149,1,8,0:0:0:0:
232,228,135448,1,8,0:0:0:0:
232,228,135748,1,8,0:0:0:0:
232,228,136048,1,8,0:0:0:0:
232,228,136348,1,8,0:0:0:0:
236,232,136648,1,8,0:0:0:0:
248,228,136948,1,0,0:0:0:0:
216,240,137248,1,0,0:0:0:0:
216,240,137548,1,0,0:0:0:0:
232,228,137848,1,8,0:0:0:0:
236,232,138148,1,4,0:0:0:0:
240,184,139348,1,0,0:0:0:0:
240,176,139498,1,8,0:0:0:0:
240,176,139648,1,8,0:0:0:0:
240,176,139948,1,0,0:0:0:0:
240,184,140248,1,8,0:0:0:0:
240,184,140398,1,8,0:0:0:0:
240,176,140547,1,0,0:0:0:0:
240,176,140697,1,8,0:0:0:0:
236,168,140997,1,8,0:0:0:0:
240,176,141297,1,8,0:0:0:0:
240,176,141447,1,8,0:0:0:0:
232,168,141747,1,0,0:0:0:0:
240,180,142047,1,8,0:0:0:0:
240,180,142197,1,8,0:0:0:0:
240,176,142347,1,0,0:0:0:0:
236,168,142647,1,8,0:0:0:0:
236,168,142797,1,8,0:0:0:0:
240,172,142947,1,0,0:0:0:0:
240,172,143247,1,8,0:0:0:0:
240,172,143397,1,8,0:0:0:0:
240,172,143697,1,0,0:0:0:0:
240,172,143847,1,8,0:0:0:0:
240,172,144147,1,0,0:0:0:0:
236,168,144447,1,8,0:0:0:0:
240,172,144747,1,0,0:0:0:0:
240,172,145047,1,8,0:0:0:0:
240,172,145347,1,0,0:0:0:0:
240,172,145646,1,8,0:0:0:0:
240,172,145796,1,8,0:0:0:0:
236,168,146096,1,0,0:0:0:0:
236,168,146246,1,8,0:0:0:0:
240,172,146396,1,8,0:0:0:0:
240,172,146546,1,8,0:0:0:0:
240,164,146846,1,8,0:0:0:0:
240,164,146996,1,8,0:0:0:0:
240,164,147146,1,8,0:0:0:0:
228,160,147446,1,8,0:0:0:0:
228,160,147596,1,8,0:0:0:0:
228,160,147746,1,8,0:0:0:0:
220,156,147896,1,0,0:0:0:0:
228,156,148046,1,8,0:0:0:0:
228,156,148196,1,0,0:0:0:0:
228,156,148346,1,8,0:0:0:0:
228,156,148496,1,0,0:0:0:0:
228,156,148646,1,8,0:0:0:0:
228,156,148796,1,8,0:0:0:0:
228,156,148946,1,4,0:0:0:0:
228,156,149396,1,8,0:0:0:0:
220,156,149546,1,8,0:0:0:0:
224,156,149846,1,8,0:0:0:0:
216,148,150146,1,0,0:0:0:0:
216,148,150296,1,8,0:0:0:0:
208,152,150595,1,0,0:0:0:0:
216,152,150745,1,8,0:0:0:0:
216,152,151045,1,8,0:0:0:0:
216,152,151195,1,0,0:0:0:0:
216,152,151345,1,8,0:0:0:0:
216,144,151495,1,8,0:0:0:0:
196,148,151645,1,0,0:0:0:0:
196,148,151795,1,8,0:0:0:0:
196,148,151945,1,8,0:0:0:0:
216,168,152095,1,0,0:0:0:0:
216,160,152245,1,8,0:0:0:0:
216,160,152395,1,8,0:0:0:0:
216,160,152545,1,0,0:0:0:0:
216,160,152695,1,8,0:0:0:0:
216,160,152845,1,8,0:0:0:0:
208,164,152995,1,0,0:0:0:0:
216,160,153145,1,8,0:0:0:0:
216,160,153295,1,0,0:0:0:0:
216,160,153445,1,8,0:0:0:0:
204,168,153595,1,8,0:0:0:0:
220,152,153745,1,4,0:0:0:0:
196,160,154045,1,8,0:0:0:0:
200,148,154345,1,0,0:0:0:0:
196,156,154645,1,8,0:0:0:0:
196,156,154945,1,0,0:0:0:0:
192,152,155844,1,8,0:0:0:0:
192,152,156144,1,0,0:0:0:0:
192,152,156444,1,8,0:0:0:0:
192,152,156594,1,8,0:0:0:0:
192,152,156744,1,0,0:0:0:0:
192,152,157044,1,8,0:0:0:0:
192,148,157194,1,8,0:0:0:0:
192,152,157344,1,0,0:0:0:0:
192,152,157494,1,8,0:0:0:0:
192,152,157644,1,0,0:0:0:0:
192,152,157794,1,0,0:0:0:0:
192,152,157944,1,8,0:0:0:0:
192,152,159144,1,4,0:0:0:0:
200,156,159743,1,8,0:0:0:0:
200,156,159818,1,8,0:0:0:0:
200,156,159893,1,8,0:0:0:0:
192,144,159968,1,8,0:0:0:0:
192,144,160043,1,8,0:0:0:0:
200,132,160343,1,8,0:0:0:0:
200,132,160418,1,8,0:0:0:0:
200,132,160493,1,8,0:0:0:0:
192,144,160568,1,8,0:0:0:0:
192,144,160643,1,8,0:0:0:0:
200,168,160943,1,8,0:0:0:0:
200,168,161093,1,8,0:0:0:0:
200,156,161243,1,8,0:0:0:0:
200,156,161393,1,8,0:0:0:0:
188,160,161543,1,0,0:0:0:0:
204,160,162143,1,8,0:0:0:0:
204,160,162218,1,8,0:0:0:0:
204,160,162293,1,8,0:0:0:0:
204,160,162368,1,8,0:0:0:0:
204,160,162443,1,8,0:0:0:0:
204,160,162743,1,8,0:0:0:0:
204,160,162818,1,8,0:0:0:0:
204,160,162893,1,8,0:0:0:0:
204,160,162968,1,8,0:0:0:0:
204,160,163043,1,8,0:0:0:0:
204,160,163343,1,8,0:0:0:0:
204,160,163493,1,8,0:0:0:0:
204,160,163643,1,8,0:0:0:0:
204,160,163793,1,8,0:0:0:0:
216,156,163943,1,0,0:0:0:0:
208,156,164542,1,8,0:0:0:0:
208,156,164617,1,8,0:0:0:0:
208,156,164692,1,8,0:0:0:0:
208,156,164767,1,8,0:0:0:0:
208,156,164842,1,8,0:0:0:0:
208,156,165142,1,8,0:0:0:0:
208,156,165217,1,8,0:0:0:0:
208,156,165292,1,8,0:0:0:0:
208,156,165367,1,8,0:0:0:0:
208,156,165442,1,8,0:0:0:0:
208,156,165742,1,8,0:0:0:0:
208,156,165892,1,8,0:0:0:0:
208,156,166042,1,8,0:0:0:0:
208,156,166192,1,8,0:0:0:0:
208,164,166342,1,0,0:0:0:0:
208,164,166642,1,8,0:0:0:0:
220,160,166942,1,8,0:0:0:0:
220,160,167017,1,8,0:0:0:0:
220,160,167092,1,8,0:0:0:0:
220,160,167167,1,8,0:0:0:0:
220,160,167242,1,8,0:0:0:0:
216,160,167542,1,8,0:0:0:0:
216,160,167617,1,8,0:0:0:0:
216,160,167692,1,8,0:0:0:0:
216,160,167842,1,8,0:0:0:0:
220,160,168742,1,4,0:0:0:0:
224,160,169341,1,8,0:0:0:0:
224,160,169416,1,8,0:0:0:0:
224,160,169491,1,8,0:0:0:0:
224,160,169566,1,8,0:0:0:0:
224,160,169641,1,8,0:0:0:0:
220,172,169941,1,8,0:0:0:0:
220,172,170016,1,8,0:0:0:0:
220,172,170091,1,8,0:0:0:0:
220,172,170166,1,8,0:0:0:0:
220,172,170241,1,8,0:0:0:0:
220,172,170541,1,8,0:0:0:0:
220,172,170691,1,8,0:0:0:0:
208,176,170841,1,8,0:0:0:0:
208,176,170991,1,8,0:0:0:0:
208,176,171141,1,0,0:0:0:0:
208,172,171366,1,8,0:0:0:0:
208,172,171591,1,0,0:0:0:0:
208,172,171666,1,0,0:0:0:0:
212,168,171741,1,8,0:0:0:0:
212,168,171816,1,8,0:0:0:0:
212,168,171891,1,8,0:0:0:0:
212,168,171966,1,8,0:0:0:0:
212,168,172041,1,8,0:0:0:0:
200,168,172341,1,8,0:0:0:0:
200,168,172416,1,8,0:0:0:0:
200,168,172491,1,8,0:0:0:0:
200,168,172566,1,8,0:0:0:0:
200,168,172641,1,8,0:0:0:0:
180,152,172941,1,8,0:0:0:0:
180,152,173091,1,8,0:0:0:0:
180,152,173241,1,8,0:0:0:0:
180,152,173391,1,8,0:0:0:0:
216,156,173541,1,0,0:0:0:0:
208,152,174141,1,8,0:0:0:0:
208,152,174215,1,8,0:0:0:0:
208,152,174290,1,8,0:0:0:0:
208,152,174365,1,8,0:0:0:0:
208,152,174440,1,8,0:0:0:0:
200,156,174740,1,8,0:0:0:0:
200,156,174890,1,8,0:0:0:0:
200,156,175040,1,8,0:0:0:0:
200,156,175190,1,8,0:0:0:0:
200,156,175340,1,8,0:0:0:0:
200,156,175490,1,8,0:0:0:0:
200,156,175640,1,8,0:0:0:0:
200,156,175790,1,8,0:0:0:0:
200,168,175940,1,0,0:0:0:0:
200,168,176240,1,8,0:0:0:0:
200,160,176540,1,0,0:0:0:0:
200,160,176840,1,8,0:0:0:0:
204,164,177140,1,8,0:0:0:0:
204,164,177215,1,8,0:0:0:0:
204,164,177290,1,8,0:0:0:0:
212,156,177440,1,0,0:0:0:0:
200,160,177740,1,8,0:0:0:0:
200,160,177815,1,8,0:0:0:0:
200,160,177890,1,8,0:0:0:0:
200,160,178040,1,0,0:0:0:0:
208,160,178340,1,0,0:0:0:0:
196,168,178415,1,8,0:0:0:0:
196,168,178490,1,8,0:0:0:0:
196,168,178565,1,8,0:0:0:0:
196,168,178640,1,8,0:0:0:0:
196,160,178940,1,0,0:0:0:0:
196,160,179015,1,8,0:0:0:0:
196,160,179090,1,8,0:0:0:0:
196,160,179164,1,8,0:0:0:0:
196,160,179239,1,8,0:0:0:0:
200,160,179539,1,8,0:0:0:0:
200,160,179689,1,8,0:0:0:0:
200,160,179839,1,8,0:0:0:0:
196,160,179989,1,8,0:0:0:0:
196,160,180139,1,8,0:0:0:0:
196,160,180289,1,8,0:0:0:0:
196,160,180439,1,8,0:0:0:0:
192,168,180589,1,8,0:0:0:0:
192,168,180739,1,0,0:0:0:0:
188,164,180814,1,8,0:0:0:0:
188,164,180889,1,8,0:0:0:0:
188,164,180964,1,8,0:0:0:0:
188,164,181039,1,8,0:0:0:0:
192,168,181114,1,8,0:0:0:0:
192,168,181189,1,8,0:0:0:0:
212,164,181264,1,8,0:0:0:0:
196,172,181339,1,0,0:0:0:0:
196,172,181414,1,8,0:0:0:0:
196,172,181489,1,8,0:0:0:0:
196,172,181564,1,8,0:0:0:0:
196,172,181639,1,8,0:0:0:0:
188,172,181714,1,8,0:0:0:0:
188,172,181789,1,8,0:0:0:0:
188,172,181864,1,8,0:0:0:0:
232,192,181939,1,8,0:0:0:0:
200,148,182089,1,8,0:0:0:0:
200,176,182239,1,8,0:0:0:0:
200,148,182389,1,8,0:0:0:0:
204,172,182539,1,8,0:0:0:0:
200,148,182689,1,8,0:0:0:0:
200,148,182839,1,8,0:0:0:0:
200,148,182989,1,8,0:0:0:0:
200,148,183139,1,0,0:0:0:0:
196,172,183214,1,8,0:0:0:0:
196,172,183289,1,8,0:0:0:0:
196,172,183364,1,8,0:0:0:0:
196,172,183439,1,8,0:0:0:0:
188,164,183514,1,8,0:0:0:0:
204,176,183589,1,8,0:0:0:0:
204,176,183664,1,8,0:0:0:0:
204,176,183739,1,0,0:0:0:0:
224,188,183814,1,8,0:0:0:0:
212,180,183889,1,8,0:0:0:0:
212,180,183964,1,8,0:0:0:0:
212,180,184039,1,8,0:0:0:0:
212,180,184114,1,8,0:0:0:0:
212,180,184188,1,8,0:0:0:0:
212,180,184263,1,8,0:0:0:0:
220,188,184338,1,8,0:0:0:0:
224,188,184488,1,8,0:0:0:0:
208,184,184638,1,8,0:0:0:0:
212,184,184788,1,8,0:0:0:0:
212,184,184938,1,8,0:0:0:0:
212,184,185088,1,8,0:0:0:0:
212,184,185238,1,8,0:0:0:0:
212,184,185388,1,8,0:0:0:0:
196,192,185538,1,0,0:0:0:0:
196,192,185613,1,8,0:0:0:0:
196,192,185688,1,8,0:0:0:0:
196,192,185763,1,8,0:0:0:0:
196,192,185838,1,8,0:0:0:0:
196,192,185913,1,8,0:0:0:0:
196,192,185988,1,8,0:0:0:0:
196,192,186063,1,8,0:0:0:0:
196,192,186138,1,0,0:0:0:0:
196,192,186213,1,8,0:0:0:0:
196,192,186288,1,8,0:0:0:0:
196,192,186363,1,8,0:0:0:0:
196,192,186438,1,8,0:0:0:0:
196,192,186513,1,8,0:0:0:0:
196,192,186588,1,8,0:0:0:0:
196,192,186663,1,8,0:0:0:0:
192,192,186738,1,8,0:0:0:0:
192,192,187038,1,0,0:0:0:0:
196,192,187338,1,8,0:0:0:0:
196,192,187638,1,0,0:0:0:0:
196,192,187938,1,4,0:0:0:0:
196,192,188238,1,8,0:0:0:0:
196,192,188313,1,8,0:0:0:0:
196,192,188388,1,8,0:0:0:0:
196,192,188463,1,8,0:0:0:0:
192,192,188538,1,0,0:0:0:0:
196,188,188688,1,8,0:0:0:0:
196,188,188763,1,8,0:0:0:0:
196,188,188838,1,8,0:0:0:0:
208,192,188913,1,8,0:0:0:0:
208,192,188988,1,8,0:0:0:0:
208,192,189063,1,8,0:0:0:0:
188,168,189138,1,8,0:0:0:0:
196,176,189287,1,8,0:0:0:0:
208,184,189437,1,8,0:0:0:0:
208,184,189587,1,8,0:0:0:0:
208,184,189737,1,8,0:0:0:0:
208,184,189887,1,8,0:0:0:0:
208,184,190037,1,8,0:0:0:0:
200,192,190187,1,8,0:0:0:0:
200,192,190337,1,0,0:0:0:0:
204,188,190412,1,8,0:0:0:0:
204,188,190487,1,8,0:0:0:0:
204,188,190562,1,8,0:0:0:0:
204,188,190637,1,8,0:0:0:0:
180,192,190712,1,8,0:0:0:0:
180,192,190787,1,8,0:0:0:0:
180,192,190862,1,8,0:0:0:0:
204,184,190937,1,0,0:0:0:0:
192,192,191012,1,8,0:0:0:0:
192,192,191087,1,8,0:0:0:0:
192,192,191162,1,8,0:0:0:0:
192,192,191237,1,8,0:0:0:0:
192,192,191312,1,8,0:0:0:0:
192,192,191387,1,8,0:0:0:0:
192,192,191462,1,8,0:0:0:0:
192,192,191537,1,8,0:0:0:0:
192,192,191687,1,8,0:0:0:0:
192,192,191837,1,8,0:0:0:0:
192,192,191987,1,8,0:0:0:0:
192,192,192137,1,8,0:0:0:0:
192,192,192287,1,8,0:0:0:0:
192,192,192437,1,8,0:0:0:0:
192,192,192587,1,8,0:0:0:0:
188,192,192737,1,0,0:0:0:0:
192,192,193337,1,0,0:0:0:0:
184,196,193937,1,8,0:0:0:0:
184,196,194087,1,8,0:0:0:0:
184,196,194236,1,8,0:0:0:0:
184,196,194386,1,8,0:0:0:0:
188,192,194536,1,8,0:0:0:0:
184,196,194686,1,8,0:0:0:0:
184,196,194836,1,8,0:0:0:0:
184,196,194986,1,8,0:0:0:0:
184,196,195136,1,8,0:0:0:0:
172,192,195736,1,8,0:0:0:0:
172,192,196336,1,8,0:0:0:0:
160,192,196411,1,8,0:0:0:0:
160,192,196486,1,8,0:0:0:0:
160,192,196561,1,8,0:0:0:0:
172,192,196636,1,0,0:0:0:0:
172,192,196711,1,0,0:0:0:0:
172,192,196786,1,0,0:0:0:0:
172,192,196861,1,0,0:0:0:0:
172,192,196936,1,8,0:0:0:0:
172,192,197011,1,8,0:0:0:0:
172,192,197086,1,8,0:0:0:0:
172,192,197161,1,8,0:0:0:0:
172,192,197236,1,0,0:0:0:0:
172,192,197311,1,0,0:0:0:0:
172,192,197386,1,0,0:0:0:0:
172,192,197461,1,0,0:0:0:0:
164,192,197536,1,0,0:0:0:0:
156,176,197686,1,0,0:0:0:0:
156,176,197836,1,0,0:0:0:0:
156,176,197986,1,0,0:0:0:0:
156,176,198136,1,0,0:0:0:0:
156,180,198286,1,0,0:0:0:0:
156,180,198436,1,0,0:0:0:0:
152,180,198586,1,0,0:0:0:0:
152,180,198736,1,8,0:0:0:0:
140,184,198886,1,8,0:0:0:0:
140,184,199036,1,8,0:0:0:0:
140,184,199185,1,8,0:0:0:0:
140,184,199335,1,8,0:0:0:0:
140,184,199485,1,8,0:0:0:0:
140,184,199635,1,8,0:0:0:0:
140,184,199785,1,8,0:0:0:0:
164,192,199935,1,0,0:0:0:0:
156,176,200085,1,0,0:0:0:0:
156,176,200235,1,0,0:0:0:0:
156,176,200385,1,0,0:0:0:0:
156,176,200535,1,0,0:0:0:0:
156,180,200685,1,0,0:0:0:0:
156,180,200835,1,0,0:0:0:0:
152,180,200985,1,0,0:0:0:0:
152,180,201135,1,8,0:0:0:0:
140,184,201285,1,8,0:0:0:0:
140,184,201435,1,8,0:0:0:0:
140,184,201584,1,8,0:0:0:0:
140,184,201734,1,8,0:0:0:0:
140,184,201884,1,8,0:0:0:0:
140,184,202034,1,8,0:0:0:0:
140,184,202184,1,8,0:0:0:0:
164,192,202335,1,0,0:0:0:0:
156,176,202485,1,0,0:0:0:0:
156,176,202635,1,0,0:0:0:0:
156,176,202785,1,0,0:0:0:0:
156,176,202935,1,0,0:0:0:0:
156,180,203085,1,0,0:0:0:0:
156,180,203235,1,0,0:0:0:0:
152,180,203385,1,0,0:0:0:0:
152,180,203535,1,8,0:0:0:0:
140,184,203685,1,8,0:0:0:0:
140,184,203835,1,8,0:0:0:0:
140,184,203984,1,8,0:0:0:0:
140,184,204134,1,8,0:0:0:0:
140,184,204284,1,8,0:0:0:0:
140,184,204434,1,8,0:0:0:0:
140,184,204584,1,8,0:0:0:0:
164,192,204734,1,0,0:0:0:0:
156,176,204884,1,0,0:0:0:0:
156,176,205034,1,0,0:0:0:0:
156,176,205184,1,0,0:0:0:0:
156,176,205334,1,0,0:0:0:0:
156,180,205484,1,0,0:0:0:0:
156,180,205634,1,0,0:0:0:0:
152,180,205784,1,0,0:0:0:0:
152,180,205934,1,0,0:0:0:0:
168,204,207134,1,0,0:0:0:0:
180,208,207359,1,8,0:0:0:0:
180,208,207434,1,8,0:0:0:0:
152,204,207659,1,0,0:0:0:0:
152,204,207734,1,8,0:0:0:0:
176,204,208034,1,0,0:0:0:0:
176,204,208184,1,8,0:0:0:0:
176,204,208334,1,8,0:0:0:0:
176,204,208409,1,8,0:0:0:0:
180,208,208484,1,8,0:0:0:0:
176,204,208634,1,8,0:0:0:0:
176,204,208709,1,8,0:0:0:0:
180,208,208784,1,8,0:0:0:0:
184,208,208934,1,8,0:0:0:0:
180,208,209009,1,8,0:0:0:0:
164,204,209084,1,8,0:0:0:0:
180,208,209233,1,0,0:0:0:0:
184,204,209458,1,0,0:0:0:0:
180,188,209533,1,8,0:0:0:0:
176,204,209908,1,8,0:0:0:0:
184,204,210433,1,8,0:0:0:0:
168,220,210733,1,8,0:0:0:0:
180,200,211033,1,8,0:0:0:0:
180,200,211333,1,8,0:0:0:0:
180,200,211633,1,8,0:0:0:0:
184,204,211933,1,8,0:0:0:0:
184,204,212233,1,0,0:0:0:0:
180,204,212383,1,8,0:0:0:0:
188,208,212683,1,0,0:0:0:0:
188,208,212833,1,8,0:0:0:0:
180,200,212983,1,0,0:0:0:0:
180,200,213133,1,8,0:0:0:0:
192,204,213283,1,0,0:0:0:0:
144,224,213583,1,8,0:0:0:0:
200,200,213883,1,8,0:0:0:0:
200,200,214332,1,8,0:0:0:0:
228,204,215682,1,0,0:0:0:0:
228,208,215982,1,0,0:0:0:0:
232,216,216282,1,8,0:0:0:0:
232,216,216432,1,0,0:0:0:0:
232,208,216732,1,0,0:0:0:0:
232,208,216957,1,8,0:0:0:0:
232,208,217182,1,0,0:0:0:0:
240,212,217782,1,8,0:0:0:0:
240,212,217932,1,8,0:0:0:0:
224,212,218082,1,0,0:0:0:0:
224,212,218232,1,8,0:0:0:0:
240,216,218457,1,8,0:0:0:0:
244,212,218532,1,8,0:0:0:0:
232,208,218757,1,8,0:0:0:0:
232,208,218832,1,8,0:0:0:0:
240,212,218982,1,8,0:0:0:0:
232,208,219132,1,0,0:0:0:0:
188,192,219431,1,8,0:0:0:0:
224,204,219656,1,8,0:0:0:0:
224,204,219731,1,8,0:0:0:0:
224,204,219806,1,8,0:0:0:0:
224,204,219881,1,8,0:0:0:0:
232,216,220031,1,8,0:0:0:0:
232,216,220106,1,8,0:0:0:0:
232,216,220181,1,8,0:0:0:0:
232,216,220256,1,8,0:0:0:0:
228,200,220331,1,8,0:0:0:0:
232,208,220631,1,8,0:0:0:0:
232,212,220706,1,8,0:0:0:0:
232,212,220781,1,8,0:0:0:0:
232,208,220931,1,8,0:0:0:0:
232,208,221081,1,8,0:0:0:0:
232,212,221531,1,8,0:0:0:0:
232,212,221681,1,8,0:0:0:0:
232,212,221831,1,8,0:0:0:0:
216,208,222131,1,8,0:0:0:0:
216,208,222281,1,8,0:0:0:0:
216,208,222431,1,8,0:0:0:0:
228,208,222731,1,8,0:0:0:0:
228,208,223031,1,0,0:0:0:0:
216,216,223331,1,8,0:0:0:0:
216,216,223631,1,8,0:0:0:0:
216,208,223931,1,8,0:0:0:0:
208,220,224230,1,0,0:0:0:0:
208,220,224380,1,0,0:0:0:0:
212,200,224530,1,8,0:0:0:0:
216,208,224830,1,8,0:0:0:0:
216,208,224980,1,0,0:0:0:0:
212,204,225730,1,8,0:0:0:0:
216,216,226030,1,8,0:0:0:0:
224,208,226330,1,0,0:0:0:0:
224,208,226480,1,8,0:0:0:0:
224,208,226630,1,0,0:0:0:0:
228,208,226780,1,8,0:0:0:0:
228,208,226930,1,0,0:0:0:0:
228,208,227080,1,8,0:0:0:0:
228,208,227230,1,0,0:0:0:0:
228,208,227380,1,8,0:0:0:0:
220,208,227530,1,0,0:0:0:0:
224,200,227680,1,8,0:0:0:0:
224,200,227830,1,0,0:0:0:0:
224,200,227980,1,8,0:0:0:0:
224,200,228130,1,0,0:0:0:0:
216,200,228280,1,0,0:0:0:0:
212,204,228430,1,0,0:0:0:0:
208,204,228580,1,0,0:0:0:0:
208,204,228730,1,8,0:0:0:0:
208,204,228880,1,8,0:0:0:0:
208,204,229030,1,8,0:0:0:0:
208,204,229179,1,8,0:0:0:0:
208,204,229329,1,8,0:0:0:0:
216,208,229479,1,8,0:0:0:0:
216,208,229629,1,8,0:0:0:0:
204,196,229779,1,8,0:0:0:0:
208,196,229929,1,12,0:0:0:0:
220,208,230829,1,4,0:0:0:0:
220,208,231129,1,12,0:0:0:0:
