osu file format v14

[General]
AudioFilename: Savant - Sledgehammer (Official Video).mp3
AudioLeadIn: 0
PreviewTime: -1
Countdown: 0
SampleSet: Soft
StackLeniency: 0.7
Mode: 0
LetterboxInBreaks: 0
WidescreenStoryboard: 1

[Editor]
DistanceSpacing: 2
BeatDivisor: 4
GridSize: 4
TimelineZoom: 1

[Metadata]
Title:Sledgehammer
TitleUnicode:Sledgehammer
Artist:Savant
ArtistUnicode:Savant
Creator:FinalVolume
Version:Normal
Source:
Tags:
BeatmapID:600865
BeatmapSetID:263331

[Difficulty]
HPDrainRate:5
CircleSize:3
OverallDifficulty:5
ApproachRate:5
SliderMultiplier:1.4
SliderTickRate:1

[Events]
//Background and Video events
0,0,"tumblr_mxhdjjvxuh1s4jtr8o1_1280.jpg",0,0
//Break Periods
2,202149,207950
//Storyboard Layer 0 (Background)
//Storyboard Layer 1 (Fail)
//Storyboard Layer 2 (Pass)
//Storyboard Layer 3 (Foreground)
//Storyboard Sound Samples

[TimingPoints]
62750,600,4,2,0,100,1,0
101150,-100,4,2,0,100,0,0
120350,-100,4,2,0,100,0,0

[Colours]
Combo1 : 255,128,0
Combo2 : 255,255,255
Combo3 : 255,128,0
Combo4 : 255,255,255

[HitObjects]
144,184,62750,6,0,P|224:144|300:152,1,140
352,236,63650,1,0,0:0:0:0:
436,160,63950,2,0,P|412:104|324:68,1,140
232,72,64850,1,0,0:0:0:0:
232,72,65150,2,0,P|160:104|136:160,1,140
52,224,66050,6,0,P|96:244|120:252,1,70
228,256,66650,1,0,0:0:0:0:
332,208,66950,2,0,P|272:176|264:104,2,140,0|0|0,0:0|0:0|0:0,0:0:0:0:
380,108,68450,2,0,P|388:152|380:180,1,70
272,188,69050,2,0,P|252:128|260:104,1,70
172,44,69650,6,0,P|136:72|128:108,1,70,0|0,0:0|0:0,0:0:0:0:
76,192,70250,1,0,0:0:0:0:
160,268,70550,2,0,P|192:208|252:164,1,140
360,192,71450,2,0,P|336:128|320:120,1,70
232,96,72050,1,0,0:0:0:0:
232,96,72350,2,0,B|228:168|184:200|200:252,1,140,0|0,0:0|0:0,0:0:0:0:
84,224,73250,6,0,P|120:256|156:264,1,70
228,192,73850,2,0,L|208:120,1,70
320,108,74450,2,0,L|300:172,2,35,0|0|0,0:0|0:0|0:0,0:0:0:0:
384,200,75050,1,0,0:0:0:0:
384,200,75350,6,0,P|328:228|288:232,2,70,0|0|0,0:0|0:0|0:0,0:0:0:0:
364,88,76250,2,0,L|288:76,1,70
188,92,76850,2,0,P|152:108|140:132,1,35
132,156,77150,1,0,0:0:0:0:
316,284,77750,6,0,P|212:284|208:264,1,140
196,168,78650,2,0,P|248:144|256:128,1,70
160,72,79250,2,0,P|212:60|240:64,1,70
336,84,79850,1,0,0:0:0:0:
336,84,80150,6,0,P|336:160|332:180,1,70,0|0,0:0|0:0,0:0:0:0:
224,136,80750,2,0,L|140:128,1,70
136,244,81350,2,0,L|208:248,1,70,0|0,0:0|0:0,0:0:0:0:
316,244,81950,5,0,0:0:0:0:
56,68,83150,1,0,0:0:0:0:
108,136,83450,2,0,P|136:160|128:200,1,70
84,320,84050,2,0,P|92:268|112:244,1,70
464,308,85550,1,0,0:0:0:0:
324,304,85850,2,0,P|276:272|272:252,1,70
404,216,86450,6,0,P|384:168|360:156,1,70
432,72,87950,2,0,L|388:72,1,35
388,140,88250,2,0,L|388:188,1,35
376,244,88550,2,0,P|356:284|316:288,1,70
196,300,89150,6,0,P|156:280|144:248,2,70,0|0|0,0:0|0:0|0:0,0:0:0:0:
256,192,90050,12,0,91550,0:0:0:0:
144,156,91850,6,0,P|208:148|216:160,1,70
184,284,92450,1,0,0:0:0:0:
296,200,92750,6,0,L|332:168,2,35,0|0|0,0:0|0:0|0:0,0:0:0:0:
356,328,93350,2,0,P|416:300|436:272,1,70
364,56,93950,6,0,P|248:68|232:104,1,140
104,84,94850,1,0,0:0:0:0:
108,224,95150,1,0,0:0:0:0:
244,196,95450,2,0,P|196:144|180:132,1,70
320,80,96050,5,0,0:0:0:0:
320,80,96350,2,0,P|344:144|332:216,1,140,0|0,0:0|0:0,0:0:0:0:
216,288,97250,2,0,L|140:296,1,70
48,196,97850,2,0,L|132:160,1,70
112,168,98450,1,0,0:0:0:0:
204,272,98750,6,0,B|288:280|288:280|336:240,1,140
256,192,99650,12,0,101150,0:0:0:0:
80,104,101750,6,0,P|188:100|216:120,2,140,0|0|0,0:0|0:0|0:0,0:0:0:0:
80,260,103250,1,0,0:0:0:0:
80,260,103550,2,0,P|144:280|168:272,1,70
284,280,104150,2,0,P|336:252|340:236,1,70
204,200,104750,6,0,P|168:160|192:80,2,140,0|0|0,0:0|0:0|0:0,0:0:0:0:
340,236,106250,2,0,P|312:172|296:168,1,70
184,216,106850,1,0,0:0:0:0:
184,216,107150,2,0,P|112:188|104:184,1,70
192,72,107750,6,0,P|240:88|248:104,1,70
292,236,108350,2,0,P|372:292|420:264,2,140,0|0|0,0:0|0:0|0:0,0:0:0:0:
352,112,110750,2,0,P|292:112|236:168,1,140
72,96,111950,2,0,P|164:120|200:168,1,140
400,336,113150,2,0,P|332:284|260:240,1,140
60,92,114350,2,0,P|148:132|188:176,1,140,0|0,0:0|0:0,0:0:0:0:
452,108,115550,6,0,P|388:104|376:112,1,70
244,112,116150,2,0,P|184:100|168:104,1,70
76,228,116750,2,0,P|100:268|116:288,1,70,0|0,0:0|0:0,0:0:0:0:
260,292,117350,1,0,0:0:0:0:
260,292,117650,2,0,P|340:300|344:296,1,70
384,184,118250,6,0,P|380:132|368:104,1,70
236,88,118850,2,0,P|192:84|160:96,1,70
80,220,120350,6,0,P|112:264|224:280,2,140,0|0|0,0:0|0:0|0:0,0:0:0:0:
188,132,121850,1,0,0:0:0:0:
292,224,122150,1,0,0:0:0:0:
324,84,122450,1,0,0:0:0:0:
392,208,122750,6,0,P|300:160|260:156,1,140
128,180,123650,1,0,0:0:0:0:
128,180,123950,2,0,P|156:232|168:244,2,70,0|0|0,0:0|0:0|0:0,0:0:0:0:
192,88,125150,2,0,P|232:88|320:136,2,140,0|0|0,0:0|0:0|0:0,0:0:0:0:
392,284,126950,6,0,P|344:296|304:288,1,70
228,192,127550,2,0,P|148:168|112:108,2,140,0|0|0,0:0|0:0|0:0,0:0:0:0:
460,36,129350,2,0,L|396:104,1,70
412,228,129950,2,0,P|356:264|268:264,2,140,0|0|0,0:0|0:0|0:0,0:0:0:0:
132,176,131750,2,0,P|112:116|112:96,1,70,0|0,0:0|0:0,0:0:0:0:
252,100,132350,2,0,P|252:172|216:256,2,140,0|0|0,0:0|0:0|0:0,0:0:0:0:
132,332,134150,6,0,P|100:264|100:256,1,70
164,144,134750,2,0,P|240:132|288:180,1,140,0|0,0:0|0:0,0:0:0:0:
396,252,135650,2,0,P|360:288|328:288,2,70,0|0|0,0:0|0:0|0:0,0:0:0:0:
336,124,136550,6,0,P|256:112|180:124,2,140,0|0|0,0:0|0:0|0:0,0:0:0:0:
256,240,138050,2,0,P|208:268|172:268,1,70
124,148,138650,2,0,P|152:112|188:112,1,70
256,192,139550,12,0,144350,0:0:0:0:
132,112,144650,6,0,P|192:108|212:120,1,70
200,252,145250,2,0,P|260:264|276:264,1,70
340,144,145850,2,0,P|296:116|288:92,1,70
136,92,146450,2,0,P|104:128|96:148,1,70,0|0,0:0|0:0,0:0:0:0:
192,256,147050,1,0,0:0:0:0:
192,256,147350,6,0,L|264:256,2,70,0|0|0,0:0|0:0|0:0,0:0:0:0:
172,116,148250,2,0,P|216:104|248:112,1,70
316,228,148850,2,0,P|344:260|376:260,1,70
332,128,149450,1,0,0:0:0:0:
332,128,149750,1,0,0:0:0:0:
332,128,150050,6,0,P|304:168|280:176,1,70
160,112,150650,2,0,L|80:116,1,70
72,256,151250,1,0,0:0:0:0:
72,256,151550,2,0,P|144:276|224:268,1,140
336,216,152450,2,0,P|404:188|412:180,1,70
356,76,153050,6,0,P|300:68|272:72,1,70
148,100,153650,2,0,P|96:120|88:132,2,70,0|0|0,0:0|0:0|0:0,0:0:0:0:
236,212,154550,2,0,P|192:248|172:248,2,70,0|0|0,0:0|0:0|0:0,0:0:0:0:
316,96,155450,1,0,0:0:0:0:
316,96,155750,2,0,P|328:152|312:232,1,140
180,284,156650,6,0,P|132:256|124:232,1,70
256,188,157250,1,0,0:0:0:0:
256,188,157550,2,0,P|168:192|112:160,1,140
208,56,158450,2,0,L|268:56|300:56,1,70
288,192,159050,6,0,P|244:244|212:252,1,70
104,220,159650,2,0,P|80:176|76:148,1,70
200,88,160250,2,0,L|284:92,1,70
344,208,160850,1,0,0:0:0:0:
344,208,161150,1,0,0:0:0:0:
216,268,161450,6,0,P|192:240|176:204,1,70
280,112,162050,2,0,P|296:64|284:44,1,70
160,104,162650,1,0,0:0:0:0:
160,104,162950,1,0,0:0:0:0:
136,260,164150,6,0,P|176:280|212:284,1,70
332,240,164750,2,0,L|272:188,1,70
400,180,165350,2,0,L|352:128,2,70,0|0|0,0:0|0:0|0:0,0:0:0:0:
420,320,166250,1,0,0:0:0:0:
60,108,167150,2,0,P|120:124|128:144,1,70
92,264,167750,6,0,P|140:280|168:264,1,70
224,140,168350,2,0,P|272:128|280:144,1,70,0|0,0:0|0:0,0:0:0:0:
244,272,168950,1,0,0:0:0:0:
412,48,169550,6,0,P|372:112|304:140,1,140
184,88,170450,2,0,P|136:88|124:104,1,70
56,224,171050,1,0,0:0:0:0:
56,224,171350,2,0,P|128:264|204:256,1,140
308,200,172250,6,0,L|224:176,1,70
376,120,173750,6,0,P|336:188|268:232,1,140
188,124,174650,2,0,P|120:112|112:116,2,70,0|0|0,0:0|0:0|0:0,0:0:0:0:
96,232,175550,2,0,B|160:288|152:280,2,70
132,56,176750,2,0,L|280:68,1,140
336,192,177650,6,0,P|288:168|264:168,1,70
100,88,179150,2,0,P|76:144|100:236,1,140
228,224,180050,2,0,L|324:224,1,70
224,108,180650,2,0,L|304:108,1,70
396,104,181550,6,0,P|416:156|396:264,1,140
268,252,182450,2,0,L|352:252,2,70
128,248,183350,2,0,B|80:160|80:160|128:120,1,140
240,88,184250,2,0,L|320:88,2,70
236,244,185150,2,0,L|320:244,1,70
420,164,185750,5,0,0:0:0:0:
420,164,186050,2,0,L|408:256,1,70
280,288,186650,2,0,L|180:292,1,70
92,212,187250,1,0,0:0:0:0:
172,96,187550,6,0,B|248:100|248:100|288:164,2,140
356,308,189350,2,0,P|304:320|272:316,1,70
276,180,189950,2,0,B|328:164|328:164|356:180,1,70
228,88,190550,2,0,B|140:84|140:84|96:132,1,140
164,248,191450,5,0,0:0:0:0:
400,128,192950,2,0,B|368:148|368:148|300:128|300:128|256:156,1,140
104,120,194150,2,0,L|196:128,1,70
172,272,194750,2,0,L|84:244,2,70
308,244,195650,5,0,0:0:0:0:
420,160,195950,2,0,P|392:116|360:104,2,70
404,300,196850,1,0,0:0:0:0:
268,272,197150,2,0,P|152:256|120:228,1,140
60,128,198050,5,0,0:0:0:0:
196,92,198350,2,0,P|264:88|336:136,1,140
240,236,199250,1,0,0:0:0:0:
240,236,199550,2,0,P|320:220|356:160,1,140
92,68,200750,6,0,P|80:136|96:212,1,140
220,144,201650,2,0,L|312:132,1,70
256,192,209150,12,0,212150,0:0:0:0:
112,112,212450,6,0,P|176:112|192:124,1,70
184,252,213050,1,0,0:0:0:0:
324,268,213350,2,0,P|388:204|376:144,1,140
268,84,214250,1,0,0:0:0:0:
268,84,214550,6,0,P|184:88|128:116,1,140
68,236,215450,1,0,0:0:0:0:
216,256,215750,2,0,P|288:264|352:212,2,140
200,124,217250,2,0,L|276:124,1,70
412,180,217850,2,0,P|376:224|344:236,1,70
236,284,218450,5,0,0:0:0:0:
236,284,218750,2,0,P|172:280|148:268,1,70
124,144,219350,2,0,B|172:116|172:116|216:152|216:152|264:120,1,140
340,72,221750,2,0,P|352:116|344:160,1,70
208,132,222350,1,0,0:0:0:0:
92,64,222650,5,0,0:0:0:0:
72,204,222950,2,0,P|96:240|208:256,1,140
324,240,223850,2,0,L|324:324,2,70
316,104,224750,2,0,P|256:96|172:116,1,140
60,188,225650,5,0,0:0:0:0:
180,264,225950,1,0,0:0:0:0:
332,240,226250,2,0,P|272:216|256:204,2,70
440,136,227150,2,0,P|384:108|284:112,1,140
168,92,228050,1,0,0:0:0:0:
100,212,228350,6,0,L|248:280,1,140
352,204,229250,2,0,P|380:164|376:124,1,70
248,100,229850,2,0,P|220:144|216:172,1,70
80,120,231350,2,0,P|136:120|168:132,1,70
136,264,231950,2,0,P|196:272|220:268,1,70
284,148,232550,6,0,P|344:124|368:136,1,70
420,260,233150,2,0,P|384:288|352:292,1,70
236,228,233750,1,0,0:0:0:0:
236,228,234350,1,0,0:0:0:0:
88,192,234950,2,0,P|92:140|184:104,1,140
