osu file format v14

[General]
AudioFilename: Savant Melodycircus.mp3
AudioLeadIn: 0
PreviewTime: 181609
Countdown: 0
SampleSet: Soft
StackLeniency: 0.5
Mode: 0
LetterboxInBreaks: 0
WidescreenStoryboard: 0

[Editor]
Bookmarks: 118105,160587
DistanceSpacing: 1
BeatDivisor: 4
GridSize: 4
TimelineZoom: 1.5

[Metadata]
Title:Melody Circus
TitleUnicode:Melody Circus
Artist:Savant
ArtistUnicode:Savant
Creator:AndreasHD
Version:1-bit
Source:
Tags:Dubstep Alchemist Aleksander Vinter
BeatmapID:547827
BeatmapSetID:104746

[Difficulty]
HPDrainRate:2
CircleSize:2
OverallDifficulty:2
ApproachRate:3
SliderMultiplier:1.20000000596046
SliderTickRate:1

[Events]
//Background and Video events
0,0,"SavantBackground.jpg",0,0
//Break Periods
2,97721,117103
2,141517,159147
//Storyboard Layer 0 (Background)
//Storyboard Layer 1 (Fail)
//Storyboard Layer 2 (Pass)
//Storyboard Layer 3 (Foreground)
//Storyboard Sound Samples

[TimingPoints]
13434.0705119197,437.956204379562,4,2,1,75,1,0
202631,-100,4,2,1,60,0,0
203069,-100,4,2,1,55,0,0
203507,-100,4,2,1,50,0,0
203945,-100,4,2,1,45,0,0
204382,-100,4,2,1,40,0,0
204820,-100,4,2,1,35,0,0
205258,-100,4,2,1,30,0,0
205696,-100,4,2,1,25,0,0
205769,-100,4,2,1,20,0,0
205842,-100,4,2,1,15,0,0
205915,-100,4,2,1,13,0,0
205988,-100,4,2,1,11,0,0
206061,-100,4,2,1,9,0,0
206134,-100,4,2,1,5,0,0

[Colours]
Combo1 : 240,66,47
Combo2 : 1,231,99
Combo3 : 21,156,255

[HitObjects]
376,140,13434,6,0,P|436:236|376:336,1,240.000001192092,12|8,0:0|0:0,0:0:0:0:
256,324,14747,1,8,0:1:0:0:
136,336,15185,2,0,P|76:240|138:141,1,240.000001192092,8|8,0:0|0:0,0:0:0:0:
256,164,16499,1,8,0:1:0:0:
364,108,16937,6,0,P|376:168|364:224,1,120.000000596046,8|8,0:0|0:1,0:0:0:0:
256,280,17813,1,8,0:0:0:0:
144,324,18251,1,8,0:1:0:0:
48,248,18689,2,0,P|28:192|48:136,2,120.000000596046,8|8|8,0:0|0:1|0:0,0:0:0:0:
156,300,20003,1,8,0:1:0:0:
232,204,20441,6,0,P|288:192|348:204,1,120.000000596046,8|8,0:0|0:1,0:0:0:0:
408,308,21317,2,0,P|352:320|292:308,1,120.000000596046,8|8,0:0|0:1,0:0:0:0:
232,204,22193,2,0,P|224:144|232:84,2,120.000000596046,8|8|8,0:0|0:1|0:0,0:0:0:0:
352,204,23507,1,8,0:1:0:0:
452,136,23945,5,8,0:0:0:0:
352,68,24382,1,8,0:1:0:0:
256,136,24820,2,0,B|200:152|200:152|140:136,1,120.000000596046,8|8,0:0|0:1,0:0:0:0:
36,200,25696,2,0,L|164:236,2,120.000000596046,8|8|8,0:0|0:1|0:0,0:0:0:0:
32,80,27010,1,8,0:1:0:0:
152,84,27448,6,0,B|180:88|208:84|208:84|256:128|256:128|312:112|376:128,2,240.000001192092,8|8|8,0:0|0:1|0:0,0:0:0:0:
16,284,30076,1,8,0:1:0:0:
256,316,30952,5,8,0:0:0:0:
368,276,31390,1,0,0:0:0:0:
468,208,31828,2,0,P|481:147|464:88,1,120.000000596046,8|0,0:1|0:0,0:0:0:0:
360,152,32704,2,0,B|308:152|308:112|248:112,1,120.000000596046,8|2,0:0|0:0,0:0:0:0:
139,160,33580,2,0,B|191:160|191:200|251:200,1,120.000000596046,0|2,0:0|0:0,0:0:0:0:
364,240,34455,6,0,B|364:264|364:264|376:304|376:304|376:360,2,120.000000596046,8|8|8,0:0|0:1|0:0,0:0:0:0:
364,120,35769,1,8,0:1:0:0:
244,120,36207,2,0,B|220:120|220:120|180:108|180:108|124:108,2,120.000000596046,8|8|8,0:0|0:1|0:0,0:0:0:0:
364,120,37521,1,8,0:1:0:0:
280,204,37959,6,0,L|212:268,2,80.000000397364,8|0|0,0:0|0:0|0:0,0:0:0:0:
360,224,38835,2,0,P|405:266|428:320,2,120.000000596046,8|8|8,0:0|0:1|0:0,0:0:0:0:
256,160,40149,1,8,0:1:0:0:
152,224,40587,2,0,P|106:266|84:320,2,120.000000596046,8|8|8,0:0|0:1|0:0,0:0:0:0:
256,288,41901,5,8,0:1:0:0:
362,232,42339,2,0,P|377:287|362:346,1,120.000000596046,8|8,0:0|0:1,0:0:0:0:
244,376,43215,2,0,B|220:376|220:376|180:364|180:364|156:364,2,80.000000397364,8|0|0,0:0|0:0|0:0,0:0:0:0:
320,352,44091,2,0,B|320:300|320:300|348:276|348:240,1,120.000000596046,8|8,0:0|0:1,0:0:0:0:
232,212,44966,5,8,0:0:0:0:
116,248,45404,1,8,0:1:0:0:
30,164,45842,2,0,P|80:133|151:133,2,120.000000596046,8|8|8,0:0|0:1|0:0,0:0:0:0:
116,248,47156,1,8,0:1:0:0:
202,331,47594,2,0,P|160:359|86:364,1,120.000000596046,8|8,0:0|0:1,0:0:0:0:
32,260,48470,6,0,B|28:244|32:224|32:224|32:188|32:188|20:144|32:100,1,160.000000794728,8|0,0:0|0:0,0:0:0:0:
67,29,49346,1,8,0:1:0:0:
160,104,49784,1,0,0:0:0:0:
260,36,50222,2,0,P|316:24|376:36,2,120.000000596046,8|0|8,0:0|0:0|0:1,0:0:0:0:
260,156,51536,1,0,0:0:0:0:
340,244,51974,6,0,B|328:276|328:276|328:324|328:324|316:360,1,120.000000596046,8|0,0:0|0:0,0:0:0:0:
196,360,52850,2,0,B|184:324|184:324|184:276|184:276|172:244,1,120.000000596046,8|0,0:1|0:0,0:0:0:0:
124,132,53726,1,8,0:0:0:0:
12,176,54163,1,0,0:0:0:0:
56,288,54601,1,0,0:0:0:0:
172,244,55039,1,0,0:0:0:0:
244,148,55477,6,0,B|300:148|304:188|356:188,1,120.000000596046,12|8,0:0|0:1,0:0:0:0:
352,308,56353,2,0,B|301:307|297:347|241:347,1,120.000000596046,8|8,0:0|0:1,0:0:0:0:
120,352,57229,2,0,P|36:292|120:236,2,240.000001192092,8|8|8,0:0|0:0|0:0,0:0:0:0:
228,296,59419,5,8,0:1:0:0:
312,208,59857,2,0,L|312:84,1,120.000000596046,8|8,0:0|0:1,0:0:0:0:
200,40,60733,2,0,L|200:164,1,120.000000596046,8|8,0:0|0:1,0:0:0:0:
92,212,61609,2,0,L|92:88,1,120.000000596046,8|8,0:0|0:1,0:0:0:0:
200,40,62485,6,0,B|296:40|296:160|396:160,1,240.000001192092,8|8,0:0|0:0,0:0:0:0:
412,280,63799,1,8,0:1:0:0:
312,344,64236,2,0,B|216:344|216:224|116:224,1,240.000001192092,8|8,0:0|0:0,0:0:0:0:
108,344,65550,1,8,0:1:0:0:
4,280,65988,6,0,P|-8:220|12:156,1,120.000000596046,8|8,0:0|0:1,0:0:0:0:
120,108,66864,2,0,P|132:168|112:232,1,120.000000596046,8|8,0:0|0:1,0:0:0:0:
7,164,67740,1,8,0:0:0:0:
32,48,68178,1,8,0:1:0:0:
148,16,68616,2,0,B|188:16|188:16|232:36|232:36|264:36,1,120.000000596046,8|8,0:0|0:1,0:0:0:0:
384,36,69492,5,8,0:0:0:0:
472,120,69930,1,0,0:0:0:0:
356,152,70368,2,0,P|340:208|356:268,1,120.000000596046,8|0,0:1|0:0,0:0:0:0:
452,340,71244,1,8,0:0:0:0:
336,372,71682,1,0,0:0:0:0:
255,282,72120,2,0,P|199:266|139:282,1,120.000000596046,8|0,0:1|0:0,0:0:0:0:
28,324,72996,6,0,L|8:200,1,120.000000596046,8|0,0:0|0:0,0:0:0:0:
128,188,73872,2,0,L|148:64,1,120.000000596046,8|0,0:1|0:0,0:0:0:0:
32,32,74747,1,8,0:0:0:0:
32,152,75185,1,0,0:0:0:0:
32,272,75623,2,0,P|88:288|148:272,2,120.000000596046,0|0|12,0:0|0:0|0:0,0:0:0:0:
90,166,76937,5,8,0:1:0:0:
208,172,77375,2,0,B|196:112|196:112|208:52,1,120.000000596046,8|8,0:0|0:1,0:0:0:0:
312,116,78251,2,0,B|324:176|324:176|312:236,1,120.000000596046,8|8,0:0|0:1,0:0:0:0:
212,300,79127,1,8,0:0:0:0:
96,324,79565,1,8,0:1:0:0:
47,214,80003,6,0,P|34:154|50:97,1,120.000000596046,8|8,0:0|0:1,0:0:0:0:
151,158,80879,2,0,P|209:170|267:158,2,120.000000596046,8|8|8,0:0|0:1|0:0,0:0:0:0:
209,52,82193,1,8,0:1:0:0:
328,43,82631,2,0,B|409:64|409:64|452:63,2,120.000000596046,8|8|8,0:0|0:1|0:0,0:0:0:0:
209,52,83945,5,8,0:1:0:0:
265,160,84382,1,8,0:0:0:0:
385,148,84820,1,8,0:1:0:0:
473,232,85258,2,0,B|473:288|433:288|433:344,2,120.000000596046,8|8|8,0:0|0:1|0:0,0:0:0:0:
353,216,86572,1,8,0:1:0:0:
277,308,87010,6,0,L|153:332,1,120.000000596046,8|8,0:0|0:1,0:0:0:0:
65,256,87886,2,0,L|189:232,2,120.000000596046,8|8|8,0:0|0:1|0:0,0:0:0:0:
97,140,89200,1,8,0:1:0:0:
53,28,89638,2,0,P|165:41|213:165,1,240.000001192092,8|8,0:0|0:0,0:0:0:0:
125,228,90952,5,0,0:0:0:0:
173,340,91390,1,8,0:1:0:0:
413,340,92266,1,8,0:0:0:0:
349,236,92704,1,0,0:0:0:0:
413,132,93142,1,8,0:1:0:0:
277,328,94018,6,0,P|239:273|236:214,1,120.000000596046,8|0,0:0|0:0,0:0:0:0:
349,236,94893,2,0,P|387:181|390:122,1,120.000000596046,8|0,0:1|0:0,0:0:0:0:
313,37,95769,5,10,0:0:0:0:
193,21,96207,1,0,0:0:0:0:
237,133,96645,1,2,0:0:0:0:
133,197,97083,1,0,0:0:0:0:
238,253,97521,1,14,0:0:0:0:
328,196,118543,5,8,0:0:0:0:
256,292,118981,1,8,0:1:0:0:
184,196,119419,2,0,P|168:136|184:80,1,120.000000596046,8|8,0:0|0:1,0:0:0:0:
292,28,120295,2,0,P|184:72|76:28,1,240.000001192092,8|8,0:0|0:0,0:0:0:0:
12,132,121609,1,8,0:1:0:0:
56,244,122047,6,0,P|113:259|170:243,2,120.000000596046,8|8|8,0:0|0:1|0:0,0:0:0:0:
112,136,123361,1,8,0:1:0:0:
12,72,123799,2,0,P|108:16|212:72,1,240.000001192092,8|8,0:0|0:0,0:0:0:0:
252,188,125112,1,8,0:1:0:0:
300,300,125550,6,0,P|344:340|408:356,1,120.000000596046,8|8,0:0|0:1,0:0:0:0:
492,276,126426,2,0,P|500:212|376:104,1,240.000001192092,8|8,0:0|0:0,0:0:0:0:
304,200,127740,1,8,0:1:0:0:
200,264,128178,1,8,0:0:0:0:
84,228,128616,1,8,0:1:0:0:
39,116,129054,6,0,B|83:101|124:115|124:115|184:92|184:92|228:108|272:92,1,240.000001192092,8|8,0:0|0:1,0:0:0:0:
360,8,130368,1,0,0:0:0:0:
448,92,130806,2,0,P|468:144|324:196,1,240.000001192092,8|8,0:0|0:1,0:0:0:0:
256,116,132120,1,0,0:0:0:0:
175,208,132558,6,0,P|66:201|64:92,1,240.000001192092,8|8,0:0|0:1,0:0:0:0:
160,16,133872,1,0,0:0:0:0:
276,52,134309,2,0,B|324:143|229:194|276:282,1,240.000001192092,8|8,0:0|0:1,0:0:0:0:
380,348,135623,1,0,0:0:0:0:
356,232,136061,6,0,P|232:200|180:292,1,240.000001192092,8|8,0:0|0:1,0:0:0:0:
256,376,137375,1,0,0:0:0:0:
368,328,137813,5,8,0:0:0:0:
271,256,138251,1,2,0:0:0:0:
381,208,138689,1,8,0:1:0:0:
284,136,139127,1,2,0:0:0:0:
256,192,139455,12,0,141317,0:0:0:0:
256,252,160587,6,0,P|196:268|140:252,1,120.000000596046,8|8,0:0|0:1,0:0:0:0:
64,160,161463,1,8,0:0:0:0:
140,64,161901,1,8,0:1:0:0:
248,116,162339,2,0,L|368:116,1,120.000000596046,8|8,0:0|0:1,0:0:0:0:
444,212,163215,2,0,L|324:212,2,120.000000596046,8|8|8,0:0|0:1|0:0,0:0:0:0:
384,316,164528,5,8,0:1:0:0:
272,360,164966,2,0,P|212:368|152:360,1,120.000000596046,8|8,0:0|0:1,0:0:0:0:
68,276,165842,1,8,0:0:0:0:
154,193,166280,1,8,0:1:0:0:
68,108,166718,2,0,B|32:64|32:64|68:12,2,120.000000596046,8|8|8,0:0|0:1|0:0,0:0:0:0:
180,60,168032,5,8,0:1:0:0:
300,60,168470,2,0,B|340:60|340:60|408:108,1,120.000000596046,8|8,0:0|0:1,0:0:0:0:
456,216,169346,1,8,0:0:0:0:
360,288,169784,1,8,0:1:0:0:
268,208,170222,2,0,P|208:192|152:208,2,120.000000596046,8|8|8,0:0|0:1|0:0,0:0:0:0:
210,313,171536,5,8,0:1:0:0:
90,326,171974,1,8,0:0:0:0:
28,222,172412,1,8,0:1:0:0:
108,132,172850,2,0,L|108:12,1,120.000000596046,8|8,0:0|0:1,0:0:0:0:
204,84,173726,2,0,B|204:124|204:124|216:164|216:164|216:204,1,120.000000596046,8|8,0:0|0:1,0:0:0:0:
116,272,174601,6,0,P|224:236|340:272,1,240.000001192092,8|8,0:0|0:1,0:0:0:0:
484,80,176353,2,0,P|376:116|260:80,1,240.000001192092,8|8,0:0|0:1,0:0:0:0:
48,192,178105,6,0,L|80:308,1,120.000000596046,8|0,0:0|0:0,0:0:0:0:
200,308,178981,2,0,L|232:192,1,120.000000596046,8|0,0:1|0:0,0:0:0:0:
140,112,179857,1,8,0:0:0:0:
240,44,180295,1,2,0:0:0:0:
340,112,180733,1,0,0:0:0:0:
440,44,181171,1,2,0:0:0:0:
448,164,181609,6,0,B|432:216|432:216|388:228|356:264|356:264|308:252|260:264,1,240.000001192092,12|8,0:0|0:0,0:0:0:0:
156,324,182923,1,8,0:1:0:0:
52,264,183361,2,0,B|32:240|32:240|43:201|48:148,2,120.000000596046,8|8|8,0:0|0:1|0:0,0:0:0:0:
160,212,184674,1,8,0:1:0:0:
236,116,185112,6,0,P|296:100|352:116,2,120.000000596046,8|8|8,0:0|0:1|0:0,0:0:0:0:
294,221,186426,1,8,0:1:0:0:
380,308,186864,2,0,B|404:284|404:284|432:196,1,120.000000596046,8|8,0:0|0:1,0:0:0:0:
492,100,187740,2,0,P|432:84|368:100,1,120.000000596046,8|8,0:0|0:1,0:0:0:0:
276,164,188616,5,8,0:0:0:0:
168,216,189054,1,8,0:1:0:0:
56,260,189492,2,0,B|40:233|16:216|16:216|41:197|56:168,2,120.000000596046,8|8|8,0:0|0:1|0:0,0:0:0:0:
135,350,190806,1,8,0:1:0:0:
240,292,191244,2,0,B|280:292|280:292|320:308|320:308|356:308,1,120.000000596046,8|8,0:0|0:1,0:0:0:0:
456,236,192120,6,0,B|420:236|420:236|380:220|380:220|340:220,2,120.000000596046,8|8|8,0:0|0:1|0:0,0:0:0:0:
504,124,193434,1,8,0:1:0:0:
416,40,193872,2,0,P|316:96|216:40,1,240.000001192092,8|8,0:0|0:0,0:0:0:0:
136,132,195185,1,8,0:1:0:0:
24,180,195623,6,0,P|132:164|124:276,1,240.000001192092,8|8,0:0|0:1,0:0:0:0:
377,267,197375,2,0,P|383:161|488:180,1,240.000001192092,8|8,0:0|0:1,0:0:0:0:
285,49,199127,6,0,P|227:32|170:48,1,120.000000596046,8|0,0:0|0:0,0:0:0:0:
227,153,200003,2,0,P|285:170|342:154,1,120.000000596046,8|0,0:1|0:0,0:0:0:0:
404,52,200879,5,8,0:0:0:0:
453,161,201317,1,2,0:0:0:0:
365,243,201755,1,0,0:0:0:0:
256,192,202193,1,2,0:0:0:0:
256,192,202631,12,0,206134,0:0:0:0:
