osu file format v14

[General]
AudioFilename: KaKali 47.mp3
AudioLeadIn: 0
PreviewTime: 5973
Countdown: 0
SampleSet: Normal
StackLeniency: 0.7
Mode: 0
LetterboxInBreaks: 0
WidescreenStoryboard: 0

[Editor]
DistanceSpacing: 0.7
BeatDivisor: 8
GridSize: 4
TimelineZoom: 2

[Metadata]
Title:Kali 47
TitleUnicode:Kali 47
Artist:Savant
ArtistUnicode:Savant
Creator:EvilElvis
Version:Toxic
Source:
Tags:irreversible
BeatmapID:663898
BeatmapSetID:295523

[Difficulty]
HPDrainRate:6.5
CircleSize:3.9
OverallDifficulty:8
ApproachRate:9
SliderMultiplier:1.7
SliderTickRate:1

[Events]
//Background and Video events
0,0,"asdgsdg.jpg",0,0
//Break Periods
//Storyboard Layer 0 (Background)
//Storyboard Layer 1 (Fail)
//Storyboard Layer 2 (Pass)
//Storyboard Layer 3 (Foreground)
//Storyboard Sound Samples

[TimingPoints]
48,370.37037037037,4,1,0,60,1,0
48,-133.333333333333,4,1,0,60,0,0
1159,-200,4,1,0,60,0,0
1529,-133.333333333333,4,1,0,60,0,0
5973,-100,4,1,0,60,0,0
19862,-76.9230769230769,4,1,0,60,0,0
20418,-100,4,1,0,60,0,0
25973,-76.9230769230769,4,1,0,60,0,0
26344,-100,4,1,0,60,0,0
34862,-76.9230769230769,4,1,0,60,0,0
35233,-100,4,1,0,60,0,0
36344,-76.9230769230769,4,1,0,60,0,0
36899,-100,4,1,0,60,0,0
41529,-166.666666666667,4,1,0,60,0,0
53010,-83.3333333333333,4,1,0,60,0,0
53381,-66.6666666666667,4,1,0,60,0,0
53751,-100,4,1,0,60,0,0
55973,-58.8235294117647,4,1,0,60,0,0
56344,-166.666666666667,4,1,0,60,0,0
56714,-100,4,1,0,60,0,0
57825,-76.9230769230769,4,1,0,60,0,0
58936,-58.8235294117647,4,1,0,60,0,0
59307,-200,4,1,0,60,0,0
59677,-76.9230769230769,4,1,0,60,0,0
60418,-100,4,1,0,60,0,0
61899,-58.8235294117647,4,1,0,60,0,0
62270,-200,4,1,0,60,0,0
62640,-90.9090909090909,4,1,0,60,0,0
62825,-200,4,1,0,60,0,0
63751,-100,4,1,0,60,0,0
64492,-66.6666666666667,4,1,0,60,0,0
65973,-76.9230769230769,4,1,0,60,0,0
66159,-58.8235294117647,4,1,0,60,0,0
66714,-66.6666666666667,4,1,0,60,0,0
67085,-100,4,1,0,60,0,0
67825,-66.6666666666667,4,1,0,60,0,0
68196,-200,4,1,0,60,0,0
68566,-100,4,1,0,60,0,0
69307,-58.8235294117647,4,1,0,60,0,0
69677,-100,4,1,0,60,0,0
70047,-76.9230769230769,4,1,0,60,0,0
72640,-133.333333333333,4,1,0,60,0,0
73751,-58.8235294117647,4,1,0,60,0,0
74122,-200,4,1,0,60,0,0
77085,-133.333333333333,4,1,0,60,0,0
77455,-100,4,1,0,60,0,0
78196,-76.9230769230769,4,1,0,60,0,0
78566,-100,4,1,0,60,0,0
79677,-58.8235294117647,4,1,0,60,0,0
80047,-166.666666666667,4,1,0,60,0,0
80418,-100,4,1,0,60,0,0
80788,-66.6666666666667,4,1,0,60,0,0
81529,-76.9230769230769,4,1,0,60,0,0
82455,-200,4,1,0,60,0,0
82640,-58.8235294117647,4,1,0,60,0,0
83010,-125,4,1,0,60,0,0
83381,-76.9230769230769,4,1,0,60,0,0
84492,-100,4,1,0,60,0,0
85418,-76.9230769230769,4,1,0,60,0,0
88936,-100,4,1,0,60,0,0
94862,-76.9230769230769,4,1,0,60,0,0
95233,-100,4,1,0,60,0,0
112640,-200,4,1,0,60,0,0
124492,-100,4,1,0,60,0,0
125233,-66.6666666666667,4,1,0,60,0,0
125973,-133.333333333333,4,1,0,60,0,0
127455,-100,4,1,0,60,0,0
128196,-66.6666666666667,4,1,0,60,0,0
128936,-133.333333333333,4,1,0,60,0,0
129492,-76.9230769230769,4,1,0,60,0,0
130418,-200,4,1,0,60,0,0
131159,-66.6666666666667,4,1,0,60,0,0
133010,-133.333333333333,4,1,0,60,0,0
134862,-100,4,1,0,60,0,0
136344,-58.8235294117647,4,1,0,60,0,0
137270,-66.6666666666667,4,1,0,60,0,0
139307,-200,4,1,0,60,0,0
140047,-100,4,1,0,60,0,0
140233,-66.6666666666667,4,1,0,60,0,0
140788,-133.333333333333,4,1,0,60,0,0
141159,-76.9230769230769,4,1,0,60,0,0
142270,-133.333333333333,4,1,0,60,0,0
143751,-100,4,1,0,60,0,0
144492,-66.6666666666667,4,1,0,60,0,0
144862,-58.8235294117647,4,1,0,60,0,0
147085,-100,4,1,0,60,0,0
147455,-133.333333333333,4,1,0,60,0,0
149677,-100,4,1,0,60,0,0
150788,-58.8235294117647,4,1,0,60,0,0
151159,-133.333333333333,4,1,0,60,0,0
152640,-100,4,1,0,60,0,0
153751,-58.8235294117647,4,1,0,60,0,0
154122,-100,4,1,0,60,0,0
156344,-66.6666666666667,4,1,0,60,0,0
156529,-100,4,1,0,60,0,0
157085,-76.9230769230769,4,1,0,60,0,0
158566,-133.333333333333,4,1,0,60,0,0
159307,-76.9230769230769,4,1,0,60,0,0
160047,-100,4,1,0,60,0,0
160788,-76.9230769230769,4,1,0,60,0,0
161159,-166.666666666667,4,1,0,60,0,0
161529,-100,4,1,0,60,0,0
162640,-58.8235294117647,4,1,0,60,0,0
163010,-133.333333333333,4,1,0,60,0,0
163751,-76.9230769230769,4,1,0,60,0,0
164122,-166.666666666667,4,1,0,60,0,0
165603,-58.8235294117647,4,1,0,60,0,0
166714,-76.9230769230769,4,1,0,60,0,0
167085,-166.666666666667,4,1,0,60,0,0
167455,-100,4,1,0,60,0,0
168196,-66.6666666666667,4,1,0,60,0,0
168936,-133.333333333333,4,1,0,60,0,0
170418,-76.9230769230769,4,1,0,60,0,0
171899,-133.333333333333,4,1,0,60,0,0
228196,-200,4,1,0,60,0,0
246714,-100,4,1,0,60,0,0
250418,-83.3333333333333,4,1,0,60,0,0
251159,-100,4,1,0,60,0,0
251899,-83.3333333333333,4,1,0,60,0,0
252640,-100,4,1,0,60,0,0
253381,-200,4,1,0,60,0,0
254862,-83.3333333333333,4,1,0,60,0,0
255233,-74.0740740740741,4,1,0,60,0,0
256344,-100,4,1,0,60,0,0
257085,-133.333333333333,4,1,0,60,0,0
257455,-76.9230769230769,4,1,0,60,0,0
258010,-133.333333333333,4,1,0,60,0,0
258566,-83.3333333333333,4,1,0,60,0,0
258751,-133.333333333333,4,1,0,60,0,0
259307,-200,4,1,0,60,0,0
260047,-100,4,1,0,60,0,0
260788,-80,4,1,0,60,0,0
261529,-76.9230769230769,4,1,0,60,0,1
261529,-76.9230769230769,4,1,0,60,0,1
261899,-66.6666666666667,4,1,0,60,0,1
262270,-76.9230769230769,4,1,0,60,0,0
263010,-100,4,1,0,60,0,0
263751,-133.333333333333,4,1,0,60,0,0
266344,-66.6666666666667,4,1,0,60,0,0
267455,-100,4,1,0,60,0,0
270788,-76.9230769230769,4,1,0,60,0,0
272637,-66.6666666666667,4,1,0,60,0,0
273381,-66.6666666666667,4,1,0,60,0,0
274862,-100,4,1,0,60,0,0
276344,-200,4,1,0,60,0,0
276714,-76.9230769230769,4,1,0,60,0,0
277825,-100,4,1,0,60,0,0

[Colours]
Combo1 : 255,100,177
Combo2 : 255,168,81
Combo3 : 169,255,83
Combo4 : 64,255,159
Combo5 : 170,85,255

[HitObjects]
44,184,48,6,0,P|109:179|185:189,1,127.500004863739
324,71,603,2,0,P|261:76|198:70,1,127.500004863739
33,297,1159,5,0,0:0:0:0:
33,297,1529,6,0,P|66:300|115:307,1,63.7500024318696
174,254,1899,1,0,0:0:0:0:
252,339,2085,2,0,P|256:279|266:188,1,127.500004863739
279,32,2640,1,0,0:0:0:0:
279,32,2825,1,0,0:0:0:0:
328,130,3010,6,0,P|382:135|459:129,1,127.500004863739
507,240,3566,2,0,P|444:234|381:240,1,127.500004863739
131,126,4122,5,0,0:0:0:0:
131,126,4492,6,0,P|134:164|134:210,1,63.7500024318696
131,127,4862,1,0,0:0:0:0:
176,37,5047,2,0,P|125:45|46:34,1,127.500004863739
272,128,5603,1,0,0:0:0:0:
272,128,5788,1,0,0:0:0:0:
301,333,5973,6,0,B|402:345|362:283|468:292,1,170
497,214,6529,1,0,0:0:0:0:
455,139,6714,2,0,P|452:101|455:51,1,85
380,11,7085,1,0,0:0:0:0:
358,205,7270,6,0,L|178:210,1,170
172,194,7733,1,0,0:0:0:0:
159,177,7825,2,0,L|177:79,1,85
259,100,8196,2,0,L|242:12,1,85
18,249,8566,1,0,0:0:0:0:
140,310,8751,1,0,0:0:0:0:
55,106,8936,6,0,L|42:19,1,85
3,175,9307,2,0,P|55:152|156:203,1,170
243,309,9862,2,0,L|216:116,1,170
206,33,10418,6,0,P|246:29|293:22,1,85
290,22,10696,1,0,0:0:0:0:
290,22,10788,1,0,0:0:0:0:
363,116,10973,1,0,0:0:0:0:
411,30,11159,1,0,0:0:0:0:
466,172,11344,1,0,0:0:0:0:
512,85,11529,2,0,P|512:46|514:-2,1,85
301,228,11899,6,0,P|212:239|126:224,1,170
387,258,12455,1,0,0:0:0:0:
475,268,12640,2,0,P|472:315|480:379,2,85
465,80,13196,1,0,0:0:0:0:
393,139,13381,6,0,P|338:142|291:138,1,85
308,140,13659,1,0,0:0:0:0:
308,140,13751,1,0,0:0:0:0:
421,213,13936,1,0,0:0:0:0:
512,119,14122,1,0,0:0:0:0:
396,55,14307,1,0,0:0:0:0:
308,140,14492,1,0,0:0:0:0:
503,207,14677,1,0,0:0:0:0:
286,27,14862,2,0,L|197:42,1,85
113,62,15233,1,0,0:0:0:0:
247,187,15418,6,0,P|179:160|72:178,1,170
28,97,15973,2,0,P|29:53|28:3,1,85
337,161,16344,2,0,P|336:205|337:255,1,85
257,347,16714,5,0,0:0:0:0:
247,111,16899,1,0,0:0:0:0:
247,111,17085,1,0,0:0:0:0:
170,275,17270,2,0,L|128:295,2,42.5
337,162,17640,1,0,0:0:0:0:
135,196,17825,6,0,L|145:21,1,170
57,162,18381,1,0,0:0:0:0:
24,241,18566,2,0,L|44:333,1,85
240,360,18936,1,0,0:0:0:0:
288,277,19122,6,0,P|245:266|140:334,1,170
143,326,19585,1,0,0:0:0:0:
143,326,19677,1,0,0:0:0:0:
478,186,19862,6,0,B|332:211|391:131|263:155,1,220.999989883423
479,268,20418,2,0,P|479:312|483:361,1,85
446,108,20788,2,0,P|445:65|449:23,1,85
154,158,21159,6,0,L|90:221,1,85
254,216,21529,2,0,L|235:124,1,85
160,270,21899,2,0,L|238:302,1,85
78,91,22270,2,0,L|44:172,1,85
45,169,22547,1,0,0:0:0:0:
45,169,22640,5,0,0:0:0:0:
347,197,22825,1,0,0:0:0:0:
323,129,23010,2,0,L|264:65,1,85
174,323,23381,2,0,L|292:307,1,85
374,285,23751,6,0,P|331:299|220:231,1,170
420,176,24307,1,0,0:0:0:0:
493,264,24492,2,0,P|490:311|493:351,1,85
365,234,24862,1,0,0:0:0:0:
365,234,25047,6,0,P|363:174|368:62,1,170
361,43,25510,1,0,0:0:0:0:
352,23,25603,2,0,P|306:23|263:21,1,85
78,254,25973,6,0,P|115:203|271:178,1,220.999989883423
262,174,26529,1,0,0:0:0:0:
262,174,26714,1,0,0:0:0:0:
262,174,26900,1,0,0:0:0:0:
116,357,27085,6,0,P|58:353|21:357,1,85
177,303,27455,2,0,P|219:298|261:301,1,85
346,307,27825,1,0,0:0:0:0:
346,307,28010,1,0,0:0:0:0:
501,288,28196,6,0,P|500:237|509:110,1,170
417,349,28751,1,0,0:0:0:0:
354,223,28936,2,0,P|354:162|351:84,1,127.5
351,95,29307,2,0,L|259:87,1,85
211,348,29677,5,0,0:0:0:0:
211,348,30047,2,0,P|152:342|120:339,2,85
300,287,30603,2,0,P|316:241|231:161,2,170
300,287,31436,1,0,0:0:0:0:
300,287,31529,1,0,0:0:0:0:
149,329,31714,1,0,0:0:0:0:
35,283,31899,1,0,0:0:0:0:
112,196,32085,1,0,0:0:0:0:
223,234,32270,1,0,0:0:0:0:
149,329,32455,1,0,0:0:0:0:
20,189,32640,6,0,P|19:142|14:77,1,85
164,136,33010,1,0,0:0:0:0:
104,283,33196,1,0,0:0:0:0:
89,109,33381,2,0,P|90:62|95:-3,1,85
261,268,33751,1,0,0:0:0:0:
188,324,33936,2,0,P|185:254|197:140,1,170
199,133,34399,1,0,0:0:0:0:
204,112,34492,2,0,P|244:111|294:107,1,85
498,349,34862,6,0,B|350:368|432:278|272:299,1,220.999989883423
288,218,35418,1,0,0:0:0:0:
498,172,35603,6,0,P|497:126|500:81,1,85
323,50,35973,2,0,P|325:92|324:134,1,85
444,23,36344,1,0,0:0:0:0:
88,36,36529,6,0,P|181:72|233:184,1,220.999989883423
9,128,37085,5,0,0:0:0:0:
9,128,37270,2,0,P|71:114|159:189,1,170
73,286,37825,2,0,L|62:180,1,85
157,262,38196,1,0,0:0:0:0:
157,262,38381,1,0,0:0:0:0:
157,262,38566,1,0,0:0:0:0:
212,326,38751,5,0,0:0:0:0:
237,242,38936,2,0,L|250:142,1,85
328,354,39307,2,0,L|315:254,1,85
382,154,39677,2,0,L|395:54,1,85
480,241,40047,2,0,L|467:141,2,85
280,227,40603,5,0,0:0:0:0:
428,57,40788,1,0,0:0:0:0:
384,293,40973,1,0,0:0:0:0:
301,115,41159,2,0,P|298:66|295:27,1,85
186,331,41529,6,0,L|81:357,1,101.999996887207
318,299,42085,2,0,L|423:271,1,101.999996887207
197,329,42640,2,0,L|92:355,1,101.999996887207
307,304,43196,2,0,L|412:276,1,101.999996887207
199,237,43751,5,0,0:0:0:0:
31,201,43936,1,0,0:0:0:0:
199,237,44122,1,0,0:0:0:0:
31,201,44307,1,0,0:0:0:0:
186,331,44492,6,0,L|81:357,1,101.999996887207
318,299,45048,2,0,L|423:271,1,101.999996887207
197,329,45603,2,0,L|92:355,1,101.999996887207
307,304,46159,2,0,L|412:276,1,101.999996887207
307,175,46714,5,0,0:0:0:0:
498,231,46899,1,0,0:0:0:0:
307,175,47085,1,0,0:0:0:0:
498,231,47270,1,0,0:0:0:0:
186,331,47455,6,0,L|81:357,1,101.999996887207
318,299,48011,2,0,L|423:271,1,101.999996887207
197,329,48566,2,0,L|92:355,1,101.999996887207
307,304,49122,2,0,L|412:276,1,101.999996887207
199,237,49677,5,0,0:0:0:0:
31,201,49862,1,0,0:0:0:0:
199,237,50048,1,0,0:0:0:0:
31,201,50233,1,0,0:0:0:0:
0,118,50418,6,0,L|10:67,1,50.9999984436036
87,77,50788,2,0,L|76:26,1,50.9999984436036
155,120,51159,2,0,L|165:69,1,50.9999984436036
240,79,51529,2,0,L|229:28,1,50.9999984436036
307,126,51899,2,0,L|317:75,1,50.9999984436036
393,76,52270,5,0,0:0:0:0:
383,25,52455,1,0,0:0:0:0:
298,205,52640,1,0,0:0:0:0:
510,157,52825,1,0,0:0:0:0:
402,121,53010,2,0,P|349:172|356:246,1,152.999995330811
380,355,53381,6,0,P|376:324|290:285,1,127.500004863739
248,349,53751,2,0,L|299:359,1,42.5
201,283,53936,2,0,L|150:293,1,42.5
79,353,54122,2,0,L|130:363,1,42.5
60,267,54307,1,0,0:0:0:0:
35,113,54492,2,0,L|20:14,1,85
119,120,54862,6,0,P|62:128|37:202,1,127.5
52,211,55233,1,0,0:0:0:0:
199,113,55418,2,0,P|198:55|127:21,1,127.5
115,36,55789,1,0,0:0:0:0:
168,215,55973,2,0,B|250:196|250:196|267:154|267:154|355:129,1,216.750004134178
372,106,56344,6,0,B|390:189,1,76.4999976654053
315,280,56714,6,0,L|323:224,1,42.5
475,213,56899,2,0,L|493:254,1,42.5
396,372,57085,6,0,L|388:337,1,21.25
409,266,57270,1,0,0:0:0:0:
409,266,57455,1,0,0:0:0:0:
403,184,57640,2,0,L|415:153,1,21.25
496,315,57825,6,0,P|487:276|322:215,1,220.999989883423
323,82,58381,2,0,P|283:87|208:246,1,220.999989883423
85,242,58936,6,0,P|91:281|252:351,1,220.999989883423
291,303,59307,6,0,L|283:258,1,42.5
262,29,59677,2,0,L|387:43,1,110.499994941712
466,50,60047,1,0,0:0:0:0:
211,91,60233,1,0,0:0:0:0:
211,91,60325,1,0,0:0:0:0:
211,91,60418,2,0,L|112:107,1,85
14,345,60788,6,0,L|159:325,1,127.5
162,346,61159,1,0,0:0:0:0:
38,245,61344,2,0,L|183:225,1,127.5
186,246,61715,1,0,0:0:0:0:
93,140,61899,6,0,L|246:118,1,144.500002756119
448,329,62270,6,0,B|494:321|494:321|471:314,1,63.75
374,338,62640,6,0,L|312:347,1,46.7500014266968
256,355,62825,6,0,B|203:359|203:359|241:345,1,85
482,243,63381,1,0,0:0:0:0:
331,219,63566,1,0,0:0:0:0:
470,162,63751,6,0,L|481:72,1,85
361,111,64122,2,0,L|350:21,1,85
306,359,64492,6,0,L|351:367,1,31.8750012159348
215,368,64677,1,0,0:0:0:0:
172,377,64769,1,0,0:0:0:0:
134,355,64862,1,0,0:0:0:0:
120,314,64954,1,0,0:0:0:0:
137,274,65047,1,0,0:0:0:0:
176,255,65139,1,0,0:0:0:0:
256,294,65233,6,0,L|235:31,1,255.000009727478
439,106,65788,1,0,0:0:0:0:
377,349,65973,1,0,0:0:0:0:
477,183,66159,1,0,0:0:0:0:
352,270,66344,2,0,P|406:307|491:266,1,144.500002756119
344,165,66714,2,0,P|249:140|161:213,1,191.250007295609
153,181,67085,6,0,P|154:227|162:280,1,85
4,337,67455,1,0,0:0:0:0:
0,116,67640,1,0,0:0:0:0:
126,363,67825,2,0,B|251:379|188:315|325:326,1,191.250007295609
308,292,68196,6,0,L|300:222,1,63.75
377,220,68566,6,0,L|429:210,1,42.5
506,162,68751,2,0,L|454:152,1,42.5
315,126,68936,2,0,L|367:116,1,42.5
512,80,69122,1,0,0:0:0:0:
247,32,69307,2,0,L|92:55,1,144.500002756119
158,196,69677,6,0,P|112:149|0:164,1,170
12,352,70233,2,0,P|78:378|210:298,1,220.999989883423
112,267,70788,2,0,L|-2:269,1,110.499994941712
274,310,71159,5,0,0:0:0:0:
324,308,71251,1,0,0:0:0:0:
368,283,71344,1,0,0:0:0:0:
388,236,71436,1,0,0:0:0:0:
376,186,71529,6,0,L|354:167,1,21.25
328,87,71714,2,0,L|299:93,1,21.25
222,37,71899,2,0,L|209:67,1,21.25
113,70,72085,1,0,0:0:0:0:
79,185,72270,1,0,0:0:0:0:
196,225,72455,1,0,0:0:0:0:
242,118,72640,2,0,L|173:145,1,63.7500024318696
331,38,73010,2,0,L|315:104,1,63.7500024318696
361,162,73381,2,0,L|383:228,1,63.7500024318696
512,261,73751,6,0,P|517:175|392:114,1,216.750004134178
411,74,74122,6,0,L|406:27,1,42.5
329,12,74492,2,0,L|324:54,1,42.5
252,190,74862,2,0,L|247:147,1,42.5
187,19,75233,2,0,L|182:61,1,42.5
109,202,75603,5,0,0:0:0:0:
109,202,75788,1,0,0:0:0:0:
17,317,75973,1,0,0:0:0:0:
17,317,76159,1,0,0:0:0:0:
150,377,76344,1,0,0:0:0:0:
149,377,76529,1,0,0:0:0:0:
234,277,76714,2,0,L|221:237,1,42.5
251,353,77085,6,0,L|357:366,1,95.6250036478044
418,319,77455,6,0,L|471:336,1,42.5
371,255,77640,2,0,L|346:297,1,42.5
447,248,77825,2,0,L|427:200,1,42.5
403,135,78010,1,0,0:0:0:0:
504,13,78196,1,0,0:0:0:0:
338,86,78381,1,0,0:0:0:0:
503,357,78566,6,0,L|516:264,1,85
503,357,78936,1,0,0:0:0:0:
320,221,79122,2,0,L|333:314,1,85
320,221,79492,1,0,0:0:0:0:
468,125,79677,6,0,P|446:81|293:54,1,216.750004134178
270,39,80047,6,0,L|278:119,1,76.4999976654053
206,129,80418,2,0,L|162:133,1,42.5
93,157,80603,2,0,L|49:161,1,42.5
280,188,80788,2,0,L|408:198,1,127.500004863739
503,360,81159,1,0,0:0:0:0:
391,274,81344,1,0,0:0:0:0:
418,89,81529,6,0,P|516:123|505:246,1,220.999989883423
279,119,82085,2,0,L|289:4,1,110.499994941712
205,189,82455,6,0,L|178:193,1,21.25
271,223,82640,6,0,L|47:204,1,216.750004134178
34,178,83010,6,0,L|45:259,1,68
112,123,83381,2,0,L|95:-2,1,110.499994941712
211,114,83751,6,0,L|240:117,1,27.6249987354279
330,146,83936,2,0,L|359:149,1,27.6249987354279
195,122,84122,6,0,L|224:125,1,27.6249987354279
319,156,84307,2,0,L|348:159,1,27.6249987354279
441,197,84492,5,0,0:0:0:0:
441,197,84677,1,0,0:0:0:0:
256,290,84862,1,0,0:0:0:0:
256,290,85047,1,0,0:0:0:0:
270,92,85233,1,0,0:0:0:0:
416,191,85418,6,0,L|455:203,1,27.6249987354279
283,116,85603,6,0,L|265:82,1,27.6249987354279
267,265,85788,6,0,L|249:306,1,27.6249987354279
309,353,85973,5,0,0:0:0:0:
322,194,86159,1,0,0:0:0:0:
173,245,86344,1,0,0:0:0:0:
195,358,86529,5,0,0:0:0:0:
219,156,86714,1,0,0:0:0:0:
390,283,86899,1,0,0:0:0:0:
9,87,87085,5,0,0:0:0:0:
9,87,87455,5,0,0:0:0:0:
9,87,87640,1,0,0:0:0:0:
148,40,87825,1,0,0:0:0:0:
148,40,88010,2,0,P|81:51|34:200,1,220.999989883423
177,225,88566,2,0,P|174:168|136:111,1,110.499994941712
23,354,88936,6,0,P|64:355|132:358,1,85
84,256,89307,2,0,P|41:257|0:258,1,85
272,316,89677,1,0,0:0:0:0:
153,202,89862,1,0,0:0:0:0:
209,367,90047,1,0,0:0:0:0:
426,206,90233,6,0,B|326:187|363:239|232:207,1,170
250,193,90696,1,0,0:0:0:0:
244,172,90788,2,0,L|257:67,1,85
258,13,91159,1,0,0:0:0:0:
258,13,91344,1,0,0:0:0:0:
137,131,91529,1,0,0:0:0:0:
339,38,91714,1,0,0:0:0:0:
85,67,91899,6,0,P|91:141|85:255,1,170
272,373,92455,1,0,0:0:0:0:
272,373,92640,2,0,P|266:299|272:185,1,170
175,131,93196,2,0,P|177:199|174:320,1,170
160,316,93659,1,0,0:0:0:0:
145,331,93751,2,0,P|94:340|56:350,1,85
0,157,94122,5,0,0:0:0:0:
74,252,94307,1,0,0:0:0:0:
239,64,94492,5,0,0:0:0:0:
114,140,94677,1,0,0:0:0:0:
160,30,94862,6,0,P|259:42|393:24,1,220.999989883423
328,150,95418,5,0,0:0:0:0:
460,211,95603,2,0,P|459:263|462:319,2,85
252,252,96159,2,0,P|305:252|380:356,1,170
220,356,96714,1,0,0:0:0:0:
220,356,96807,1,0,0:0:0:0:
220,356,96899,1,0,0:0:0:0:
147,246,97085,2,0,L|152:151,1,85
8,55,97455,1,0,0:0:0:0:
35,222,97640,1,0,0:0:0:0:
78,121,97825,6,0,P|99:55|196:23,1,170
297,75,98381,1,0,0:0:0:0:
246,175,98566,2,0,L|151:169,1,85
209,91,98936,1,0,0:0:0:0:
278,255,99122,2,0,L|485:235,1,170
162,296,99677,6,0,L|118:376,1,85
188,137,100047,2,0,L|125:45,1,85
385,192,100418,2,0,L|479:206,1,85
281,360,100788,6,0,B|378:375|340:320|448:337,1,170,0|0,0:0|0:0,0:0:0:0:
274,269,101344,2,0,L|267:175,1,85
176,267,101714,2,0,L|189:74,1,170
27,27,102270,6,0,L|25:111,1,85
25,111,102547,1,0,0:0:0:0:
25,111,102640,1,0,0:0:0:0:
153,32,102825,1,0,0:0:0:0:
277,140,103010,1,0,0:0:0:0:
137,242,103196,1,0,0:0:0:0:
25,111,103381,2,0,L|126:121,1,85
226,248,103751,6,0,P|178:203|70:209,1,170
97,291,104307,1,0,0:0:0:0:
273,148,104492,2,0,P|321:103|429:109,1,170
207,73,105047,2,0,P|159:28|51:34,1,170
49,52,105510,1,0,0:0:0:0:
44,77,105603,6,0,L|61:178,1,85
265,326,105973,2,0,L|248:225,1,85
310,177,106344,1,0,0:0:0:0:
310,177,106529,1,0,0:0:0:0:
491,321,106714,6,0,P|451:361|340:335,1,170
253,90,107270,1,0,0:0:0:0:
326,38,107455,2,0,P|376:47|401:88,1,85
478,138,107825,2,0,P|449:167|407:171,1,85
145,85,108196,5,0,0:0:0:0:
205,20,108381,2,0,P|259:72|242:169,1,170
29,335,108936,2,0,P|19:287|44:235,1,85
203,286,109307,2,0,P|213:326|203:367,1,85
53,158,109677,5,0,0:0:0:0:
113,87,109862,1,0,0:0:0:0:
194,133,110047,1,0,0:0:0:0:
135,206,110233,1,0,0:0:0:0:
53,158,110418,2,0,L|30:69,1,85
114,295,110788,1,0,0:0:0:0:
246,234,110973,2,0,L|439:272,1,170
486,188,111529,2,0,L|387:165,1,85
186,353,111899,5,0,0:0:0:0:
46,271,112085,1,0,0:0:0:0:
81,375,112270,1,0,0:0:0:0:
150,240,112455,1,0,0:0:0:0:
251,50,112640,6,0,L|163:65,1,85
360,136,113196,2,0,L|448:121,1,85
220,55,113751,2,0,L|132:70,1,85
336,140,114307,2,0,L|424:125,1,85
113,159,114862,5,0,0:0:0:0:
41,240,115047,1,0,0:0:0:0:
148,284,115233,1,0,0:0:0:0:
214,202,115418,1,0,0:0:0:0:
251,50,115603,6,0,L|163:65,1,85
360,136,116159,2,0,L|448:121,1,85
220,55,116714,2,0,L|132:70,1,85
336,140,117270,2,0,L|424:125,1,85
505,322,117825,5,0,0:0:0:0:
380,369,118010,1,0,0:0:0:0:
283,262,118196,1,0,0:0:0:0:
408,219,118381,1,0,0:0:0:0:
251,50,118566,6,0,L|163:65,1,85
360,136,119122,2,0,L|448:121,1,85
220,55,119677,2,0,L|132:70,1,85
336,140,120233,2,0,L|424:125,1,85
113,159,120788,5,0,0:0:0:0:
41,240,120973,1,0,0:0:0:0:
148,284,121159,1,0,0:0:0:0:
214,202,121344,1,0,0:0:0:0:
245,44,121529,5,0,0:0:0:0:
236,43,121622,1,0,0:0:0:0:
227,42,121714,1,0,0:0:0:0:
270,116,121899,1,0,0:0:0:0:
279,115,121992,1,0,0:0:0:0:
288,114,122084,1,0,0:0:0:0:
234,184,122270,1,0,0:0:0:0:
225,183,122363,1,0,0:0:0:0:
216,182,122455,1,0,0:0:0:0:
273,254,122640,1,0,0:0:0:0:
282,253,122733,1,0,0:0:0:0:
291,252,122825,1,0,0:0:0:0:
244,323,123010,5,0,0:0:0:0:
217,315,123103,1,0,0:0:0:0:
189,314,123196,1,0,0:0:0:0:
162,319,123288,1,0,0:0:0:0:
136,330,123381,1,0,0:0:0:0:
110,338,123473,1,0,0:0:0:0:
82,341,123566,1,0,0:0:0:0:
54,342,123659,1,0,0:0:0:0:
22,372,123751,6,0,L|30:215,1,148.75
29,223,124492,6,0,L|5:34,1,170
76,23,125047,1,0,0:0:0:0:
255,222,125233,6,0,L|239:361,1,127.500004863739
12,167,125603,1,0,0:0:0:0:
12,167,125788,1,0,0:0:0:0:
208,115,125973,6,0,L|288:109,1,63.7500024318696
176,193,126344,2,0,L|96:187,1,63.7500024318696
96,48,126714,5,0,0:0:0:0:
173,36,126838,1,0,0:0:0:0:
250,24,126961,1,0,0:0:0:0:
328,62,127085,5,0,0:0:0:0:
374,55,127208,1,0,0:0:0:0:
420,49,127331,1,0,0:0:0:0:
498,97,127455,6,0,P|416:101|369:169,1,170
364,258,128010,1,0,0:0:0:0:
24,358,128196,6,0,L|170:371,1,127.500004863739
16,139,128566,1,0,0:0:0:0:
16,139,128751,1,0,0:0:0:0:
66,257,128936,6,0,L|73:177,1,63.7500024318696
84,58,129307,5,0,0:0:0:0:
129,334,129492,2,0,L|245:315,1,110.499994941712
385,214,129862,1,0,0:0:0:0:
385,214,130047,2,0,L|276:232,1,110.499994941712
502,377,130418,6,0,L|489:300,1,63.75
505,280,130788,1,0,0:0:0:0:
505,280,130973,1,0,0:0:0:0:
493,21,131159,6,0,L|352:42,1,127.500004863739
251,303,131529,5,0,0:0:0:0:
251,303,131899,1,0,0:0:0:0:
18,206,132177,1,0,0:0:0:0:
256,143,132409,1,0,0:0:0:0:
139,63,132640,2,0,P|226:88|330:50,1,191.250007295609
335,97,133010,6,0,L|339:171,1,63.7500024318696
346,256,133381,5,0,0:0:0:0:
346,256,133751,1,0,0:0:0:0:
346,256,134122,1,0,0:0:0:0:
317,230,134214,1,0,0:0:0:0:
278,228,134307,1,0,0:0:0:0:
243,243,134399,1,0,0:0:0:0:
222,275,134492,1,0,0:0:0:0:
222,313,134585,1,0,0:0:0:0:
240,345,134677,1,0,0:0:0:0:
271,366,134770,1,0,0:0:0:0:
305,369,134862,6,0,L|354:351,1,42.5
435,359,135047,2,0,L|481:337,1,42.5
322,261,135233,6,0,L|371:243,1,42.5
452,251,135418,2,0,L|498:229,1,42.5
344,154,135603,6,0,L|393:136,1,42.5
469,145,135788,2,0,L|493:136,1,21.25
281,63,135973,1,0,0:0:0:0:
296,266,136159,1,0,0:0:0:0:
462,333,136344,6,0,L|439:32,1,289.000005512238
439,44,136899,1,0,0:0:0:0:
326,237,137085,2,0,L|286:230,1,36.1250006890297
149,192,137270,2,0,L|7:224,1,127.500004863739
24,220,137640,1,0,0:0:0:0:
329,337,137825,5,0,0:0:0:0:
329,337,138010,1,0,0:0:0:0:
197,363,138196,1,0,0:0:0:0:
197,363,138381,1,0,0:0:0:0:
324,244,138566,5,0,0:0:0:0:
381,256,138689,1,0,0:0:0:0:
439,267,138813,1,0,0:0:0:0:
490,180,138936,5,0,0:0:0:0:
456,187,139060,1,0,0:0:0:0:
423,196,139183,1,0,0:0:0:0:
384,124,139307,6,0,L|396:44,1,63.75
400,28,139677,1,0,0:0:0:0:
512,251,139862,1,0,0:0:0:0:
259,205,140047,2,0,L|226:215,1,21.25
152,291,140233,6,0,L|294:308,1,127.500004863739
278,306,140603,1,0,0:0:0:0:
28,163,140788,6,0,L|15:101,1,63.7500024318696
15,325,141159,5,0,0:0:0:0:
12,237,141344,2,0,P|35:193|189:186,1,220.999989883423
179,350,141899,2,0,P|133:351|99:281,1,110.499994941712
249,89,142270,6,0,L|354:106,1,95.6250036478044
357,73,142640,1,0,0:0:0:0:
357,73,142825,1,0,0:0:0:0:
189,22,143010,2,0,L|166:32,1,15.9375006079674
103,50,143196,2,0,L|89:45,1,15.9375006079674
9,233,143381,1,0,0:0:0:0:
166,125,143566,1,0,0:0:0:0:
43,117,143751,6,0,L|52:144,1,21.25
54,128,144029,6,0,L|63:155,1,21.25
66,141,144260,6,0,L|75:168,1,21.25
161,184,144492,6,0,P|112:187|62:309,1,191.250007295609
273,217,144862,2,0,P|257:127|140:100,1,216.750004134178
142,66,145233,6,0,L|137:14,1,36.1250006890297
370,66,145510,2,0,L|375:14,1,36.1250006890297
142,66,145742,2,0,L|137:14,1,36.1250006890297
256,86,145973,1,0,0:0:0:0:
275,116,146066,1,0,0:0:0:0:
281,151,146159,1,0,0:0:0:0:
281,186,146251,1,0,0:0:0:0:
268,221,146344,1,0,0:0:0:0:
249,248,146436,1,0,0:0:0:0:
240,283,146529,1,0,0:0:0:0:
239,319,146622,1,0,0:0:0:0:
259,349,146714,6,0,B|348:331|348:331|370:294|370:294|458:274,1,216.750004134178
480,301,147085,2,0,L|471:207,1,85
263,27,147455,2,0,L|280:231,1,191.250007295609
272,354,148196,5,0,0:0:0:0:
261,312,148288,1,0,0:0:0:0:
222,295,148381,1,0,0:0:0:0:
180,298,148473,1,0,0:0:0:0:
144,319,148566,1,0,0:0:0:0:
110,337,148659,1,0,0:0:0:0:
72,338,148751,1,0,0:0:0:0:
40,316,148844,1,0,0:0:0:0:
32,278,148936,1,0,0:0:0:0:
51,245,149029,1,0,0:0:0:0:
88,236,149122,5,0,0:0:0:0:
125,106,149307,2,0,L|114:42,1,63.7500024318696
157,176,149677,6,0,L|180:-5,1,170
291,265,150233,2,0,L|269:96,1,170
19,287,150788,6,0,P|94:261|203:357,1,216.750004134178
268,362,151159,6,0,L|337:353,1,63.7500024318696
473,351,151529,2,0,L|409:359,1,63.7500024318696
216,290,151899,1,0,0:0:0:0:
56,233,152085,1,0,0:0:0:0:
56,233,152177,1,0,0:0:0:0:
56,233,152270,1,0,0:0:0:0:
207,200,152455,1,0,0:0:0:0:
162,358,152640,6,0,B|45:378|103:313|-22:333,1,170
129,188,153196,1,0,0:0:0:0:
23,29,153381,2,0,P|27:73|30:125,1,85
310,142,153751,6,0,P|289:77|152:27,1,216.750004134178
172,98,154122,6,0,L|180:155,3,42.5
186,215,154492,2,0,L|178:272,3,42.5
174,340,154862,1,0,0:0:0:0:
174,340,155047,1,0,0:0:0:0:
374,249,155233,1,0,0:0:0:0:
248,381,155418,1,0,0:0:0:0:
304,208,155603,6,0,L|299:171,1,21.25
431,311,155788,2,0,L|426:343,1,21.25
314,324,155973,6,0,L|283:320,1,21.25
429,175,156159,2,0,L|459:181,1,21.25
222,351,156344,5,0,0:0:0:0:
83,218,156529,6,0,L|71:186,1,21.25
153,231,156714,2,0,L|171:204,1,21.25
209,277,156899,2,0,L|235:268,1,21.25
14,310,157085,6,0,B|-9:173|70:255|36:91,1,220.999989883423
380,190,157640,1,0,0:0:0:0:
311,252,157825,2,0,L|202:304,1,110.499994941712
209,74,158196,2,0,L|318:126,1,110.499994941712
217,196,158566,6,0,L|80:205,1,127.500004863739
22,299,159122,1,0,0:0:0:0:
398,333,159307,6,0,L|279:344,1,110.499994941712
327,242,159677,2,0,L|446:231,1,110.499994941712
454,217,159955,1,0,0:0:0:0:
473,198,160047,6,0,L|457:142,3,42.5
480,24,160418,2,0,L|468:64,3,42.5
369,122,160788,6,0,L|241:130,1,110.499994941712
24,71,161159,2,0,L|34:128,1,50.9999984436036
37,261,161529,6,0,L|0:73,1,170
137,328,162085,2,0,P|125:288|214:202,1,170
422,232,162640,6,0,P|391:143|271:126,1,216.750004134178
283,202,163010,6,0,L|290:265,1,63.7500024318696
207,92,163381,2,0,L|214:28,1,63.7500024318696
165,216,163751,6,0,L|12:247,1,110.499994941712
16,338,164122,2,0,L|67:329,1,50.9999984436036
482,116,164492,5,0,0:0:0:0:
482,115,165047,1,0,0:0:0:0:
405,100,165233,2,0,L|353:115,1,50.9999984436036
186,46,165603,2,0,L|335:9,1,144.500002756119
344,204,165973,5,0,0:0:0:0:
322,197,166066,1,0,0:0:0:0:
302,189,166159,1,0,0:0:0:0:
243,145,166251,5,0,0:0:0:0:
229,150,166344,1,0,0:0:0:0:
215,154,166437,1,0,0:0:0:0:
144,126,166529,5,0,0:0:0:0:
139,131,166622,1,0,0:0:0:0:
134,136,166714,2,0,L|15:127,1,110.499994941712
243,233,167085,2,0,L|251:289,1,50.9999984436036
249,54,167455,6,0,L|254:20,1,21.25
327,82,167640,2,0,L|319:49,1,21.25
405,65,167825,1,0,0:0:0:0:
486,72,168010,1,0,0:0:0:0:
207,123,168196,5,0,0:0:0:0:
375,225,168381,1,0,0:0:0:0:
173,319,168566,2,0,L|161:357,1,31.8750012159348
230,225,168751,2,0,L|272:231,1,31.8750012159348
72,141,168936,6,0,L|64:1,2,127.500004863739
81,165,169770,1,0,0:0:0:0:
85,189,169862,1,0,0:0:0:0:
82,214,169955,1,0,0:0:0:0:
72,237,170047,1,0,0:0:0:0:
59,259,170140,1,0,0:0:0:0:
56,284,170233,1,0,0:0:0:0:
60,308,170325,1,0,0:0:0:0:
35,344,170418,6,0,B|124:328|124:328|135:288|135:288|233:271,1,220.999989883423
296,262,170973,1,0,0:0:0:0:
502,345,171159,1,0,0:0:0:0:
364,337,171344,1,0,0:0:0:0:
370,328,171436,1,0,0:0:0:0:
377,320,171529,2,0,L|382:260,1,55.2499974708558
457,224,171714,2,0,L|452:164,1,55.2499974708558
501,77,171899,6,0,P|455:75|402:82,1,95.6250036478044
213,30,172640,2,0,P|259:28|312:35,1,95.6250036478044
178,209,173381,5,0,0:0:0:0:
62,140,173659,1,0,0:0:0:0:
176,71,173936,1,0,0:0:0:0:
178,209,174168,2,0,L|165:295,2,79.687503039837
277,158,174862,6,0,P|325:164|381:162,1,95.6250036478044
505,278,175603,2,0,P|457:284|401:282,1,95.6250036478044
98,141,176344,6,0,L|115:246,1,95.6250036478044
241,157,176853,1,0,0:0:0:0:
228,253,177131,2,0,L|219:336,1,79.687503039837
163,103,177594,1,0,0:0:0:0:
268,42,177825,6,0,P|308:44|367:34,1,95.6250036478044
457,20,178335,1,0,0:0:0:0:
494,131,178566,2,0,P|453:118|333:259,1,255.000009727478
331,252,179585,5,0,0:0:0:0:
335,276,179723,1,0,0:0:0:0:
340,301,179862,1,0,0:0:0:0:
345,329,180001,1,0,0:0:0:0:
350,357,180140,2,0,L|267:373,2,79.687503039837
234,277,180788,5,0,0:0:0:0:
47,235,181066,1,0,0:0:0:0:
186,348,181297,1,0,0:0:0:0:
108,175,181529,2,0,L|100:71,1,95.6250036478044
100,79,181946,1,0,0:0:0:0:
100,79,182085,1,0,0:0:0:0:
238,135,182270,6,0,L|246:31,1,95.6250036478044
245,39,182687,1,0,0:0:0:0:
245,39,182826,1,0,0:0:0:0:
335,217,183010,2,0,L|327:113,1,95.6250036478044
327,121,183427,1,0,0:0:0:0:
327,121,183566,1,0,0:0:0:0:
512,160,183751,6,0,B|255:215|390:-18|149:40,1,414.375015807152
0,355,185233,6,0,B|257:410|122:177|363:235,1,414.375015807152
179,163,186714,6,0,P|177:121|175:63,2,95.6250036478044
305,14,187455,2,0,P|303:62|302:110,1,95.6250036478044
302,110,187872,1,0,0:0:0:0:
302,110,188010,1,0,0:0:0:0:
497,313,188196,6,0,P|488:256|191:196,1,414.375015807152
30,257,189677,6,0,L|44:357,1,95.6250036478044
42,352,190094,1,0,0:0:0:0:
42,352,190233,1,0,0:0:0:0:
94,206,190418,2,0,L|79:106,1,95.6250036478044
79,111,190835,1,0,0:0:0:0:
79,111,190973,1,0,0:0:0:0:
164,324,191159,6,0,P|165:265|317:146,2,255.000009727478
337,339,192918,5,0,0:0:0:0:
337,339,193057,1,0,0:0:0:0:
337,339,193196,2,0,P|332:298|325:257,1,79.687503039837
439,169,193659,2,0,P|457:166|493:159,2,47.8125018239022
322,181,194122,6,0,P|291:184|156:33,2,255.000009727478
442,127,195881,1,0,0:0:0:0:
335,66,196112,1,0,0:0:0:0:
418,223,196344,2,0,P|465:211|516:209,2,95.6250036478044
292,305,197085,5,0,0:0:0:0:
154,36,197825,5,0,0:0:0:0:
56,155,198103,1,0,0:0:0:0:
56,155,198566,1,0,0:0:0:0:
154,36,198844,1,0,0:0:0:0:
154,36,199307,5,0,0:0:0:0:
56,155,199585,1,0,0:0:0:0:
211,99,199816,1,0,0:0:0:0:
16,97,200047,6,0,P|28:195|19:357,2,255.000009727478
87,57,201807,1,0,0:0:0:0:
87,57,202038,1,0,0:0:0:0:
181,146,202270,6,0,L|286:135,1,95.6250036478044
381,153,202779,1,0,0:0:0:0:
497,212,203010,6,0,P|494:257|499:311,1,95.6250036478044
397,350,203520,1,0,0:0:0:0:
278,336,203751,2,0,L|182:361,1,95.6250036478044
83,295,204260,1,0,0:0:0:0:
388,175,204492,5,0,0:0:0:0:
237,257,204770,1,0,0:0:0:0:
314,213,205001,1,0,0:0:0:0:
335,55,205233,5,0,0:0:0:0:
486,137,205511,1,0,0:0:0:0:
409,93,205742,1,0,0:0:0:0:
254,198,205973,6,0,B|108:223|156:124|11:156,2,255.000009727478
321,108,207733,1,0,0:0:0:0:
248,24,207964,2,0,P|215:31|161:31,1,79.687503039837
392,179,208473,1,0,0:0:0:0:
390,26,208705,1,0,0:0:0:0:
285,150,208936,6,0,P|351:166|430:329,2,255.000009727478
287,260,210696,2,0,P|290:298|289:342,1,79.687503039837
503,182,211159,1,0,0:0:0:0:
423,64,211436,1,0,0:0:0:0:
431,217,211668,1,0,0:0:0:0:
490,24,211899,6,0,P|390:49|241:6,1,255.000009727478
3,241,213381,6,0,P|103:266|252:223,1,255.000009727478
320,366,214399,1,0,0:0:0:0:
375,214,214631,1,0,0:0:0:0:
472,347,214862,6,0,B|438:191|540:281|500:99,2,255.000009727478
313,47,216899,5,0,0:0:0:0:
375,130,217131,2,0,P|368:159|368:218,2,79.687503039837
240,183,217825,6,0,P|186:193|50:70,2,255.000009727478
240,183,219862,5,0,0:0:0:0:
314,239,220047,2,0,P|314:269|321:346,2,95.6250036478044
361,173,220788,5,0,0:0:0:0:
451,113,221066,1,0,0:0:0:0:
407,284,221344,5,0,0:0:0:0:
217,197,221575,2,0,L|168:209,4,47.8125018239022
241,222,222270,6,0,P|235:172|244:124,1,95.6250036478044
441,185,222825,2,0,P|445:115|415:25,1,159.375006079674
336,163,223520,1,0,0:0:0:0:
265,313,223751,6,0,P|352:311|440:317,1,175.312506687641
259,228,224492,2,0,P|227:232|176:235,1,79.687503039837
34,268,225001,1,0,0:0:0:0:
150,348,225233,6,0,P|147:308|157:83,2,255.000009727478
495,204,227455,5,0,0:0:0:0:
296,127,228196,2,0,L|305:152,4,21.25
312,54,228751,1,0,0:0:0:0:
239,20,228936,2,0,L|153:40,1,85
18,133,229677,6,0,P|49:119|157:182,1,170
168,281,230742,1,0,0:0:0:0:
168,281,230881,1,0,0:0:0:0:
168,281,231020,1,0,0:0:0:0:
168,281,231159,6,0,L|216:273,1,42.5
303,329,231529,2,0,L|391:318,2,85
281,66,232640,5,0,0:0:0:0:
281,66,233381,2,0,P|323:65|365:56,1,85
508,158,234122,6,0,P|492:156|461:157,1,42.5
384,206,234492,2,0,P|362:206|341:204,1,42.5
260,175,234862,1,0,0:0:0:0:
260,175,235047,1,0,0:0:0:0:
260,175,235233,1,0,0:0:0:0:
28,34,235603,6,0,P|41:87|45:124,1,85
137,280,236344,2,0,P|138:245|149:195,1,85
225,66,237085,5,0,0:0:0:0:
300,103,237270,2,0,L|320:94,2,21.25
226,151,237640,1,0,0:0:0:0:
288,204,237825,1,0,0:0:0:0:
226,261,238010,1,0,0:0:0:0:
290,325,238196,2,0,P|250:333|198:337,1,85
54,123,238751,5,0,0:0:0:0:
54,123,238936,1,0,0:0:0:0:
128,167,239122,1,0,0:0:0:0:
124,179,239214,1,0,0:0:0:0:
122,191,239307,1,0,0:0:0:0:
42,242,239492,1,0,0:0:0:0:
117,288,239677,1,0,0:0:0:0:
114,300,239770,1,0,0:0:0:0:
114,312,239862,1,0,0:0:0:0:
185,358,240047,5,0,0:0:0:0:
319,291,240325,1,0,0:0:0:0:
319,291,240418,1,0,0:0:0:0:
193,230,240603,1,0,0:0:0:0:
301,162,240788,1,0,0:0:0:0:
298,136,240881,1,0,0:0:0:0:
297,110,240973,1,0,0:0:0:0:
298,84,241066,1,0,0:0:0:0:
300,58,241159,1,0,0:0:0:0:
199,19,241344,1,0,0:0:0:0:
473,92,241529,5,0,0:0:0:0:
8,191,241807,1,0,0:0:0:0:
486,260,242085,1,0,0:0:0:0:
35,342,242362,1,0,0:0:0:0:
52,356,242455,1,0,0:0:0:0:
153,289,242640,1,0,0:0:0:0:
171,306,242733,1,0,0:0:0:0:
189,323,242825,1,0,0:0:0:0:
486,260,243010,5,0,0:0:0:0:
8,191,243288,1,0,0:0:0:0:
473,92,243566,1,0,0:0:0:0:
142,34,243751,2,0,L|126:36,4,10.625
350,84,244122,1,0,0:0:0:0:
161,178,244307,1,0,0:0:0:0:
161,178,244399,1,0,0:0:0:0:
161,178,244492,5,0,0:0:0:0:
252,270,244677,1,0,0:0:0:0:
361,198,244862,1,0,0:0:0:0:
264,115,245047,2,0,L|245:121,8,10.625
361,198,245603,1,0,0:0:0:0:
252,270,245788,1,0,0:0:0:0:
252,270,245881,1,0,0:0:0:0:
252,270,245973,5,0,0:0:0:0:
161,178,246159,1,0,0:0:0:0:
161,178,246251,1,0,0:0:0:0:
161,178,246344,1,0,0:0:0:0:
161,178,246436,1,0,0:0:0:0:
161,178,246529,1,0,0:0:0:0:
161,178,246622,1,0,0:0:0:0:
161,178,246714,6,0,L|183:173,1,21.25
191,184,246807,2,0,L|214:175,1,21.25
217,189,246899,2,0,L|239:177,1,21.25
494,247,247085,1,0,0:0:0:0:
455,253,247177,1,0,0:0:0:0:
417,257,247270,1,0,0:0:0:0:
379,260,247362,1,0,0:0:0:0:
341,265,247455,6,0,L|319:260,1,21.25
307,268,247548,2,0,L|281:259,1,21.25
275,270,247640,2,0,L|253:257,1,21.25
0,335,247825,1,0,0:0:0:0:
38,339,247917,1,0,0:0:0:0:
77,345,248010,1,0,0:0:0:0:
115,348,248102,1,0,0:0:0:0:
153,353,248195,6,0,L|177:343,1,21.25
184,353,248288,2,0,L|208:335,1,21.25
211,350,248380,2,0,L|233:331,1,21.25
241,331,248473,6,0,L|252:353,1,21.25
262,340,248566,2,0,L|271:369,1,21.25
282,354,248659,2,0,L|296:369,1,21.25
309,362,248751,2,0,L|337:368,1,21.25
344,365,248844,2,0,L|374:365,1,21.25
396,360,248936,6,0,L|412:354,24,10.625
391,245,249677,5,0,0:0:0:0:
422,61,249862,1,0,0:0:0:0:
267,370,250047,5,0,0:0:0:0:
221,142,250233,1,0,0:0:0:0:
48,308,250418,37,0,0:0:0:0:
132,236,250603,2,0,P|148:180|140:132,1,101.999996887207
220,336,250973,1,0,0:0:0:0:
320,288,251159,2,0,B|428:272|376:332|504:304,1,170
352,376,251714,1,0,0:0:0:0:
452,220,251899,6,0,L|436:112,1,101.999996887207
257,59,252270,2,0,L|272:160,1,101.999996887207
153,291,252640,2,0,P|115:271|88:240,1,85
328,288,253010,2,0,P|290:307|262:339,1,85
476,360,253381,6,0,L|464:296,1,56.6666666666667
400,44,253875,1,0,0:0:0:0:
416,128,254122,2,0,L|400:44,1,85
280,20,254677,1,0,0:0:0:0:
56,144,254862,6,0,P|103:161|151:148,1,101.999996887207
55,143,255233,6,0,L|87:320,1,172.125000656605
108,384,255603,2,0,B|140:376|156:352|156:352|252:364,1,114.750000437737
468,272,255973,2,0,B|436:264|420:240|420:240|324:252,1,114.750000437737
484,192,256344,6,0,B|464:152|464:152|484:92,1,85
340,48,256714,2,0,B|360:88|360:88|340:148,1,85
324,144,256992,1,0,0:0:0:0:
296,156,257085,1,0,0:0:0:0:
144,128,257270,1,0,0:0:0:0:
48,256,257455,6,0,P|92:340|168:380,1,165.749992412568
232,384,257825,1,0,0:0:0:0:
448,296,258010,6,0,L|304:280,1,127.500004863739
328,264,258473,1,0,0:0:0:0:
328,264,258566,2,0,L|352:192,1,50.9999984436036
255,63,258751,6,0,L|215:75,1,31.8750012159348
115,115,258936,2,0,L|100:144,1,31.8750012159348
87,259,259122,2,0,L|99:299,1,31.8750012159348
384,152,259307,6,0,P|352:140|312:144,2,56.6666666666667
448,204,259862,1,0,0:0:0:0:
448,204,259955,1,0,0:0:0:0:
448,204,260047,6,0,P|468:168|449:107,1,85
472,340,260418,2,0,L|390:315,1,85
116,356,260788,2,0,L|224:328,2,106.25
28,272,261344,1,0,0:0:0:0:
88,172,261529,6,0,P|144:152|200:172,1,110.499994941712
372,368,261899,2,0,P|318:374|264:324,1,127.500004863739
296,240,262177,1,0,0:0:0:0:
384,200,262270,6,0,L|500:224,1,110.499994941712
324,96,262640,1,0,0:0:0:0:
436,96,262825,1,0,0:0:0:0:
208,304,263010,6,0,P|140:304|56:248,1,170
72,152,263566,1,0,0:0:0:0:
296,296,263751,6,0,P|292:340|276:364,1,63.7500024318696
433,203,264122,2,0,P|434:235|448:264,1,63.7500024318696
312,56,264492,5,0,0:0:0:0:
284,52,264739,5,0,0:0:0:0:
260,48,264986,6,0,L|272:112,1,42.5000016212464
208,156,265233,5,0,0:0:0:0:
448,316,265480,1,0,0:0:0:0:
340,112,265727,1,0,0:0:0:0:
100,272,265973,2,0,B|180:256|180:256|148:236,1,95.6250036478044
100,188,266344,6,0,P|24:224|72:352,1,191.250007295609
112,368,266714,5,0,0:0:0:0:
312,292,266899,1,0,0:0:0:0:
200,292,267085,5,0,0:0:0:0:
400,368,267270,1,0,0:0:0:0:
488,192,267455,6,0,B|500:148|500:148|480:92,1,85
352,28,267825,2,0,B|340:72|340:72|360:128,1,85
256,200,268196,5,0,0:0:0:0:
215,212,268288,1,0,0:0:0:0:
174,204,268381,1,0,0:0:0:0:
141,178,268473,1,0,0:0:0:0:
125,139,268566,2,0,P|104:200|68:228,1,85
265,39,268936,2,0,P|281:78|312:108,1,85,0|0,3:0|3:0,3:0:0:0:
463,317,269307,2,0,L|488:192,1,127.5
396,364,269677,6,0,L|356:368,1,21.25
176,348,269862,2,0,L|197:345,1,21.25
376,368,270047,2,0,L|336:372,1,21.25
156,352,270232,2,0,L|177:349,1,21.25
60,264,270418,5,0,0:0:0:0:
41,241,270510,1,0,0:0:0:0:
32,212,270603,1,0,0:0:0:0:
34,183,270695,1,0,0:0:0:0:
48,156,270788,2,0,B|139:127|109:183|225:147,1,165.749992412568
288,84,271159,5,0,0:0:0:0:
325,73,271251,1,0,0:0:0:0:
363,76,271344,1,0,0:0:0:0:
399,90,271436,1,0,0:0:0:0:
428,115,271529,1,0,0:0:0:0:
448,148,271621,1,0,0:0:0:0:
456,185,271714,1,0,0:0:0:0:
452,224,271807,1,0,0:0:0:0:
436,259,271899,5,0,0:0:0:0:
116,328,272146,5,0,0:0:0:0:
256,344,272393,5,0,0:0:0:0:
75,259,272640,6,0,B|52:272|44:292|44:292|68:148,1,191.250007295609
120,84,273010,1,0,0:0:0:0:
240,200,273196,1,0,0:0:0:0:
384,40,273381,6,0,P|423:24|492:89,1,127.500004863739
256,344,273751,6,0,P|212:360|120:324,1,127.500004863739
240,200,274122,5,0,0:0:0:0:
284,204,274214,1,0,0:0:0:0:
328,209,274307,1,0,0:0:0:0:
373,214,274399,1,0,0:0:0:0:
417,219,274492,2,0,L|384:140,3,63.7500024318696
462,222,274862,5,0,0:0:0:0:
428,316,275047,1,0,0:0:0:0:
510,78,275233,1,0,0:0:0:0:
298,332,275603,6,0,P|221:326|120:342,1,170
19,246,276159,1,0,0:0:0:0:
232,107,276344,6,0,L|239:60,1,42.5
57,18,276714,2,0,L|44:127,1,110.499994941712
267,209,277085,5,0,0:0:0:0:
267,209,277455,1,0,0:0:0:0:
443,183,277640,1,0,0:0:0:0:
302,138,277825,2,0,L|218:145,1,85
224,333,278196,1,0,0:0:0:0:
224,333,278566,6,0,L|308:326,1,85
