osu file format v12

[General]
AudioFilename: Savant - Carmageddon.mp3
AudioLeadIn: 0
PreviewTime: -1
Countdown: 0
SampleSet: None
StackLeniency: 1
Mode: 3
LetterboxInBreaks: 1

[Editor]
Bookmarks: 19343,67576,67759,82283,142693
DistanceSpacing: 0.8
BeatDivisor: 4
GridSize: 16

[Metadata]
Title:Carmageddon
TitleUnicode:Carmageddon
Artist:Savant
ArtistUnicode:Savant
Creator:DJBurbz
Version:HD
Source:Soundcloud.com
Tags:Savant, Aleksander Vinter
BeatmapID:262170
BeatmapSetID:98264

[Difficulty]
HPDrainRate:4
CircleSize:6
OverallDifficulty:7
ApproachRate:5
SliderMultiplier:1.2
SliderTickRate:2

[Events]
//Background and Video events
0,0,"Carmageddon.jpg",0,0
//Break Periods
2,52497,66559
//Storyboard Layer 0 (Background)
//Storyboard Layer 1 (Fail)
//Storyboard Layer 2 (Pass)
//Storyboard Layer 3 (Foreground)
//Storyboard Sound Samples
//Background Colour Transformations
3,100,163,162,255

[TimingPoints]
82049.4615384615,468.538461538462,4,2,0,0,1,0

[HitObjects]
469,192,19031,128,0,22310:0:0:0:0:
42,192,19031,128,0,22310:0:0:0:0:
213,192,22310,1,0,0:0:0:0:
384,192,22896,128,0,23599:0:0:0:0:
469,192,23716,128,0,24302:0:0:0:0:
298,192,24302,128,0,25590:0:0:0:0:
213,192,26410,128,0,26879:0:0:0:0:
298,192,26879,128,0,27230:0:0:0:0:
128,192,27230,128,0,27464:0:0:0:0:
213,192,27464,128,0,27816:0:0:0:0:
128,192,27816,128,0,29573:0:0:0:0:
469,192,28636,1,0,0:0:0:0:
469,192,29573,1,0,0:0:0:0:
213,192,29924,128,0,30275:0:0:0:0:
384,192,30393,128,0,30861:0:0:0:0:
298,192,30861,128,0,31213:0:0:0:0:
469,192,31213,128,0,31681:0:0:0:0:
384,192,31681,128,0,33204:0:0:0:0:
298,192,33321,1,0,0:0:0:0:
384,192,33438,1,0,0:0:0:0:
469,192,33555,128,0,33789:0:0:0:0:
298,192,33907,128,0,34258:0:0:0:0:
469,192,34258,128,0,34727:0:0:0:0:
298,192,34727,128,0,34961:0:0:0:0:
384,192,34961,128,0,35195:0:0:0:0:
469,192,35195,128,0,37186:0:0:0:0:
298,192,37421,128,0,37655:0:0:0:0:
384,192,38006,128,0,38358:0:0:0:0:
298,192,38358,128,0,38709:0:0:0:0:
469,192,38709,128,0,39178:0:0:0:0:
298,192,39178,128,0,40700:0:0:0:0:
42,192,40818,128,0,40935:0:0:0:0:
469,192,41052,128,0,41286:0:0:0:0:
298,192,41520,128,0,41755:0:0:0:0:
469,192,41755,128,0,41989:0:0:0:0:
384,192,41989,128,0,42340:0:0:0:0:
469,192,42457,128,0,42926:0:0:0:0:
384,192,42926,128,0,44449:0:0:0:0:
469,192,44566,1,0,0:0:0:0:
384,192,44683,1,0,0:0:0:0:
298,192,44800,1,0,0:0:0:0:
213,192,45034,1,0,0:0:0:0:
298,192,45503,128,0,45737:0:0:0:0:
469,192,45737,128,0,46089:0:0:0:0:
384,192,46206,128,0,46557:0:0:0:0:
298,192,46557,128,0,48197:0:0:0:0:
213,192,48431,128,0,48783:0:0:0:0:
469,192,48900,128,0,49486:0:0:0:0:
128,192,49368,128,0,49603:0:0:0:0:
128,192,49603,1,0,0:0:0:0:
384,192,49720,128,0,49954:0:0:0:0:
469,192,49954,128,0,50188:0:0:0:0:
298,192,50423,128,0,51008:0:0:0:0:
298,192,51243,128,0,52062:0:0:0:0:
469,192,52297,1,0,0:0:0:0:
42,192,52297,1,0,0:0:0:0:
42,192,67759,132,0,71038:0:0:0:0:
298,192,67759,1,0,0:0:0:0:
298,192,68110,1,0,0:0:0:0:
298,192,68461,1,0,0:0:0:0:
469,192,68930,128,0,69516:0:0:0:0:
384,192,69633,128,0,70101:0:0:0:0:
469,192,70218,128,0,71273:0:0:0:0:
384,192,71390,1,0,0:0:0:0:
384,192,71858,1,0,0:0:0:0:
384,192,72327,128,0,73147:0:0:0:0:
298,192,73264,128,0,73850:0:0:0:0:
469,192,73967,128,0,75138:0:0:0:0:
42,192,75255,128,0,76426:0:0:0:0:
384,192,75255,1,0,0:0:0:0:
384,192,75723,1,0,0:0:0:0:
384,192,76192,128,0,76661:0:0:0:0:
469,192,76661,128,0,77129:0:0:0:0:
42,192,77129,128,0,78301:0:0:0:0:
298,192,77129,128,0,77715:0:0:0:0:
384,192,77832,128,0,78769:0:0:0:0:
384,192,79003,1,0,0:0:0:0:
42,192,79003,128,0,80174:0:0:0:0:
384,192,79471,1,0,0:0:0:0:
384,192,79940,128,0,80760:0:0:0:0:
298,192,80877,128,0,81463:0:0:0:0:
384,192,81580,128,0,82049:0:0:0:0:
42,192,82283,1,0,0:0:0:0:
469,192,82283,1,0,0:0:0:0:
298,192,82752,128,0,83103:0:0:0:0:
469,192,83220,128,0,83572:0:0:0:0:
128,192,83220,1,0,0:0:0:0:
384,192,83689,128,0,84040:0:0:0:0:
384,192,84157,128,0,84509:0:0:0:0:
128,192,84157,1,0,0:0:0:0:
384,192,84626,128,0,85329:0:0:0:0:
128,192,85094,1,0,0:0:0:0:
298,192,85329,128,0,86266:0:0:0:0:
128,192,86031,1,0,0:0:0:0:
384,192,86500,128,0,86851:0:0:0:0:
128,192,86968,1,0,0:0:0:0:
384,192,86969,128,0,87320:0:0:0:0:
384,192,87437,128,0,87789:0:0:0:0:
128,192,87905,1,0,0:0:0:0:
384,192,87906,128,0,88257:0:0:0:0:
298,192,88374,128,0,89077:0:0:0:0:
128,192,88842,1,0,0:0:0:0:
469,192,89077,128,0,89780:0:0:0:0:
128,192,89779,1,0,0:0:0:0:
384,192,89780,128,0,89897:0:0:0:0:
298,192,90248,128,0,90600:0:0:0:0:
128,192,90716,1,0,0:0:0:0:
469,192,90717,128,0,91068:0:0:0:0:
384,192,91185,128,0,91537:0:0:0:0:
128,192,91653,1,0,0:0:0:0:
384,192,91654,128,0,92005:0:0:0:0:
384,192,92357,1,0,0:0:0:0:
128,192,92590,1,0,0:0:0:0:
384,192,92708,1,0,0:0:0:0:
384,192,93060,128,0,93411:0:0:0:0:
384,192,93528,1,0,0:0:0:0:
128,192,93528,1,0,0:0:0:0:
384,192,93762,1,0,0:0:0:0:
384,192,94231,1,0,0:0:0:0:
128,192,94465,1,0,0:0:0:0:
384,192,94582,1,0,0:0:0:0:
384,192,94934,128,0,95285:0:0:0:0:
384,192,95402,1,0,0:0:0:0:
128,192,95402,1,0,0:0:0:0:
384,192,95636,1,0,0:0:0:0:
128,192,95871,128,0,97276:0:0:0:0:
384,192,97276,128,0,97394:0:0:0:0:
298,192,97511,1,0,0:0:0:0:
298,192,97745,128,0,98097:0:0:0:0:
128,192,98213,1,0,0:0:0:0:
469,192,98214,128,0,98565:0:0:0:0:
384,192,98682,128,0,99034:0:0:0:0:
128,192,99150,1,0,0:0:0:0:
384,192,99151,128,0,99502:0:0:0:0:
384,192,99736,128,0,100322:0:0:0:0:
128,192,100087,1,0,0:0:0:0:
298,192,100322,128,0,100908:0:0:0:0:
128,192,101024,1,0,0:0:0:0:
384,192,101493,128,0,101845:0:0:0:0:
128,192,101961,1,0,0:0:0:0:
384,192,101962,128,0,102313:0:0:0:0:
384,192,102430,128,0,102782:0:0:0:0:
128,192,102898,1,0,0:0:0:0:
384,192,102899,128,0,103250:0:0:0:0:
298,192,103367,128,0,103953:0:0:0:0:
128,192,103835,1,0,0:0:0:0:
384,192,104070,128,0,104773:0:0:0:0:
128,192,104772,1,0,0:0:0:0:
298,192,105242,128,0,105593:0:0:0:0:
128,192,105710,1,0,0:0:0:0:
469,192,105710,128,0,106062:0:0:0:0:
384,192,106179,128,0,106530:0:0:0:0:
128,192,106647,1,0,0:0:0:0:
384,192,106647,128,0,106999:0:0:0:0:
384,192,107350,1,0,0:0:0:0:
128,192,107584,1,0,0:0:0:0:
384,192,107701,1,0,0:0:0:0:
384,192,108053,128,0,108404:0:0:0:0:
384,192,108521,1,0,0:0:0:0:
128,192,108522,1,0,0:0:0:0:
384,192,108755,1,0,0:0:0:0:
384,192,109107,1,0,0:0:0:0:
384,192,109458,1,0,0:0:0:0:
128,192,109458,1,0,0:0:0:0:
384,192,109810,128,0,110161:0:0:0:0:
384,192,110278,1,0,0:0:0:0:
128,192,110396,1,0,0:0:0:0:
384,192,110512,1,0,0:0:0:0:
384,192,110747,128,0,111333:0:0:0:0:
128,192,111332,1,0,0:0:0:0:
298,192,112035,128,0,112153:0:0:0:0:
384,192,112153,128,0,112387:0:0:0:0:
128,192,112270,1,0,0:0:0:0:
469,192,112387,128,0,112621:0:0:0:0:
469,192,112972,128,0,113324:0:0:0:0:
298,192,113324,128,0,113558:0:0:0:0:
384,192,113675,128,0,113910:0:0:0:0:
42,192,114027,128,0,115667:0:0:0:0:
469,192,114261,1,0,0:0:0:0:
469,192,114730,1,0,0:0:0:0:
469,192,115198,1,0,0:0:0:0:
469,192,115667,1,0,0:0:0:0:
298,192,115784,128,0,116252:0:0:0:0:
128,192,116369,128,0,116838:0:0:0:0:
298,192,116838,128,0,117306:0:0:0:0:
213,192,117306,128,0,117658:0:0:0:0:
384,192,117658,128,0,118009:0:0:0:0:
298,192,118009,128,0,119532:0:0:0:0:
128,192,120235,128,0,120469:0:0:0:0:
384,192,120469,128,0,120703:0:0:0:0:
213,192,120821,128,0,121055:0:0:0:0:
298,192,121172,128,0,121406:0:0:0:0:
42,192,121640,128,0,123163:0:0:0:0:
213,192,123983,128,0,124335:0:0:0:0:
298,192,124335,128,0,124686:0:0:0:0:
128,192,124686,128,0,125037:0:0:0:0:
469,192,125037,128,0,125272:0:0:0:0:
384,192,125389,128,0,127263:0:0:0:0:
213,192,125389,128,0,127263:0:0:0:0:
298,192,127849,128,0,128083:0:0:0:0:
128,192,128200,128,0,128434:0:0:0:0:
42,192,128551,128,0,128903:0:0:0:0:
213,192,128903,128,0,129254:0:0:0:0:
42,192,129254,128,0,130543:0:0:0:0:
42,192,131363,128,0,131714:0:0:0:0:
469,192,131714,128,0,132065:0:0:0:0:
298,192,132065,128,0,132417:0:0:0:0:
469,192,132417,128,0,132651:0:0:0:0:
298,192,132768,128,0,134525:0:0:0:0:
469,192,132768,128,0,134525:0:0:0:0:
384,192,134642,128,0,134994:0:0:0:0:
42,192,135462,1,0,0:0:0:0:
42,192,135697,1,0,0:0:0:0:
42,192,135931,1,0,0:0:0:0:
42,192,136165,1,0,0:0:0:0:
469,192,136165,1,0,0:0:0:0:
469,192,136399,128,0,136751:0:0:0:0:
42,192,136751,128,0,138039:0:0:0:0:
42,192,138274,128,0,138742:0:0:0:0:
469,192,138859,128,0,139211:0:0:0:0:
469,192,139211,1,0,0:0:0:0:
213,192,139445,128,0,140031:0:0:0:0:
469,192,140382,128,0,141788:0:0:0:0:
