osu file format v14

[General]
AudioFilename: Bach To The Phuture.mp3
AudioLeadIn: 0
PreviewTime: 35076
Countdown: 0
SampleSet: None
StackLeniency: 0.7
Mode: 1
LetterboxInBreaks: 0
WidescreenStoryboard: 1

[Editor]
DistanceSpacing: 1
BeatDivisor: 1
GridSize: 16
TimelineZoom: 0.9

[Metadata]
Title:Bach To The Phuture
TitleUnicode:Bach To The Phuture
Artist:Savant
ArtistUnicode:Savant
Creator:Totoro le Pacha
Version:Kantan
Source:
Tags:Ninur aleksander vinter dubstep drum n bass
BeatmapID:657516
BeatmapSetID:235627

[Difficulty]
HPDrainRate:5
CircleSize:5
OverallDifficulty:3
ApproachRate:5
SliderMultiplier:1
SliderTickRate:1

[Events]
//Background and Video events
0,0,"bachtothephuture2.jpg",0,0
//Break Periods
//Storyboard Layer 0 (Background)
//Storyboard Layer 1 (Fail)
//Storyboard Layer 2 (Pass)
//Storyboard Layer 3 (Foreground)
//Storyboard Sound Samples

[TimingPoints]
-96,344.827586206897,4,1,0,60,1,0
2662,-100,4,1,0,30,0,0
24731,-100,4,1,0,45,0,0
35766,-100,4,1,0,60,0,1
57835,-100,4,1,0,60,0,0
79904,-100,4,1,0,60,0,1
101972,-100,4,1,0,60,0,0

[HitObjects]
256,192,5421,5,0,0:0:0:0:
256,192,6800,1,8,0:0:0:0:
256,192,8179,1,0,0:0:0:0:
256,192,9559,1,8,0:0:0:0:
256,192,10938,1,0,0:0:0:0:
256,192,12317,1,8,0:0:0:0:
256,192,13007,1,8,0:0:0:0:
256,192,13352,1,8,0:0:0:0:
256,192,13697,1,8,0:0:0:0:
256,192,14386,1,0,0:0:0:0:
256,192,14731,1,0,0:0:0:0:
256,192,15076,1,0,0:0:0:0:
256,192,16455,1,8,0:0:0:0:
256,192,17835,1,8,0:0:0:0:
256,192,19214,1,0,0:0:0:0:
256,192,20593,1,8,0:0:0:0:
256,192,21283,1,0,0:0:0:0:
256,192,21972,1,8,0:0:0:0:
240,192,24041,1,12,0:0:0:0:
240,192,24386,1,8,0:0:0:0:
240,192,24731,1,4,0:0:0:0:
224,192,25076,1,8,0:0:0:0:
224,192,25766,1,8,0:0:0:0:
224,192,26455,1,8,0:0:0:0:
224,192,26800,1,0,0:0:0:0:
208,192,27145,1,8,0:0:0:0:
208,192,27835,1,8,0:0:0:0:
208,192,28524,1,8,0:0:0:0:
208,192,29214,1,8,0:0:0:0:
208,192,29559,1,0,0:0:0:0:
208,192,29904,1,8,0:0:0:0:
208,192,30593,1,8,0:0:0:0:
208,192,31283,1,8,0:0:0:0:
208,192,31972,1,8,0:0:0:0:
208,192,32317,1,0,0:0:0:0:
208,192,32662,1,8,0:0:0:0:
192,192,33352,1,8,0:0:0:0:
192,192,34041,1,0,0:0:0:0:
192,192,35076,1,12,0:0:0:0:
192,192,35421,1,8,0:0:0:0:
192,192,35766,1,4,0:0:0:0:
192,192,36455,1,8,0:0:0:0:
256,192,37835,1,8,0:0:0:0:
240,192,38524,1,4,0:0:0:0:
240,192,39214,1,8,0:0:0:0:
240,192,40593,1,8,0:0:0:0:
240,192,40938,1,8,0:0:0:0:
240,192,41283,1,4,0:0:0:0:
240,192,41972,1,8,0:0:0:0:
240,192,43352,1,8,0:0:0:0:
240,192,44041,1,0,0:0:0:0:
240,192,44731,1,8,0:0:0:0:
240,192,45421,1,0,0:0:0:0:
240,192,45766,1,8,0:0:0:0:
240,192,46110,1,8,0:0:0:0:
240,192,46800,1,4,0:0:0:0:
240,192,47490,1,8,0:0:0:0:
240,192,48869,1,8,0:0:0:0:
240,192,49214,1,8,0:0:0:0:
240,192,49559,1,0,0:0:0:0:
240,192,50248,1,8,0:0:0:0:
240,192,50938,1,8,0:0:0:0:
240,192,51628,1,8,0:0:0:0:
240,192,51972,1,0,0:0:0:0:
240,192,52317,1,12,0:0:0:0:
240,192,53007,1,8,0:0:0:0:
240,192,54386,1,8,0:0:0:0:
240,192,54731,1,0,0:0:0:0:
240,192,55076,1,0,0:0:0:0:
240,192,55766,1,8,0:0:0:0:
240,192,57145,1,8,0:0:0:0:
240,192,57835,1,4,0:0:0:0:
240,192,58524,1,8,0:0:0:0:
256,192,59904,1,8,0:0:0:0:
256,192,60593,1,0,0:0:0:0:
256,192,60938,1,0,0:0:0:0:
256,192,61283,1,8,0:0:0:0:
256,192,62662,1,8,0:0:0:0:
256,192,63352,1,0,0:0:0:0:
256,192,64041,1,8,0:0:0:0:
256,192,65421,1,8,0:0:0:0:
256,192,66110,1,0,0:0:0:0:
256,192,66455,1,0,0:0:0:0:
256,192,66800,1,8,0:0:0:0:
256,192,68179,1,8,0:0:0:0:
256,192,68869,1,0,0:0:0:0:
256,192,69559,1,8,0:0:0:0:
256,192,70248,1,0,0:0:0:0:
256,192,70593,1,8,0:0:0:0:
256,192,70938,1,8,0:0:0:0:
256,192,71628,1,4,0:0:0:0:
256,192,72317,1,8,0:0:0:0:
256,192,73697,1,8,0:0:0:0:
256,192,74386,1,0,0:0:0:0:
256,192,75076,1,8,0:0:0:0:
256,192,76455,1,8,0:0:0:0:
256,192,77145,1,0,0:0:0:0:
256,192,77835,1,8,0:0:0:0:
256,192,78524,1,0,0:0:0:0:
256,192,78869,1,8,0:0:0:0:
256,192,79214,1,8,0:0:0:0:
256,192,79904,1,4,0:0:0:0:
256,192,80593,1,8,0:0:0:0:
240,208,81972,1,8,0:0:0:0:
256,192,82662,1,0,0:0:0:0:
256,192,83007,1,0,0:0:0:0:
256,192,83352,1,8,0:0:0:0:
256,192,84041,1,0,0:0:0:0:
240,192,84386,1,8,0:0:0:0:
240,192,85421,1,4,0:0:0:0:
240,192,86110,1,8,0:0:0:0:
224,192,87490,1,8,0:0:0:0:
224,192,88179,1,0,0:0:0:0:
224,192,88869,1,8,0:0:0:0:
256,192,90248,1,8,0:0:0:0:
256,192,90938,1,4,0:0:0:0:
256,192,91628,1,8,0:0:0:0:
240,192,93007,1,8,0:0:0:0:
240,192,93697,1,0,0:0:0:0:
240,192,94041,1,0,0:0:0:0:
240,192,94386,1,8,0:0:0:0:
240,192,95076,1,8,0:0:0:0:
240,192,96110,1,8,0:0:0:0:
240,192,96455,1,4,0:0:0:0:
240,192,97145,1,8,0:0:0:0:
256,192,98524,1,8,0:0:0:0:
256,192,99214,1,0,0:0:0:0:
256,192,99904,1,8,0:0:0:0:
256,192,100593,1,0,0:0:0:0:
256,192,101283,1,8,0:0:0:0:
256,192,101972,1,4,0:0:0:0:
256,192,103352,1,8,0:0:0:0:
256,192,104041,1,8,0:0:0:0:
256,192,104731,1,0,0:0:0:0:
256,192,105421,1,0,0:0:0:0:
256,192,106110,1,8,0:0:0:0:
256,192,106800,1,8,0:0:0:0:
256,192,107490,1,0,0:0:0:0:
256,192,108179,1,8,0:0:0:0:
256,192,108869,1,0,0:0:0:0:
256,192,110248,1,0,0:0:0:0:
256,192,110938,1,8,0:0:0:0:
256,192,111628,1,0,0:0:0:0:
256,192,112317,1,8,0:0:0:0:
256,192,112662,1,0,0:0:0:0:
