osu file format v9

[General]
AudioFilename: Pandora_Hearts_-_Maze.mp3
AudioLeadIn: 0
PreviewTime: -1
Countdown: 0
SampleSet: Soft
StackLeniency: 0.7
Mode: 0
LetterboxInBreaks: 1

[Editor]
DistanceSpacing: 0.8
BeatDivisor: 4
GridSize: 16

[Metadata]
Title:Maze
Artist:Savage Genius feat. Oomi Tomoe
Creator:jusufkala
Version:Normal
Source:Pandora Hearts
Tags:

[Difficulty]
HPDrainRate:5
CircleSize:4
OverallDifficulty:5
ApproachRate:5
SliderMultiplier:1.2
SliderTickRate:1

[Events]
//Background and Video events
0,0,"Moe~.jpg"
//Break Periods
2,81859,96546
2,156641,169589
//Storyboard Layer 0 (Background)
//Storyboard Layer 1 (Fail)
//Storyboard Layer 2 (Pass)
//Storyboard Layer 3 (Foreground)
//Storyboard Sound Samples
//Background Colour Transformations
3,100,163,162,255

[TimingPoints]
355,434.782608695652,4,2,0,75,1,0
5572,-100,4,1,0,75,0,0
22963,-100,4,2,0,75,0,0
36876,-133.333333333333,4,1,0,75,0,0
49050,-100,4,1,0,75,0,0
50789,-100,4,1,0,75,0,1
71659,-133.333333333333,4,1,0,75,0,0
82094,-100,4,1,0,75,0,0
97746,-100,4,2,0,75,0,0
111659,-133.333333333333,4,1,0,75,0,0
123833,-133.333333333333,4,1,0,75,0,0
125572,-100,4,1,0,75,0,1
146441,-133.333333333333,4,1,0,75,0,0
156876,-100,4,1,0,75,0,0
184702,-133.333333333333,4,2,0,75,0,0
210789,-133.333333333333,4,1,0,75,0,0
216007,-100,4,1,0,75,0,1
236876,-133.333333333333,4,1,0,75,0,0
247311,-133.333333333333,4,1,0,75,0,0
250789,-100,4,1,0,75,0,0
266441,-100,4,2,0,75,0,0

[Colours]
Combo1 : 128,128,192
Combo2 : 192,192,192
Combo3 : 59,59,59

[HitObjects]
256,112,6441,1,4
256,192,6768,1,4
256,272,7094,1,4
256,272,7311,6,0,B|320:272|320:272|320:288|320:288|368:288,1,120,0|8
432,288,8181,2,0,B|432:224|432:224|448:224|448:224|448:176,3,120,0|0|0|8
448,112,9920,2,0,B|384:64|320:112,1,120,0|8
256,112,10789,2,0,B|256:240,3,120,0|8|0|8
320,240,12528,5,0
320,240,12854,1,0
400,240,13181,1,8
400,240,13398,1,8
400,160,13833,6,0,B|336:160,2,60
400,96,14702,2,0,B|256:96,3,120,0|0|8|0
192,96,16441,1,8
128,96,16876,2,0,B|80:160|128:224,2,120,0|8|0
192,96,18181,6,0,B|256:96,2,60,8|0|0
128,96,19050,1,0
128,160,19268,1,0
192,192,19485,5,0
256,192,19811,1,0
320,192,20137,1,0
384,192,20354,1,0
256,272,21224,5,4
256,272,21550,1,4
256,272,21876,1,4
256,208,22528,1,6
144,128,22963,6,0,B|208:96|272:144,1,120,0|2
256,208,23833,2,0,B|192:240|128:192,1,120,0|2
64,192,24702,1,0
64,272,25137,1,2
160,272,25572,2,2,B|240:272,2,60
144,192,26441,6,0,B|144:112|240:112,1,120,0|2
368,192,27311,2,0,B|368:112|272:112,1,120,0|2
256,192,28181,2,0,B|256:320,1,120,0|2
352,304,29050,2,2,B|432:304,2,60
352,224,29920,6,0,B|272:224,3,60,0|0|2|2
224,224,30789,1,0
144,224,31007,2,0,B|96:176|160:112,1,120,0|2
208,64,31659,1,2
288,64,32094,1,0
320,64,32311,1,0
400,64,32746,6,0,B|400:144,3,60
400,192,33833,1,2
336,192,34050,1,2
240,192,34485,2,0,B|176:192,3,60
80,192,35572,1,2
80,144,35789,1,2
80,80,36007,1,0
128,80,36224,1,0
176,80,36441,1,6
256,144,36876,5,0
336,144,37311,1,0
400,144,37746,2,0,B|400:288,2,134.999995976687
400,64,39485,2,0,B|336:64|336:64|336:96|336:96|288:96,2,134.999995976687
480,64,41224,1,8
480,144,41659,1,8
384,144,42094,6,0,B|432:224|320:224,2,134.999995976687
384,144,43833,1,0
288,144,44268,2,0,B|224:144|224:144|224:224,2,134.999995976687
384,144,46007,1,0
256,192,46441,12,0,48615
256,112,49050,5,0
256,192,49376,1,0
336,192,49702,1,0
336,272,49920,1,0
192,272,50354,1,4
112,272,50789,6,0,B|64:208|128:160,1,120,0|8
192,128,51659,2,0,B|256:128,2,60,0|0|8
112,128,52528,2,0,B|112:48|192:48,1,120,0|8
256,48,53398,2,0,B|320:80,2,60,0|0|8
192,112,54268,1,0
192,192,54702,1,8
288,192,55137,2,0,B|368:192,2,60,0|0|8
288,272,56007,2,0,B|304:352|336:208|368:352,3,120,0|8|0|8
448,336,57746,6,0,B|448:272|448:272|480:272|480:272|480:240,1,120,0|8
480,176,58615,2,0,B|480:112,2,60,0|8|8
400,176,59485,2,0,B|336:176|336:176|336:144|336:144|304:144,1,120,0|8
224,144,60354,2,0,B|176:96,2,60,0|8|8
176,192,61224,6,0,B|96:288,1,120,0|8
160,320,62094,2,0,B|240:224,1,120,0|8
288,272,62963,2,0,B|208:368,1,120,0|8
160,320,63833,1,4
112,256,64268,1,4
64,192,64702,1,4
128,128,65137,6,0,B|176:80,2,60,0|8|8
176,176,66007,2,0,B|240:224,1,60
224,212,66441,1,8
272,160,66876,2,0,B|320:112,2,60,0|8|8
224,212,67746,2,0,B|176:256,1,60
179,252,68181,1,8
256,288,68615,2,0,B|304:352|384:288,3,120,0|8|0|8
416,256,70354,2,0,B|416:128|416:128|288:128,1,240,0|4
192,128,71659,5,0
144,128,71985,1,0
96,128,72311,1,0
48,128,72528,1,0
48,208,73398,2,0,B|48:288,1,67.4999979883433
112,272,74050,2,0,B|176:272,1,44.9999986588955
256,272,75137,5,0
336,272,75463,1,0
416,272,75789,2,0,B|464:192,2,89.9999973177911,0|8|0
336,272,77094,2,0,B|240:224,2,89.9999973177911,8|0|8
416,272,78181,1,0
256,192,78615,12,0,81659
112,64,97746,6,0,B|48:112|112:192,1,120,0|2
176,176,98615,2,0,B|240:176|240:176|240:144|240:144|288:144,1,120,0|2
352,144,99485,1,0
400,144,99811,1,0
448,144,100137,1,2
448,224,101224,6,0,B|448:352,3,120
368,336,102963,2,0,B|416:224|256:336|384:192,2,180,0|0|4
288,336,104702,1,0
176,336,105354,2,0,B|112:336,1,60,0|2
112,256,106007,1,0
112,176,106441,2,0,B|192:176,1,60
256,176,107094,1,2
256,256,107746,1,2
336,256,108398,6,0,B|416:256,3,60
400,176,109376,1,0
320,176,109702,1,6
224,176,111659,6,0,B|80:176,2,134.999995976687
304,176,113398,2,0,B|368:112|352:240|416:176,2,134.999995976687
256,224,115137,2,0,B|256:272|256:272|304:272|304:272|304:320,2,134.999995976687
256,128,116876,5,0
320,128,117202,1,0
368,128,117528,1,0
432,128,117746,2,0,B|480:240|336:224,1,179.999994635582
256,224,119050,2,0,B|112:224,2,134.999995976687
256,192,121224,12,0,123398
192,192,123833,6,0,B|256:144,1,67.4999979883433
304,112,124485,2,0,B|272:80,1,44.9999986588955
208,96,125137,1,12
80,240,125572,6,0,B|32:176|96:128,1,120,0|8
144,96,126442,2,0,B|208:96,2,60,0|0|8
80,112,127311,2,0,B|80:32|160:32,1,120,0|8
224,48,128181,2,0,B|288:80,2,60,0|0|8
160,112,129051,1,0
208,160,129485,1,8
256,192,129920,2,0,B|336:192,2,60,0|0|8
208,240,130789,2,0,B|320:304,3,120,0|8|0|8
416,336,132529,6,0,B|416:272|416:272|448:272|448:272|448:240,1,120,0|8
448,176,133398,2,0,B|448:112,2,60,0|8|8
368,176,134268,2,0,B|304:176|304:176|304:144|304:144|272:144,1,120,0|8
192,144,135137,2,0,B|144:96,2,60,0|8|8
128,192,136007,6,0,B|64:208|80:288,1,120,0|8
208,192,136876,2,0,B|272:208|256:288,1,120,0|8
128,192,137746,2,0,B|64:208|80:288,1,120,0|8
128,320,138616,1,4
80,256,139051,1,4
32,192,139485,1,4
96,128,139920,6,0,B|144:80,2,60,0|8|8
144,176,140790,2,0,B|208:224,1,60
240,160,141224,1,8
240,160,141659,2,0,B|288:112,2,60,0|8|8
192,212,142529,2,0,B|144:256,1,60
224,288,142964,1,8
224,288,143398,2,0,B|272:352|352:288,3,120,0|8|0|8
400,256,145137,2,0,B|448:144|448:144|384:144|384:144|384:80,1,240,0|8
304,80,146441,6,0,B|240:48|304:128|160:80,2,134.999995976687,0|0|8
304,160,148181,2,0,B|384:160|384:160|352:224,2,134.999995976687,0|0|8
256,192,149920,12,0,152963
256,192,153398,12,0,156441
96,192,170789,6,0,B|96:112|208:64,2,180,0|0|8
96,192,172528,1,0
176,192,172963,2,0,B|256:192|288:272,2,120,8|0|8
176,192,174268,1,0
176,96,174702,6,0,B|304:96,3,120,8|0|8|0
400,96,176441,2,0,B|400:224,1,120,8|0
400,304,177311,2,0,B|336:320|368:224|288:304,3,120
240,288,179050,1,8
144,288,179485,6,0,B|144:160,1,120
144,128,180137,1,0
144,80,180354,1,0
240,80,180789,2,0,B|320:64|320:160,2,120,0|8|0
256,144,182094,2,0,B|192:192|256:272,2,120,8|0|8
352,144,183398,2,0,B|432:144,4,60,0|0|0|8|12
192,144,184702,6,0,B|128:272,2,134.999995976687,0|0|2
256,160,186441,1,0
336,160,186876,1,0
416,160,187311,2,0,B|416:256|288:288,1,179.999994635582,2|0
224,288,188615,2,0,B|224:144,2,134.999995976687
128,288,190354,1,0
128,288,190789,1,0
128,288,191224,1,2
128,192,191659,6,0,B|128:48,2,134.999995976687,0|0|2
224,192,193398,2,0,B|320:192,1,89.9999973177911,0|2
400,192,194268,2,0,B|400:96,1,89.9999973177911,0|2
320,96,195137,2,0,B|256:48|176:96,2,134.999995976687,0|0|2
192,160,196876,1,0
256,160,197311,2,0,B|352:160,2,89.9999973177911,0|0|4
256,240,198615,6,0,B|288:320|384:256,2,134.999995976687,0|0|2
224,176,200354,2,0,B|144:128|240:64,2,134.999995976687,0|0|2
304,176,202094,2,0,B|448:176,2,134.999995976687,0|0|2
224,176,203833,2,0,B|160:208|208:256,3,89.9999973177911,0|0|2|2
256,304,205572,6,0,B|304:336|352:288,1,89.9999973177911,0|2
400,256,206441,2,0,B|432:208|384:160,1,89.9999973177911,2|0
320,176,207311,2,0,B|288:128|336:80,1,89.9999973177911,0|2
256,192,208181,12,0,210354
256,192,210789,5,0
256,144,211115,1,0
176,112,211441,1,0
176,160,211768,1,0
176,192,212094,1,0
176,224,212311,1,0
176,304,212746,6,0,B|256:304,4,67.4999979883433
416,240,216007,6,0,B|416:192|416:192|448:176|448:176|448:128,1,120
448,64,216876,1,0
400,64,217094,1,0
352,64,217311,1,8
272,64,217746,2,0,B|224:112|272:176,1,120
336,176,218615,2,0,B|400:176,2,60,0|0|8
256,176,219485,6,0,B|192:176|192:272,3,120,0|8|0|8
272,256,221224,2,0,B|400:256,1,120,0|8
464,256,222094,1,0
464,224,222311,1,8
464,192,222528,1,8
464,96,222963,6,0,B|384:16|288:112,2,180
464,160,224702,2,0,B|384:240|288:144,2,180
464,96,226441,2,0,B|336:96,4,120,0|8|0|8|0
256,80,228833,1,0
256,112,229050,1,0
256,176,229485,1,0
256,240,229920,1,4
288,240,230137,2,0,B|352:240,2,60
288,128,231224,6,0,B|416:128,1,120,0|8
336,192,232094,2,0,B|464:192,1,120,0|8
416,256,232963,2,0,B|288:256,1,120,8|0
208,256,233833,2,0,B|160:192|224:128,1,120,8|0
256,80,234702,1,0
336,80,235137,1,0
416,80,235572,1,8
416,160,236007,2,0,B|288:160,1,120,8|0
192,160,236876,5,0
144,160,237202,1,0
80,160,237528,1,0
48,160,237746,1,0
48,240,238615,2,0,B|128:240,1,67.4999979883433
176,240,239268,2,0,B|224:240,1,44.9999986588955
256,192,240354,12,0,243398
256,192,243833,12,0,246876
256,192,247311,5,0
256,192,247746,1,8
256,192,248181,1,0
256,192,248615,1,8
256,112,249050,2,0,B|288:112,8,22.4999993294478
192,112,250354,1,4
192,208,250789,6,0,B|256:208|256:208|256:224|256:224|304:224,1,120,0|8
384,224,251659,2,0,B|384:160|384:160|400:160|400:160|400:112,3,120,0|8|0|8
400,48,253398,2,0,B|336:0|288:48,1,120,0|8
256,112,254268,2,0,B|256:240,3,120,0|8|0|8
320,240,256006,5,0
352,272,256332,1,0
400,240,256659,1,0
432,224,256876,1,0
400,160,257311,6,0,B|336:160,2,60
400,96,258181,2,0,B|256:96,3,120,8|0|8|0
128,96,259919,1,8
128,96,260354,2,0,B|80:160|128:224,2,120,0|8|0
208,96,261659,6,0,B|272:96,2,60,8|0|0
128,96,262528,1,0
128,144,262746,1,0
192,192,262963,5,0
256,192,263289,1,0
320,192,263615,1,0
368,192,263832,1,0
256,272,264702,5,0
192,272,265028,1,0
256,272,265354,1,0
256,208,266006,1,4
256,112,266441,6,0,B|256:48,3,60
304,112,267311,1,2
368,112,267637,1,2
400,112,267963,1,0
400,192,268398,5,0
400,240,268615,1,0
400,288,268833,1,0
400,336,269050,1,2
336,336,269376,1,2
288,336,269702,1,2
176,336,270137,6,0,B|176:256,3,60,0|0|0|2
176,208,271115,1,2
240,208,271441,1,0
320,208,271876,6,0,B|400:208,1,60
432,208,272311,2,0,B|432:144,1,60,0|2
432,112,272854,1,2
368,112,273181,1,2
