osu file format v6

[General]
AudioFilename: Maze (TV-Size).mp3
AudioLeadIn: 1500
PreviewTime: 40155
Countdown: 1
SampleSet: Soft
StackLeniency: 0.5
Mode: 0
LetterboxInBreaks: 1
SkinPreference:Default

[Editor]
DistanceSpacing: 1
BeatDivisor: 4
GridSize: 8

[Metadata]
Title:Maze (TV-Size)
Artist:Savage Genius feat. Oomi Tomoe
Creator:alvisto
Version:Maze
Source:Pandora Hearts OST
Tags:Pandora Hearts ED Ending theme Anime

[Difficulty]
HPDrainRate:6
CircleSize:4
OverallDifficulty:7
SliderMultiplier:1.6
SliderTickRate:1

[Events]
//Background and Video events
0,0,"Maze BG.jpg"
Video,338,"pandora hearts MAZE_0.avi"
//Break Periods
//Storyboard Layer 0 (Background)
//Storyboard Layer 1 (Fail)
//Storyboard Layer 2 (Pass)
//Storyboard Layer 3 (Foreground)
//Storyboard Sound Samples
//Background Colour Transformations
3,100,163,162,255

[TimingPoints]
355,434.782608695652,4,2,0,38,1,0
688,-100,4,2,0,27,0,0
1122,-100,4,1,2,29,0,0
1441,-100,4,1,2,22,0,0
1768,-100,4,1,2,17,0,0
2046,-100,4,1,0,100,0,1
2101,-100,4,1,0,38,0,0
2861,-100,4,1,0,69,0,0
4166,-100,4,1,1,55,0,0
9247,-100,4,1,1,67,0,0
10661,-100,4,1,1,61,0,0
11530,-100,4,1,1,52,0,0
11965,-100,4,1,1,68,0,0
12209,-100,4,2,1,64,0,0
19166,-100,4,2,2,64,0,0
35893,-100,4,1,2,56,0,0
36654,-100,4,2,0,56,0,0
37415,-100,4,2,0,84,0,0
38514,-100,4,1,2,78,0,0
39688,-100,4,1,2,100,0,0
39872,-100,4,1,2,100,0,1
40132,-100,4,2,2,78,0,1
40349,434.782608695652,4,2,2,78,1,1
50688,-100,4,2,2,78,0,1
53067,-100,4,1,2,78,0,1
53731,-100,4,1,2,78,0,0
53785,-100,4,1,2,78,0,1
54045,-100,4,2,2,78,0,1
60458,-100,4,2,1,87,0,1
61122,-100,4,2,1,81,0,1
62209,-100,4,2,1,96,0,1
62420,-100,4,2,1,100,0,1
63948,-100,4,2,1,100,0,1
67972,-100,4,2,2,81,0,1
70253,-100,4,2,2,71,0,0
70898,-100,4,2,2,59,0,0
71653,-200,4,2,0,100,0,0
73181,-100,4,2,0,100,0,0
73298,-100,4,1,1,72,0,0
74275,-100,4,1,1,66,0,0
74383,-100,4,1,1,62,0,0
74492,-100,4,1,1,52,0,0
74655,-100,4,1,2,79,0,1
74818,-100,4,1,1,62,0,0
80254,-100,4,1,1,74,0,0
81550,-100,4,1,1,74,0,0
81659,-100,4,1,1,63,0,0
81768,-100,4,1,1,50,0,0
81993,-100,4,2,0,72,0,0
82428,-100,4,2,0,62,0,0
82646,-100,4,2,0,52,0,0
82863,-100,4,1,0,48,0,0
83080,-100,4,1,0,41,0,0
83515,-100,4,1,0,32,0,0
83841,-100,4,2,0,61,0,0
84167,-100,4,2,0,51,0,0
84385,-100,4,2,0,41,0,0
84602,-100,4,1,0,39,0,0
84928,-100,4,1,0,30,0,0
85254,-100,4,1,0,21,0,0
85580,-100,4,2,0,52,0,0
85906,-100,4,2,0,41,0,0
86124,-100,4,2,0,32,0,0
86341,-100,4,1,0,24,0,0
86559,-100,4,1,0,14,0,0
86993,-100,4,1,0,5,0,0

[Colours]
Combo1 : 138,255,138
Combo2 : 255,164,164
Combo3 : 109,109,252

[HitObjects]
256,56,355,1,0
256,56,572,1,0
256,120,789,1,2
256,120,1007,1,0
208,160,1224,1,2
304,160,1550,1,2
256,240,1876,1,2
256,304,2094,6,0,B|232:304|200:304,6,40,0|0|0|0|0|0|0
296,352,2963,6,0,B|336:352|360:336|384:304|376:248,1,120
376,280,3615,1,0
424,224,3833,5,0
424,96,4268,1,10
312,32,4702,2,0,B|272:16|216:16|176:40|144:80,1,160,0|10
152,128,5354,1,0
96,88,5572,2,0,B|61:119|57:185|73:222|96:259,1,160,0|10
120,296,6224,1,0
120,296,6333,1,0
120,296,6441,2,0,B|152:328|184:344|232:352|280:336,1,160,0|10
328,320,7094,5,0
328,320,7202,1,0
328,320,7311,2,0,B|366:307|399:280|424:240|424:184,1,160,0|10
376,152,7963,1,0
440,136,8181,2,0,B|416:80|368:72|328:96|312:136,1,160,0|10
336,200,8833,1,0
256,200,9050,5,2
256,80,9376,1,2
256,200,9702,1,0
256,280,9920,1,2
256,352,10137,6,0,B|288:352|304:328,4,40
192,352,10789,5,2
104,240,11115,1,2
192,128,11441,1,2
272,80,11659,1,0
296,64,11768,1,0
328,56,11876,1,2
360,64,11985,1,2
384,80,12094,1,2
432,120,12311,5,2
448,144,12420,1,0
464,168,12528,2,0,B|488:216|480:256|464:296|432:320,1,160,0|4
384,272,13181,1,0
376,336,13398,2,0,B|328:328|304:280|312:232|352:216|360:208,1,160,0|4
384,160,14050,1,0
384,96,14268,2,0,B|440:96|464:144|456:192|416:216,1,160,0|4
360,216,14920,1,0
296,232,15137,2,0,B|248:240|240:304,2,80,2|2|4
360,216,15789,5,2
392,208,15898,1,0
424,192,16007,2,0,B|456:176|472:120|456:72|416:40,1,160,0|4
376,96,16659,1,2
360,32,16876,2,0,B|312:40|272:80|240:96|200:80,1,160,0|4
160,48,17528,1,2
152,112,17746,2,0,B|104:152|104:240|160:288,1,160,0|4
135,258,18398,1,2
176,304,18615,2,0,B|208:344|264:336,2,80,0|0|4
136,256,19268,5,6
120,224,19376,1,4
120,184,19485,2,0,B|129:144|185:138|249:148|255:196,1,160,4|4
288,240,20137,1,0
352,224,20354,1,0
400,272,20572,1,0
464,248,20789,2,0,B|488:208|472:168,1,80,4|0
473,171,21224,1,0
488,72,21550,1,0
392,80,21876,1,0
344,32,22094,5,6
280,56,22311,1,2
248,64,22420,1,0
216,56,22528,1,4
152,56,22746,1,2
120,40,22854,1,0
96,56,22963,1,0
56,104,23181,5,0
104,152,23398,1,4
152,200,23615,1,0
200,248,23833,2,0,B|248:272|320:272|376:240,1,160,0|4
355,250,24485,1,0
400,208,24702,2,0,B|437:182|437:86|397:54,1,160,0|4
352,99,25354,5,0
403,60,25572,1,4
464,80,25789,1,2
472,112,25898,1,0
464,144,26007,1,4
440,200,26224,1,6
440,200,26333,1,4
440,200,26441,6,0,B|392:240|488:288|440:352,3,160,0|2|4|0
384,304,27963,5,0
376,368,28181,2,0,B|328:360|312:320|312:287|333:267,1,120,0|0
325,278,28833,1,0
376,216,29050,1,4
432,104,29376,1,0
336,32,29702,1,0
296,24,29811,1,0
256,32,29920,1,2
136,64,30246,5,0
48,144,30572,1,0
48,144,30789,1,4
40,224,31007,1,2
32,264,31115,1,0
56,288,31224,1,4
200,344,31659,5,0
280,256,31985,1,2
400,280,32311,1,0
400,280,32528,1,4
456,240,32746,1,2
480,216,32854,1,0
456,192,32963,6,0,B|427:156|426:92|438:53|472:32,1,160,4|0
216,48,34050,1,0
232,72,34159,1,0
248,96,34268,2,0,B|272:160|328:144|328:208,1,120,4|2
296,336,34920,1,0
280,312,35028,1,0
264,288,35137,2,0,B|240:224|184:240|184:176,1,120,4|2
256,96,35789,1,0
288,168,36007,6,0,B|288:112|336:128,1,40,2|0
224,168,36333,2,0,B|224:112|176:128,1,40,2|0
256,288,36876,2,2,B|256:232|256:200|256:152|256:136,1,120,2|0
256,168,37528,1,0
256,8,37963,1,0
256,8,38072,1,0
256,8,38181,1,2
256,8,38289,1,0
256,8,38398,1,2
200,56,38615,6,0,B|200:88|200:112,1,40,2|0
312,56,38941,2,0,B|312:88|312:112,1,40,2|0
72,160,39268,1,2
448,160,39485,1,2
256,352,39920,5,8
128,88,40349,5,0
128,88,40566,2,0,B|184:88|192:152,1,80,0|6
224,200,41001,1,2
280,256,41218,1,0
336,200,41435,1,2
368,176,41544,1,0
400,200,41653,1,4
456,256,41870,5,0
480,288,41979,1,0
456,320,42088,2,0,B|440:368|384:360,1,80
395,361,42522,1,6
328,320,42740,1,2
264,360,42957,1,0
192,320,43175,1,2
160,296,43283,1,0
128,320,43392,5,4
64,272,43609,1,0
40,192,43827,1,0
48,112,44044,1,2
88,40,44262,1,4
168,16,44479,1,0
192,40,44588,2,2,B|232:72|280:72|328:56,1,120
376,24,45131,1,4
456,48,45348,1,0
456,48,45566,2,0,B|475:90|476:150|456:216,1,160,0|4
424,272,46218,1,2
400,304,46327,1,0
368,328,46435,2,0,B|328:344|288:336,1,80,0|2
208,328,46870,5,4
208,328,47088,1,0
208,328,47305,2,2,B|136:320|104:288|88:240|96:208,1,160,0|4
168,208,47957,1,2
104,152,48175,1,0
104,152,48609,1,4
232,56,49044,6,2,B|280:32|344:32|408:64,1,160,0|4
416,128,49696,1,2
488,88,49914,1,0
488,88,50348,1,4
336,344,50783,5,0
272,296,51001,1,0
336,344,51218,2,0,B|376:360|416:344,1,80,4|0
414,344,51544,1,0
496,256,51870,1,0
424,216,52088,1,4
392,144,52305,1,0
320,104,52522,1,0
320,104,52957,1,4
256,56,53175,5,2
256,56,53392,2,0,B|256:160|256:224,1,160,2|10
360,320,54262,5,2
328,344,54370,1,0
288,360,54479,1,2
248,360,54588,1,0
208,352,54696,2,0,B|160:344|136:288,1,80,6|0
144,224,55131,1,2
144,224,55348,1,2
144,224,55566,1,4
144,144,55783,5,2
144,144,55892,1,0
144,144,56001,1,2
192,80,56218,1,0
232,144,56435,1,4
280,80,56653,1,0
328,144,56870,1,2
328,144,57088,1,2
328,144,57305,5,4
400,176,57522,1,0
432,248,57740,1,0
400,320,57957,1,2
328,352,58175,1,4
248,336,58392,1,0
248,336,58501,2,0,B|184:376|120:344,1,120
56,312,59044,5,4
24,240,59262,1,0
48,160,59479,2,0,B|40:120|80:72|136:88,2,120,0|2|0
104,216,60348,1,2
176,192,60566,1,4
208,208,60675,1,4
240,232,60783,1,4
280,224,60892,1,4
320,216,61001,1,4
416,128,61218,6,0,B|404:159|408:222|424:256,2,120,0|2|0
416,128,62088,1,2
432,48,62305,1,4
432,48,62414,1,4
432,48,62522,1,4
96,128,62957,6,0,B|108:159|104:222|88:256,2,120,0|2|0
96,128,63827,1,2
80,48,64044,1,4
80,48,64153,1,4
80,48,64262,1,4
221,40,64696,6,0,B|269:144|309:216,1,160,0|4
293,40,65566,2,0,B|245:144|205:216,1,160,0|4
368,32,66435,2,0,B|368:72|368:144|368:184|368:208,1,160,0|4
448,32,67305,2,0,B|448:96|448:144|448:184|448:208,1,160,0|4
376,336,68175,5,0
256,304,68501,1,2
136,336,68827,1,0
56,320,69044,2,0,B|24:296|8:264|8:224|24:168,1,160,0|4
22,174,69696,1,0
216,32,70349,5,4
176,184,70783,1,4
176,264,71001,1,4
176,304,71109,2,4,B|176:352,4,40
176,280,71653,6,0,B|208:280|224:256|232:224|208:192|184:184,1,120,0|4
336,280,72522,2,0,B|304:280|288:256|280:224|304:192|328:184,1,120,0|4
256,136,73392,5,0
256,144,73501,1,0
256,152,73609,1,2
256,160,73718,1,2
256,168,73827,1,0
256,176,73935,1,2
256,184,74044,1,2
256,192,74153,1,0
256,200,74262,1,0
256,208,74370,1,0
256,216,74479,1,0
256,296,74696,5,10
336,272,74914,5,0
336,272,75022,1,0
336,272,75131,2,0,B|376:232|392:184|376:136|352:96,1,160,0|10
320,80,75783,1,0
256,64,76001,2,0,B|208:64|159:82|144:137,2,120,0|2|0
320,80,76870,2,0,B|370:95|383:152|376:200|360:240,1,160,2|10
328,272,77522,1,2
328,272,77631,1,2
328,272,77740,2,0,B|288:304|232:296,2,80,2|2|10
368,216,78392,5,2
368,216,78501,1,2
368,216,78609,2,0,B|384:184|384:120|344:80|304:72,1,160,2|10
256,64,79262,1,2
192,80,79479,1,2
72,64,79805,1,2
112,176,80131,1,2
192,176,80349,5,0
312,176,80675,1,2
256,56,81001,1,0
256,56,81218,1,2
256,136,81435,2,0,B|256:184,4,40
256,136,82305,5,0
256,144,82522,1,0
256,152,82740,1,0
256,216,82957,1,0
200,104,83283,1,0
312,104,83609,1,0
256,144,84044,5,0
256,152,84262,1,0
256,160,84479,1,0
256,264,84696,1,0
144,72,85022,1,0
368,72,85349,1,0
256,152,85783,5,0
256,160,86001,1,0
256,168,86218,1,0
256,320,86435,1,0
88,32,86762,1,0
424,32,87088,1,0
