osu file format v6

[General]
AudioFilename: Maze (TV-Size).mp3
AudioLeadIn: 1500
PreviewTime: 40155
Countdown: 1
SampleSet: Normal
StackLeniency: 0.5
Mode: 0
LetterboxInBreaks: 1
SkinPreference:Default

[Editor]
Bookmarks: 38610,72561,73213
DistanceSpacing: 1
BeatDivisor: 4
GridSize: 8

[Metadata]
Title:Maze (TV-Size)
Artist:Savage Genius feat. Oomi Tomoe
Creator:alvisto
Version:Beginner
Source:Pandora Hearts OST
Tags:Pandora Hearts ED Ending theme Anime

[Difficulty]
HPDrainRate:0
CircleSize:3
OverallDifficulty:4
SliderMultiplier:1.2
SliderTickRate:1

[Events]
//Background and Video events
0,0,"Maze BG.jpg"
Video,338,"pandora hearts MAZE_0.avi"
//Break Periods
//Storyboard Layer 0 (Background)
//Storyboard Layer 1 (Fail)
//Storyboard Layer 2 (Pass)
//Storyboard Layer 3 (Foreground)
//Storyboard Sound Samples
//Background Colour Transformations
3,100,163,162,255

[TimingPoints]
355,434.782608695652,4,2,0,51,1,0
572,-100,4,2,0,38,0,0
1007,-100,4,1,2,37,0,0
2861,-100,4,1,0,69,0,0
4166,-100,4,1,1,69,0,0
9247,-100,4,1,1,80,0,0
10661,-100,4,1,1,61,0,0
12287,-100,4,2,1,70,0,0
19166,-100,4,2,2,71,0,0
35893,-100,4,1,2,56,0,0
36654,-100,4,2,0,56,0,0
37415,-100,4,2,0,84,0,0
38514,-100,4,1,2,78,0,0
39688,-100,4,1,2,100,0,0
39872,-100,4,1,2,100,0,1
40349,434.782608695652,4,2,2,78,1,1
53067,-100,4,1,2,78,0,1
53731,-100,4,1,2,78,0,0
53785,-100,4,1,2,78,0,1
54045,-100,4,2,2,78,0,1
60458,-100,4,2,1,78,0,1
61122,-100,4,2,1,81,0,1
67972,-100,4,2,2,81,0,1
70361,-100,4,1,0,81,0,1
71666,-100,4,2,0,100,0,0
74590,-100,4,1,2,79,0,0
74655,-100,4,1,2,79,0,1
74818,-100,4,1,1,79,0,0
81993,-100,4,2,0,72,0,0
82428,-100,4,2,0,62,0,0
82646,-100,4,2,0,52,0,0
82863,-100,4,1,2,48,0,0
83080,-100,4,1,2,41,0,0
83515,-100,4,1,2,32,0,0
83841,-100,4,2,0,61,0,0
84167,-100,4,2,0,51,0,0
84385,-100,4,2,0,41,0,0
84602,-100,4,1,2,39,0,0
84928,-100,4,1,2,30,0,0
85254,-100,4,1,2,21,0,0
85580,-100,4,2,0,52,0,0
85906,-100,4,2,0,41,0,0
86124,-100,4,2,0,32,0,0
86341,-100,4,1,2,21,0,0
86559,-100,4,1,2,13,0,0
86993,-100,4,1,2,5,0,0

[Colours]
Combo1 : 138,255,138
Combo2 : 255,164,164
Combo3 : 109,109,252

[HitObjects]
256,56,355,1,0
256,176,789,1,2
216,288,1224,2,0,B|258:307|312:285,2,90,2|2|2
256,64,2963,6,0,B|280:104|224:136|272:160,1,90
256,240,3615,1,0
424,288,4268,5,10
472,176,4702,2,0,B|480:120|432:96|392:112,1,120,0|10
312,192,5572,2,0,B|271:215|239:214|215:206|192:181,1,120,0|10
112,112,6441,2,0,B|56:104|32:152|48:192,1,120,0|10
112,280,7311,2,0,B|151:304|183:305|207:297|232:274,1,120,0|10
304,192,8181,1,0
256,80,8615,1,10
256,168,9050,6,0,B|256:240|256:288,2,90,2|2|0
256,104,9920,1,2
216,336,10789,6,0,B|264:360|320:328,2,90,0|2|8
432,80,12963,5,4
312,80,13398,2,0,B|248:112|232:48|168:88,1,120,0|2
72,80,14268,1,0
32,192,14702,1,4
72,304,15137,2,0,B|64:344|96:368,2,60,0|0|4
32,192,16007,5,0
112,96,16441,2,0,B|168:64|231:98,1,120,4|0
296,192,17311,1,6
360,296,17746,2,0,B|416:327|479:293,1,120,0|4
472,176,18615,2,0,B|496:128|456:104,2,60,0|0|4
360,240,19485,5,0
320,128,19920,1,6
288,240,20354,1,0
248,128,20789,1,4
216,240,21224,2,0,B|176:264|128:240,2,90
392,240,22528,1,4
440,128,22963,5,0
352,48,23398,1,4
240,88,23833,2,0,B|280:152|200:152|256:224,1,120,0|4
304,304,24702,1,0
184,304,25137,1,4
64,304,25572,2,0,B|0:304,2,60,0|0|4
184,304,26441,6,0,B|208:328|280:328|312:296,1,120,0|2
408,264,27311,1,0
408,264,27746,1,4
408,144,28181,6,0,B|384:120|312:120|280:152,1,120,0|2
184,184,29050,1,4
184,184,29485,1,4
80,240,29920,2,0,B|40:184|80:120,1,120,0|2
128,16,30789,1,4
128,16,31224,1,4
216,88,31659,6,0,B|241:57|305:59|336:104,1,120,0|2
424,152,32528,1,4
424,152,32963,1,4
424,152,33398,1,0
192,224,34268,6,0,B|168:192|168:144|192:104,1,120,4|2
312,112,35137,2,0,B|336:144|336:200|312:232,1,120,4|2
256,328,36007,1,2
256,328,36441,1,2
256,192,36876,12,6,38181
216,288,38615,6,0,B|240:312|280:312|312:272,1,90,2|2
256,208,39268,1,2
256,208,39485,1,2
256,88,39920,5,8
376,88,40349,6,0,B|408:72|448:80|448:128|416:152,1,120,0|4
304,176,41218,2,0,B|279:199|248:174,2,60,4|2|4
424,152,42088,6,0,B|456:136|496:144|496:192|464:216,1,120,0|4
360,264,42957,2,0,B|335:287|304:262,2,60,4|2|4
472,216,43827,5,0
360,168,44262,1,4
248,216,44696,1,2
136,168,45131,1,4
24,112,45566,2,0,B|8:168|24:240,1,120,0|4
56,344,46435,1,0
168,312,46870,5,4
248,224,47305,2,2,B|288:199|336:198|376:237,1,120,2|6
440,312,48175,1,0
440,312,48609,1,4
359,225,49044,6,2,B|319:201|271:200|231:239,1,120,2|6
160,312,49914,1,0
160,312,50348,1,4
56,240,50783,5,0
56,120,51218,1,4
144,40,51653,2,0,B|200:0|272:0|344:8|384:56,1,240,0|2
256,184,53175,5,2
256,240,53392,2,0,B|304:304|224:304|264:360,1,120,2|10
368,312,54262,5,2
432,216,54696,2,0,B|472:152|448:72|376:32|312:64,1,240,4|4
216,88,56001,5,0
96,56,56435,2,2,B|50:98|54:178|58:250|104:296,1,240,4|4
192,344,57740,5,0
312,360,58175,1,4
408,288,58609,1,2
464,176,59044,1,4
392,80,59479,2,0,B|400:40|360:-8|304:8,2,120,0|4|0
320,176,60783,1,4
416,96,61218,6,0,B|400:128|400:176|432:200,2,90,0|2|0
440,40,62088,1,0
96,96,62957,6,0,B|112:128|112:176|80:200,2,90,0|2|0
80,40,63827,1,0
291,40,64696,6,0,B|256:88|216:144,1,120,0|4
216,40,65566,2,0,B|251:88|291:144,1,120,0|4
368,32,66435,2,0,B|368:72|368:144|368:168,1,120,0|4
448,32,67305,2,0,B|448:96|448:144|448:160,1,120,0|4
256,192,68175,12,0,71218
256,72,72088,5,4
256,312,72957,1,4
256,312,74696,5,10
336,272,75131,6,0,B|376:232|392:184|376:136,1,120,2|10
312,64,76001,2,0,B|272:48|224:48|184:80,1,120,2|10
136,176,76870,2,0,B|128:224|160:272|200:280,1,120,2|10
304,288,77740,2,0,B|344:280|392:224|376:184,1,120,2|10
344,88,78609,2,0,B|312:56|240:40|216:80,1,120,2|10
136,136,79479,1,2
256,344,80349,6,0,B|256:248,1,90,2|0
256,160,81001,1,2
256,160,81218,1,2
256,264,82305,6,0,B|256:192,2,60
216,312,82957,2,0,B|256:344|312:304,2,90,2|2|2
256,192,84044,6,0,B|256:120,2,60
216,240,84696,2,0,B|256:272|312:232,2,90,2|2|2
256,120,85783,6,0,B|256:48,2,60
216,168,86435,2,0,B|256:200|312:160,2,90,2|2|2
