osu file format v6

[General]
AudioFilename: Maze (TV-Size).mp3
AudioLeadIn: 1500
PreviewTime: 40155
Countdown: 1
SampleSet: Normal
StackLeniency: 0.5
Mode: 0
LetterboxInBreaks: 1
SkinPreference:Default

[Editor]
DistanceSpacing: 1
BeatDivisor: 4
GridSize: 8

[Metadata]
Title:Maze (TV-Size)
Artist:Savage Genius feat. Oomi Tomoe
Creator:alvisto
Version:Advanced
Source:Pandora Hearts OST
Tags:Pandora Hearts ED Ending theme Anime

[Difficulty]
HPDrainRate:5
CircleSize:3
OverallDifficulty:6
SliderMultiplier:1.6
SliderTickRate:1

[Events]
//Background and Video events
0,0,"Maze BG.jpg"
Video,338,"pandora hearts MAZE_0.avi"
//Break Periods
//Storyboard Layer 0 (Background)
//Storyboard Layer 1 (Fail)
//Storyboard Layer 2 (Pass)
//Storyboard Layer 3 (Foreground)
//Storyboard Sound Samples
//Background Colour Transformations
3,100,163,162,255

[TimingPoints]
355,434.782608695652,4,2,0,50,1,0
688,-100,4,2,0,35,0,0
1122,-100,4,1,2,36,0,0
1992,-100,4,1,0,49,0,0
2861,-100,4,1,0,69,0,0
3731,-100,4,1,1,69,0,0
9247,-100,4,1,1,80,0,0
10661,-100,4,1,1,61,0,0
11530,-100,4,1,1,52,0,0
11965,-100,4,1,1,68,0,0
12209,-100,4,2,1,70,0,0
19166,-100,4,2,2,71,0,0
35893,-100,4,1,2,56,0,0
36654,-100,4,2,0,56,0,0
37415,-100,4,2,0,84,0,0
38514,-100,4,1,2,78,0,0
39688,-100,4,1,2,100,0,0
39872,-100,4,1,2,100,0,1
40349,434.782608695652,4,2,2,78,1,1
53067,-100,4,1,2,78,0,1
53731,-100,4,1,2,78,0,0
53785,-100,4,1,2,78,0,1
54045,-100,4,2,2,78,0,1
61122,-100,4,2,1,81,0,1
67972,-100,4,2,2,81,0,1
70361,-100,4,1,0,81,0,1
71448,-100,4,2,0,81,0,0
73188,-100,4,2,0,100,0,0
73298,-100,4,1,1,100,0,0
74492,-100,4,1,2,79,0,0
74655,-100,4,1,2,79,0,1
74818,-100,4,1,1,79,0,0
80254,-100,4,1,1,88,0,0
81993,-100,4,2,0,72,0,0
82428,-100,4,2,0,62,0,0
82646,-100,4,2,0,52,0,0
82863,-100,4,1,2,48,0,0
83080,-100,4,1,2,41,0,0
83515,-100,4,1,2,32,0,0
83841,-100,4,2,0,61,0,0
84167,-100,4,2,0,51,0,0
84385,-100,4,2,0,41,0,0
84602,-100,4,1,2,39,0,0
84928,-100,4,1,2,30,0,0
85254,-100,4,1,2,21,0,0
85580,-100,4,2,0,52,0,0
85906,-100,4,2,0,41,0,0
86124,-100,4,2,0,32,0,0
86341,-100,4,1,2,22,0,0
86559,-100,4,1,2,15,0,0
86993,-100,4,1,2,6,0,0

[Colours]
Combo1 : 138,255,138
Combo2 : 255,164,164
Combo3 : 109,109,252

[HitObjects]
256,56,355,1,0
256,56,572,1,0
256,120,789,1,2
256,120,1007,1,0
200,176,1224,2,0,B|256:224|320:168,2,120,2|2|2
112,208,2094,6,0,B|82:160|135:106,2,80
207,328,2963,6,0,B|237:354|265:359|305:351|336:304,1,120
315,328,3615,1,0
376,280,3833,6,0,B|432:248|456:192|448:128,1,160,0|10
384,104,4485,1,0
312,64,4702,2,0,B|256:96|232:152|240:216,1,160,0|10
304,240,5354,1,0
232,280,5572,2,0,B|201:315|135:319|98:303|61:280,1,160,0|10
128,224,6224,1,0
48,216,6441,2,0,B|26:176|20:140|27:92|56:51,1,160,0|10
120,104,7094,5,0
176,48,7311,2,0,B|232:88|288:16|352:56,1,160,0|10
400,88,7963,1,0
328,128,8181,2,0,B|352:160|344:208|312:248|328:296,1,160,0|10
256,320,8833,1,0
256,240,9050,6,0,B|256:168|256:104,2,120,2|2|0
256,320,9920,1,2
320,280,10137,6,0,B|368:280|384:224,2,80
256,320,10789,6,0,B|225:294|148:291|121:342,2,120
328,352,11659,2,0,B|368:392|416:352,2,80
256,320,12311,5,2
256,320,12528,2,0,B|224:276|224:236|233:193|261:164,1,160,0|4
296,104,13181,1,0
216,96,13398,2,0,B|172:64|132:64|89:73|60:101,1,160,0|4
16,160,14050,1,0
96,168,14268,2,0,B|127:211|127:251|118:294|90:323,1,160,0|4
24,352,14920,1,0
24,352,15572,1,4
96,312,15789,5,2
96,312,16007,2,0,B|139:284|187:281|241:303|278:339,1,160,0|4
320,352,16659,1,2
392,312,16876,2,0,B|419:268|422:220|400:166|364:129,1,160,0|4
352,88,17528,1,2
280,56,17746,2,0,B|312:0|392:0|424:56,1,160,0|4
456,112,18398,1,2
456,112,19050,1,4
416,200,19268,5,6
416,200,19485,2,0,B|376:224|312:224|272:208|240:184,1,160,4|4
192,152,20137,1,0
192,152,20355,2,0,B|152:112|184:72|168:24|128:8,1,160,0|4
132,9,21007,1,0
56,48,21224,2,0,B|16:112|72:192,2,120
128,80,22094,5,6
200,48,22311,1,2
272,80,22528,1,4
448,248,23181,5,0
376,288,23398,1,4
304,248,23615,1,0
232,288,23833,2,0,B|184:312|112:312|56:280,1,160,0|4
80,208,24485,1,0
80,128,24702,2,0,B|106:91|202:91|232:136,1,160,0|4
225,128,25354,5,0
225,128,25572,1,4
384,128,26007,1,4
384,128,26224,1,6
424,56,26441,6,0,B|472:80|472:184|408:208,3,160,0|2|4|0
376,256,27963,5,0
296,280,28181,2,0,B|240:296|256:344|176:336,1,120,0|0
72,336,28833,1,0
72,336,29050,2,0,B|72:288|72:200,1,120,4|0
40,96,29702,1,0
120,96,29920,1,2
440,96,30789,1,4
440,96,31224,1,4
296,160,31659,6,0,B|336:216|224:216|320:288,2,120
272,80,32528,1,4
432,80,32963,2,0,B|461:116|462:180|450:219|416:240,1,160,4|0
192,224,34050,5,0
192,224,34268,2,0,B|176:192|176:136|192:104,1,120,4|2
312,112,34920,1,0
312,112,35137,2,0,B|328:144|328:200|312:232,1,120,4|2
256,336,35789,1,0
256,256,36007,5,2
256,96,36441,1,2
256,192,36876,12,2,38181
200,48,38615,6,0,B|232:25|288:27|319:52,1,120,2|2
296,168,39268,1,2
216,168,39485,1,2
256,320,39920,5,8
96,320,40349,6,0,B|64:288|64:184|112:152,1,160,0|4
224,72,41218,1,2
288,32,41435,1,2
328,96,41653,1,4
392,56,41870,5,0
432,120,42088,2,0,B|448:176|432:232|400:256|360:272,1,160,0|4
224,296,42957,1,2
160,336,43175,1,2
160,264,43392,5,4
88,272,43609,1,0
120,208,43827,1,0
48,192,44044,1,2
96,136,44262,1,4
40,80,44479,2,2,B|120:40|200:64,1,160
264,96,45131,1,4
336,64,45348,1,2
400,104,45566,2,0,B|419:146|420:206|400:272,1,160,0|4
256,336,46435,1,0
104,272,46870,5,4
56,208,47088,1,0
136,200,47305,2,2,B|144:128|176:96|224:80|256:88,1,160,0|4
296,128,47957,1,2
296,48,48175,1,0
296,48,48609,1,4
440,104,49044,6,2,B|464:152|464:216|432:280,1,160,0|4
392,320,49696,1,2
360,248,49914,1,0
360,248,50348,1,4
288,104,50783,5,0
216,72,51001,1,0
144,104,51218,1,4
32,216,51653,1,0
0,288,51870,2,0,B|-16:328|24:376,2,80,0|4|0
32,216,52522,1,0
144,104,52957,1,4
216,72,53175,5,2
280,112,53392,2,0,B|328:176|248:216|296:280,1,160,2|10
448,264,54262,5,2
384,312,54479,1,2
312,344,54696,2,0,B|264:376|216:328,1,80,6|0
160,312,55131,1,2
72,176,55566,1,4
120,112,55783,5,2
120,112,56001,1,2
184,64,56218,2,0,B|231:30|280:58,2,80,0|4|0
120,112,56870,1,2
120,272,57305,5,4
120,272,57522,1,0
168,328,57740,1,0
168,328,57957,1,2
240,360,58175,1,4
240,360,58392,2,0,B|304:376|352:376|416:352,1,160
472,328,59044,1,4
472,328,59262,1,0
408,280,59479,2,0,B|416:240|376:192|320:208,2,120,0|2|0
472,328,60348,1,2
416,128,61218,6,0,B|404:159|408:222|424:256,2,120,0|2|0
416,128,62088,1,2
96,128,62957,6,0,B|108:159|104:222|88:256,2,120,0|2|0
96,128,63827,1,2
221,40,64696,6,0,B|269:144|309:216,1,160,0|4
293,40,65566,2,0,B|245:144|205:216,1,160,0|4
368,32,66435,2,0,B|368:72|368:144|368:184|368:208,1,160,0|4
448,32,67305,2,0,B|448:96|448:144|448:184|448:208,1,160,0|4
360,328,68175,6,0,B|304:368|232:344,2,120,0|2|0
416,272,69044,2,0,B|440:232|440:192|440:152|418:116,1,160,0|4
256,192,69696,12,0,71218
144,312,71653,6,0,B|224:296|320:328|368:336|408:296,1,240,0|4
408,240,72522,2,0,B|328:256|232:224|184:216|144:256,1,240,0|4
96,272,73392,2,0,B|32:280|40:336,4,80
256,304,74696,5,10
336,272,74914,5,0
336,272,75131,2,0,B|376:232|392:184|376:136|352:96,1,160,0|10
224,56,76001,2,0,B|176:64|136:104|136:160,2,120,0|2|0
304,64,76870,2,0,B|360:80|376:128|384:176|360:224,1,160,0|10
256,304,77740,2,0,B|204:308|162:270,2,80,0|2|10
368,216,78609,6,0,B|384:184|392:112|344:72|304:72,1,160,0|10
216,192,79479,6,0,B|184:256|224:320,2,120,0|2|0
296,192,80349,6,0,B|328:256|288:320,2,120
256,120,81218,1,0
256,72,82305,5,0
216,144,82522,1,0
296,144,82740,1,0
256,216,82957,2,0,B|232:264|288:304|240:352,2,120,2|2|2
256,56,84044,5,0
256,136,84262,1,0
256,136,84479,1,0
256,216,84696,2,0,B|232:264|288:304|240:352,2,120,2|2|2
256,56,85783,5,0
256,64,86001,1,0
256,72,86218,1,0
256,152,86435,2,0,B|232:200|288:240|240:288,2,120,2|2|2
