osu file format v7

[General]
AudioFilename: ituka.mp3
AudioLeadIn: 1004
PreviewTime: 69254
Countdown: 0
SampleSet: Soft
StackLeniency: 0.7
Mode: 0
LetterboxInBreaks: 0

[Editor]
Bookmarks: 23235,34144,55622
DistanceSpacing: 0.800000011920929
BeatDivisor: 4
GridSize: 16

[Metadata]
Title:Itsuka Tokeru Namida
Artist:Savage Genius
Creator:AngelHoney
Version:Normal
Source:Uta Kata
Tags:frost b spec

[Difficulty]
HPDrainRate:3
CircleSize:4
OverallDifficulty:4
SliderMultiplier:1.3
SliderTickRate:0.5

[Events]
//Background and Video events
0,0,"10082174.jpg"
//Break Periods
2,23432,32139
//Storyboard Layer 0 (Background)
//Storyboard Layer 1 (Fail)
//Storyboard Layer 2 (Pass)
//Storyboard Layer 3 (Foreground)
//Storyboard Sound Samples
//Background Colour Transformations
3,100,205,191,141

[TimingPoints]
1414,681.818181818182,4,2,1,30,1,0
23061,-100,4,2,1,30,0,0
23231,-100,4,2,1,30,0,1
23316,-100,4,2,1,30,0,0
33288,-100,4,1,1,30,0,0
34059,-100,4,2,1,40,0,0
34140,-100,4,2,1,40,0,1
34226,-100,4,2,1,40,0,0
35674,-100,4,2,1,30,0,0
36015,-100,4,2,1,40,0,0
50333,-100,4,2,1,30,0,0
50674,-100,4,2,1,40,0,0
55958,-100,4,2,1,40,0,1
56044,-100,4,2,1,40,0,0
69083,-100,4,2,1,60,0,0
69595,-100,4,2,1,60,0,1
69680,-100,4,2,1,60,0,0
73174,-100,4,2,1,50,0,0
80333,-100,4,2,1,60,0,0
80504,-100,4,2,1,60,0,1
80589,-100,4,2,1,60,0,0
84083,-100,4,2,1,50,0,0
85788,-100,4,2,1,60,0,0
91243,-100,4,2,1,40,0,0
96697,-100,4,2,1,0,0,0

[Colours]
Combo1 : 255,255,128
Combo2 : 255,128,192
Combo3 : 128,128,255
Combo4 : 255,102,102

[HitObjects]
96,128,1414,2,0,B|160:160|224:128,1,130,2|0
304,64,2777,2,0,B|368:32|448:64,1,130,2|0
368,144,4141,2,0,B|384:192|352:240|368:288,1,130,2|0
272,336,5504,2,0,B|224:320|176:352|128:336,1,130,2|0
144,240,6868,6,0,B|96:240|80:192,2,65,2|0|0
160,144,8232,2,0,B|208:144|224:192,2,65,2|0|0
176,48,9595,1,2
288,48,10277,2,0,B|416:48|496:192,1,260
416,256,12323,5,2
320,304,13004,1,0
224,256,13686,1,2
128,304,14368,1,0
32,256,15050,5,2
32,208,15391,1,0
32,112,16073,2,0,B|32:79,2,32.5
192,112,17436,5,0
224,160,17777,1,2
256,208,18118,1,0
224,304,18800,5,0
272,288,19141,1,2
320,272,19482,1,0
368,256,19823,1,0
416,240,20163,1,0
256,192,20504,12,4,23232
80,128,33459,6,0,B|80:176,4,32.5,0|0|0|0|4
128,128,34482,5,0
176,128,34823,2,0,B|240:96|304:112,1,130,8|0
352,144,35845,1,4
400,176,36186,1,8
432,224,36527,1,0
432,272,36868,6,0,B|480:272|496:320,2,65,0|0|8
336,272,38232,2,0,B|288:272|272:224,2,65,0|0|8
384,256,39254,5,0
384,208,39595,1,0
304,128,40277,5,8
256,128,40618,2,0,B|256:176|304:208,2,65
208,128,41641,1,8
160,128,41982,2,0,B|160:80|208:48,2,65
112,128,43004,1,8
64,128,43345,2,0,B|16:128,2,32.5
112,224,44368,6,0,B|176:240|256:224,1,130,8|0
288,224,45391,2,0,B|320:304,2,65,0|8|0
256,176,46413,1,0
288,128,46754,2,0,B|336:48,2,65,0|8|0
256,176,47777,1,0
208,176,48118,2,0,B|112:176,2,65,0|8|0
256,176,49141,6,0,B|256:224,4,32.5,0|0|0|0|8
304,176,50163,5,0
352,176,50504,1,4
432,256,51186,5,8
384,288,51527,2,0,B|368:320|320:320,2,65
336,256,52550,1,8
288,224,52891,2,0,B|304:192|352:192,1,65
256,192,53573,12,8,55277
256,192,55788,6,0,B|256:240,3,32.5,0|4|0|0
224,272,56641,2,0,B|256:288|288:272,1,65,8|0
336,240,57323,2,0,B|352:208|336:175,1,65
288,144,58004,2,0,B|256:128|224:144,1,65,8|0
176,176,58686,6,0,B|128:208,2,32.5
176,224,59368,2,0,B|160:272|112:288,1,65,8|0
96,304,60050,2,0,B|96:352,2,32.5
56,272,60732,2,0,B|34:268|18:220,1,65,8|0
16,176,61413,5,0
48,144,61754,1,0
80,112,62095,1,8
192,112,62777,1,0
224,144,63118,1,0
256,176,63459,1,8
192,256,64141,6,0,B|256:288|320:256,1,130,0|8
320,160,65504,2,0,B|256:128|192:160,1,130,0|8
256,192,66868,12,0,68913
128,64,69595,6,0,B|176:32|352:128|400:64,1,260,4|0
416,112,71300,1,0
384,144,71641,1,8
416,176,71982,1,0
384,208,72323,1,0
416,240,72663,1,0
320,288,73345,5,0
304,304,73516,1,0
288,288,73686,1,0
176,176,74709,1,0
192,192,74879,1,0
208,176,75050,5,4
256,176,75391,1,0
368,176,76073,1,0
400,224,76413,1,0
368,272,76754,1,0
272,272,77436,2,0,B|272:320,4,32.5
224,240,78459,6,0,B|192:320,1,65,8|0
144,288,79141,2,0,B|176:208,1,65
112,208,79823,2,0,B|80:288,1,65,8|0
64,320,80504,6,0,B|192:368|352:320,1,260,4|0
352,288,82209,2,0,B|384:304|416:288,1,65,0|8
384,240,82891,2,0,B|416:224|448:240,2,65
288,192,84254,5,0
272,176,84425,1,0
256,192,84595,1,0
112,256,85618,6,0,B|96:288|112:320,2,65
112,160,86982,2,0,B|128:128|112:96,2,65
112,208,88004,5,8
144,256,88345,1,0
176,304,88686,1,0
256,192,89027,12,4,91413
256,192,91584,12,0,96868
