osu file format v5

[General]
AudioFilename: savage genias.mp3
AudioLeadIn: 0
PreviewTime: -1
Countdown: 1
SampleSet: Soft
StackLeniency: 0.4
Mode: 0
LetterboxInBreaks: 1

[Metadata]
Title:Hikari no Yukue
Artist:Savage Genias
Creator:Alace
Version:Normal
Source:El Cazador de la Bruja
Tags:

[Difficulty]
HPDrainRate:4
CircleSize:4
OverallDifficulty:5
SliderMultiplier:1.2
SliderTickRate:1

[Events]
//Background and Video events
0,0,"Hikaru.jpg"
//Break Periods
//Storyboard Layer 0 (Background)
//Storyboard Layer 1 (Failing)
//Storyboard Layer 2 (Passing)
//Storyboard Layer 3 (Foreground)
//Storyboard Sound Samples
//Background Colour Transformations
3,100,0,0,0

[TimingPoints]
6792,410.958904109589,4,1,1,100,1
6997,411.058904109588,4,2,1,100,0
7511,411.058904109588,4,1,1,100,0
7716,411.058904109588,4,2,1,100,0
9463,411.058904109588,4,1,1,100,0
9772,411.058904109588,4,2,1,100,0
10286,411.058904109588,4,1,1,100,0
10594,411.058904109588,4,2,1,100,0
11210,411.058904109588,4,1,1,100,0
11416,411.058904109588,4,2,1,100,0
12033,411.058904109588,4,1,1,100,0
12238,411.058904109588,4,2,1,100,0
12957,411.058904109588,4,1,1,100,0
13574,411.058904109588,4,2,1,100,0
16451,411.058904109588,4,1,1,100,0
16965,411.058904109588,4,2,1,100,0
17274,411.058904109588,4,1,1,100,0
17890,411.058904109588,4,2,1,100,0
18096,411.058904109588,4,1,1,100,0
18609,411.058904109588,4,2,1,100,0
19843,411.058904109588,4,1,1,85,0
20048,411.058904109588,4,2,1,100,0
20768,411.058904109588,4,1,1,100,0
20870,411.058904109588,4,2,1,100,0
21076,411.058904109588,4,1,1,100,0
21281,411.058904109588,4,2,1,100,0
22206,411.058904109588,4,1,1,100,0
22926,411.058904109588,4,2,1,100,0
24467,411.058904109588,4,1,1,100,0
25084,411.058904109588,4,2,1,100,0
25597,411.058904109588,4,1,1,100,0
26214,411.058904109588,4,2,1,100,0
27242,411.058904109588,4,1,1,100,0
27447,411.058904109588,4,2,1,100,0
27756,411.058904109588,4,1,1,100,0
28064,411.058904109588,4,2,1,100,0
28269,411.058904109588,4,1,1,100,0
28783,411.058904109588,4,2,1,100,0
29194,411.058904109588,4,1,1,100,0
29708,411.058904109588,4,2,1,100,0
30222,411.058904109588,4,1,1,100,0
30325,411.058904109588,4,2,1,100,0
31044,411.058904109588,4,1,1,100,0
31352,411.058904109588,4,2,1,100,0
31661,411.058904109588,4,1,1,100,0
32072,411.058904109588,4,2,1,100,0
32380,411.058904109588,4,1,1,100,0
32791,411.058904109588,4,1,1,84,0
32997,411.058904109588,4,2,1,100,0
34230,411.058904109588,4,1,1,100,0
34641,411.058904109588,4,2,1,100,0
35874,411.058904109588,4,1,1,100,0
36079,411.058904109588,4,2,1,100,0
36799,411.058904109588,4,1,1,100,0
36902,411.058904109588,4,2,1,100,0
37621,411.058904109588,4,1,1,100,0
37724,411.058904109588,4,2,1,100,0
38443,411.058904109588,4,1,1,100,0
38546,411.058904109588,4,2,1,100,0
39162,411.058904109588,4,1,1,100,0
39573,411.058904109588,4,2,1,100,0
40909,411.058904109588,4,1,1,100,0
41218,411.058904109588,4,2,1,100,0
41556,411.058904109588,4,1,1,100,0
41937,411.058904109588,4,2,1,100,0
42348,411.058904109588,4,1,1,100,0
42862,411.058904109588,4,2,1,100,0
47692,411.058904109588,4,1,1,100,0
48103,411.058904109588,4,2,1,100,0
48514,411.058904109588,4,1,1,100,0
48822,411.058904109588,4,2,1,100,0
49439,411.058904109588,4,1,1,100,0
49644,411.058904109588,4,2,1,100,0
50158,411.058904109588,4,1,1,100,0
50467,411.058904109588,4,2,1,100,0
52008,411.058904109588,4,1,1,100,0
52111,411.058904109588,4,2,1,100,0
52830,411.058904109588,4,1,1,100,0
53036,411.058904109588,4,2,1,100,0
56324,411.058904109588,4,1,1,100,0
57866,411.058904109588,4,2,1,100,0
58277,411.058904109588,4,1,1,100,0
59304,411.058904109588,4,2,1,100,0
59613,411.058904109588,4,1,1,100,0
60126,411.058904109588,4,2,1,100,0
60537,411.058904109588,4,1,1,100,0
60949,411.058904109588,4,2,1,100,0
61257,411.058904109588,4,1,1,100,0
61668,411.058904109588,4,2,1,100,0
62079,411.058904109588,4,1,1,100,0
62490,411.058904109588,4,2,1,100,0
63004,411.058904109588,4,1,1,100,0
63415,411.058904109588,4,2,1,100,0
63723,411.058904109588,4,1,1,100,0
64134,411.058904109588,4,2,1,100,0
68759,411.058904109588,4,1,1,100,0
68964,411.058904109588,4,2,1,100,0
69684,411.058904109588,4,1,1,100,0
69786,411.058904109588,4,2,1,100,0
70506,411.058904109588,4,1,1,100,0
70814,411.058904109588,4,2,1,100,0
71225,411.058904109588,4,1,1,100,0
71431,411.058904109588,4,2,1,100,0
71842,411.058904109588,4,1,1,58,0
72458,411.058904109588,4,2,1,100,0
73383,411.058904109588,4,1,1,100,0
74102,411.058904109588,4,2,1,100,0
75644,411.058904109588,4,1,1,100,0
76158,411.058904109588,4,2,1,100,0
76877,411.058904109588,4,1,1,100,0
77391,411.058904109588,4,2,1,100,0
81913,411.058904109588,4,1,1,100,0
84482,411.058904109588,4,1,1,58,0
85098,411.058904109588,4,1,1,82,0
85201,411.058904109588,4,1,1,100,0
88078,411.058904109588,4,2,1,100,0
88387,411.058904109588,4,1,1,100,0
88901,411.058904109588,4,2,1,100,0
89209,411.058904109588,4,1,1,100,0
93730,411.058904109588,4,2,1,100,0

[Colours]
Combo1 : 211,44,48
Combo2 : 254,213,69
Combo3 : 255,85,255
Combo4 : 236,231,34

[HitObjects]
72,224,6791,1,0
72,80,7202,1,2
128,128,7408,1,2
184,176,7613,1,0
240,224,7819,1,2
296,272,8024,2,0,B|371:328|450:327|519:260|476:156|409:155|387:143|367:124|354:112,1,360,2|10
216,120,9668,2,0,B|154:75|122:154,1,120,0|8
128,296,10490,2,0,B|190:341|222:262,1,120,0|8
224,192,11107,5,2
224,192,11312,1,0
224,192,11518,1,2
296,192,11723,2,0,B|301:319,3,120,8|0|8|0
160,304,13367,5,4
40,224,13778,1,8
40,152,13983,2,0,B|333:12|333:12|455:209,1,540,8|0
352,304,16244,5,8
208,304,16655,1,0
152,264,16860,1,0
216,240,17065,1,8
88,176,17476,2,8,B|37:138|47:107|111:86,1,120,0|8
240,64,18298,1,0
304,88,18504,1,0
248,128,18709,1,8
440,56,19737,5,4
384,104,19942,2,0,B|451:140|479:185,2,120,4|2|0
312,104,20970,5,0
240,104,21175,1,0
168,104,21381,1,0
96,104,21586,2,0,B|28:170|102:222,1,120,8|4
192,304,22408,1,0
328,256,22819,1,0
328,184,23024,5,0
400,184,23230,2,0,B|452:144|474:125|474:125|387:95,2,180,8|0|0
408,328,24874,1,0
288,240,25285,1,2
224,280,25490,1,2
160,320,25696,1,4
8,256,26312,5,2
8,184,26518,2,0,B|34:143|49:130|70:111|70:111|115:188,1,180,4|2
112,256,27339,1,0
184,256,27545,6,0,B|234:217,1,60,0|0
288,168,27956,2,0,B|338:129,1,60,0|8
456,56,28572,5,0
312,56,28983,1,8
168,56,29394,1,0
96,56,29600,5,0
24,56,29805,2,0,B|-9:117|-9:117|17:168,3,120,8|0|8|0
88,160,31244,1,0
160,160,31449,5,8
256,264,31860,1,0
352,160,32271,1,8
424,160,32476,1,0
424,88,32682,1,0
352,88,32887,5,4
280,88,33093,2,0,B|176:40|88:96,1,180,8|0
8,192,34120,5,0
56,248,34326,1,0
112,296,34531,1,0
168,248,34737,2,0,B|256:338|256:338|318:293,1,180,8|0
160,152,35970,6,0,B|128:94|128:94|171:45|171:45,3,120,0|8|0|8
160,56,37408,1,8
232,55,37613,6,0,B|225:47|268:96|268:96|236:154,3,120,0|8|0|8
237,151,39052,1,8
240,224,39257,1,0
240,296,39463,5,0
312,296,39668,2,0,B|393:353|427:277|444:234|393:223,1,180,8|0
400,80,40696,6,0,B|404:151,2,60,2|0|0
328,80,41312,1,8
200,144,41723,1,0
72,208,42134,1,8
64,352,42545,1,0
120,304,42750,5,0
184,264,42956,2,0,B|308:336|330:250|338:192|407:255,2,240,8|4|8
392,64,45422,6,2,B|376:96|344:136|288:136,1,120
152,136,46244,2,2,B|192:136|216:144|256:208,1,120,2|8
288,256,46860,1,2
336,312,47065,1,2
192,312,47476,5,8
48,312,47887,1,0
112,184,48298,2,0,B|147:159|169:176|171:198|173:199,3,60,8|0|0|0
240,184,49120,5,8
312,184,49326,1,0
384,184,49531,2,0,B|475:276,1,120,4|8
336,336,50353,2,0,B|235:232,1,120,4|8
192,296,50970,1,0
136,344,51175,1,4
40,232,51586,6,0,B|120:128,3,120,8|0|8|0
168,264,53230,5,8
168,264,53435,1,8
272,160,53846,1,4
224,216,54052,1,8
168,264,54257,1,8
224,312,54463,6,0,B|303:252|325:320|263:359|389:344|411:312|443:284|435:263|409:254|238:218|251:206|388:197|430:204|541:198|452:201|462:193|465:173|460:164|438:144|408:139|330:153|368:123|474:81|482:76|465:88,1,480,0|4
304,64,56518,5,4
160,64,56928,1,0
232,192,57339,1,0
232,48,57750,1,0
232,120,57956,6,2,B|235:159,2,30,2|2|2
232,120,58367,5,4
232,120,58572,5,4
104,184,58983,5,0
144,248,59189,1,0
216,248,59394,1,8
360,248,59805,6,0,B|416:208,1,60
456,160,60216,2,0,B|408:112,1,60,8|4
360,64,60627,2,0,B|296:64,1,60
224,64,61038,5,8
88,104,61449,1,0
16,232,61860,1,8
144,296,62271,1,0
280,344,62682,6,0,B|344:312,1,60,8|8
272,272,63093,2,0,B|328:240,1,60
392,216,63504,1,8
392,72,63915,1,4
264,144,64326,1,8
264,144,64531,2,0,B|200:144,5,60,2|8|2|8|8|2
128,144,65764,5,2
128,216,65970,6,0,B|312:216,1,180,8|2
308,216,66791,6,0,B|224:48,1,180,8|2
225,55,67613,6,0,B|136:224,1,180,8|2
176,280,68435,5,8
224,336,68641,1,8
296,328,68846,2,0,B|368:304|312:232,4,120,0|8|0|8|0
224,328,70696,1,0
152,328,70901,5,8
80,328,71107,1,0
32,272,71312,1,0
32,272,71518,1,8
80,216,71723,1,8
136,168,71928,6,0,B|136:136,4,30
208,168,72545,2,2,B|288:248|368:168,1,180,2|2
456,48,73572,5,0
408,104,73778,1,0
360,48,73983,1,0
312,104,74189,2,2,B|208:48|136:112,2,180
448,144,75833,5,0
408,208,76038,1,0
368,144,76244,1,8
240,208,76655,1,4
96,208,77065,1,0
24,208,77271,1,0
64,144,77476,1,8
240,264,78093,1,0
232,112,78915,5,2
232,112,79120,6,0,B|72:208,1,180,4|2
77,204,79942,6,0,B|240:304,1,180,2|2
230,297,80764,6,0,B|232:112,1,180,2|4
232,40,81586,5,2
232,40,81791,1,2
232,40,81997,5,0
120,136,82408,1,0
232,224,82819,1,0
344,136,83230,1,0
232,224,83641,1,0
200,288,83846,1,0
272,288,84052,1,4
232,72,84668,6,0,B|232:112,4,30
304,72,85285,5,0
376,72,85490,1,0
448,72,85696,2,0,B|488:168|480:232|464:256,2,180,4|0|0
328,152,87339,5,0
184,152,87750,1,0
128,104,87956,1,0
72,56,88161,1,8
128,192,88572,5,0
72,240,88778,1,0
24,296,88983,1,8
160,328,89394,1,2
160,328,89600,5,0
296,288,90011,1,2
368,288,90216,1,0
360,144,90627,2,0,B|392:72|432:160|432:168|464:128,2,120,2|2|2
360,216,91655,5,0
312,272,91860,1,4
240,272,92065,1,0
168,272,92271,2,0,B|80:256|32:200|48:120|120:88|168:72|224:160,1,360,4|0
256,192,93915,12,4,95559
