osu file format v5

[General]
AudioFilename: savage genias.mp3
AudioLeadIn: 0
PreviewTime: -1
Countdown: 1
SampleSet: Normal
StackLeniency: 0.6
Mode: 0
LetterboxInBreaks: 1

[Metadata]
Title:Hikari no Yukue
Artist:Savage Genias
Creator:Alace
Version:Hard
Source:El Cazador de la Bruja
Tags:

[Difficulty]
HPDrainRate:7
CircleSize:5
OverallDifficulty:7
SliderMultiplier:1.4
SliderTickRate:2

[Events]
//Background and Video events
0,0,"Hikaru.jpg"
//Break Periods
2,95747,100811
2,111157,114167
2,171363,176016
2,187594,196350
//Storyboard Layer 0 (Background)
//Storyboard Layer 1 (Failing)
//Storyboard Layer 2 (Passing)
//Storyboard Layer 3 (Foreground)
//Storyboard Sound Samples
//Background Colour Transformations
3,100,0,0,0

[TimingPoints]
6792,410.958904109589,4,1,1,100,1
19531,410.958904109589,4,2,1,100,0
19839,410.958904109589,4,1,1,98,0
20045,410.958904109589,4,2,1,85,0
20353,410.958904109589,4,2,1,100,0
21072,410.958904109589,4,1,1,91,0
21278,410.958904109589,4,2,1,100,0
21483,410.958904109589,4,1,1,89,0
21689,410.958904109589,4,2,1,79,0
22202,410.958904109589,4,2,1,93,0
22511,410.958904109589,4,2,1,100,0
22716,410.958904109589,4,1,1,95,0
22922,410.958904109589,4,2,1,92,0
25696,410.958904109589,4,1,1,90,0
26004,410.958904109589,4,2,1,100,0
26415,410.958904109589,4,1,1,91,0
26826,410.958904109589,4,1,1,100,0
27031,410.958904109589,4,2,1,91,0
28562,410.958904109589,4,1,1,93,0
28675,410.958904109589,4,2,1,100,0
28973,410.958904109589,4,1,1,100,0
29189,410.958904109589,4,2,1,100,0
31346,410.958904109589,4,2,1,100,0
32065,410.958904109589,4,2,1,84,0
32476,410.958904109589,4,1,1,97,0
32785,410.958904109589,4,2,1,99,0
33193,410.958904109589,4,2,1,80,0
33709,410.958904109589,4,2,1,94,0
33812,410.958904109589,4,1,1,94,0
34018,410.958904109589,4,2,1,76,0
35045,410.958904109589,4,2,1,89,0
35353,410.958904109589,4,2,1,100,0
35456,410.958904109589,4,1,1,95,0
35764,410.958904109589,4,2,1,88,0
36997,410.958904109589,4,2,1,100,0
37613,410.958904109589,4,1,1,94,0
37716,410.958904109589,4,2,1,93,0
38127,410.958904109589,4,2,1,61,0
38641,410.958904109589,4,2,1,83,0
38744,410.958904109589,4,2,1,100,0
39155,410.958904109589,4,1,1,94,0
39360,410.958904109589,4,2,1,100,0
41415,410.958904109589,4,2,1,61,0
41928,410.958904109589,4,2,1,82,0
42031,410.958904109589,4,2,1,99,0
42648,410.958904109589,4,1,1,94,0
42853,410.958904109589,4,2,1,100,0
44600,410.958904109589,4,1,1,93,0
44805,410.958904109589,4,2,1,100,0
45216,410.958904109589,4,1,1,93,0
45627,410.958904109589,4,2,1,100,0
46038,410.958904109589,4,1,1,94,0
46449,410.958904109589,4,2,1,100,0
46963,410.958904109589,4,1,1,96,0
47168,410.958904109589,4,2,1,97,0
47785,410.958904109589,4,1,1,95,0
48093,410.958904109589,4,2,1,94,0
49472,410.958904109589,4,1,1,95,0
49902,410.958904109589,4,2,1,100,0
50313,410.958904109589,4,1,1,95,0
50661,410.958904109589,4,2,1,100,0
52613,410.958904109589,4,1,1,97,0
53024,410.958904109589,4,2,1,100,0
53538,410.958904109589,4,1,1,100,0
53949,410.958904109589,4,2,1,100,0
54433,410.958904109589,4,2,1,77,0
55049,410.958904109589,4,2,1,91,0
55666,410.958904109589,4,2,1,100,0
55901,410.958904109589,4,1,1,95,0
56312,410.958904109589,4,1,1,92,0
56928,410.958904109589,4,1,1,96,0
57956,410.958904109589,4,1,1,100,0
60216,410.958904109589,4,2,1,100,0
60730,410.958904109589,4,1,1,100,0
60935,410.958904109589,4,2,1,100,0
61346,410.958904109589,4,1,1,100,0
61757,410.958904109589,4,2,1,100,0
63093,410.958904109589,4,1,1,100,0
63196,410.958904109589,4,2,1,100,0
64839,410.958904109589,4,1,1,95,0
65148,410.958904109589,4,2,1,100,0
65353,410.958904109589,4,1,1,100,0
65867,410.958904109589,4,2,1,100,0
68435,410.958904109589,4,1,1,100,0
69052,410.958904109589,4,2,1,100,0
69463,410.958904109589,4,1,1,100,0
69874,410.958904109589,4,2,1,100,0
70285,410.958904109589,4,1,1,100,0
70696,410.958904109589,4,2,1,100,0
71928,410.958904109589,4,1,1,100,0
73264,410.958904109589,4,2,1,100,0
74189,410.958904109589,4,1,1,100,0
75627,410.958904109589,4,2,1,100,0
76346,410.958904109589,4,1,1,100,0
77579,410.958904109589,4,2,1,100,0
77867,410.958904109589,4,1,1,100,0
77990,410.958904109589,4,2,1,100,0
78196,410.958904109589,4,1,1,100,0
78401,410.958904109589,4,2,1,100,0
79018,410.958904109589,4,1,1,100,0
79839,410.958904109589,4,2,1,100,0
80661,410.958904109589,4,1,1,86,0
81586,410.958904109589,4,1,1,100,0
84052,410.958904109589,4,2,1,100,0
84771,410.958904109589,4,1,1,100,0
85182,410.958904109589,4,2,1,100,0
85593,410.958904109589,4,1,1,100,0
87853,410.958904109589,4,2,1,100,0
88141,410.958904109589,4,1,1,100,0
91552,410.958904109589,4,2,1,100,0
92168,410.958904109589,4,1,1,100,0
93709,410.958904109589,4,2,1,100,0
102545,821.917808219178,4,2,1,74,1
111963,410.958904109589,4,2,1,100,0
114874,410.958904109589,4,2,1,100,1
115182,410.958904109589,4,1,1,100,0
116106,410.958904109589,4,2,1,100,0
116723,410.958904109589,4,1,1,100,0
117647,410.958904109589,4,2,1,100,0
121757,410.958904109589,4,1,1,100,0
122456,410.958904109589,4,2,1,100,0
122784,410.958904109589,4,2,1,100,0
122990,410.958904109589,4,1,1,100,0
123195,410.958904109589,4,2,1,100,0
124634,410.958904109589,4,1,1,100,0
124839,410.958904109589,4,2,1,100,0
125558,410.958904109589,4,1,1,100,0
125661,410.958904109589,4,2,1,100,0
125969,410.958904109589,4,1,1,100,0
126072,410.958904109589,4,2,1,100,0
126380,410.958904109589,4,1,1,100,0
126483,410.958904109589,4,2,1,100,0
126997,410.958904109589,4,1,1,100,0
127716,410.958904109589,4,2,1,100,0
127921,410.958904109589,4,1,1,100,0
128127,410.958904109589,4,2,1,100,0
128332,410.958904109589,4,1,1,100,0
128538,410.958904109589,4,2,1,100,0
128949,410.958904109589,4,1,1,100,0
129360,410.958904109589,4,2,1,100,0
129976,410.958904109589,4,1,1,100,0
130182,410.958904109589,4,2,1,100,0
130798,410.958904109589,4,1,1,100,0
131004,410.958904109589,4,2,1,100,0
133264,410.958904109589,4,1,1,100,0
133572,410.958904109589,4,2,1,100,0
133983,410.958904109589,4,1,1,100,0
134394,410.958904109589,4,2,1,100,0
134805,410.958904109589,4,1,1,100,0
135216,410.958904109589,4,2,1,100,0
136552,410.958904109589,4,1,1,100,0
136860,410.958904109589,4,2,1,100,0
138195,410.958904109589,4,1,1,100,0
138504,410.958904109589,4,2,1,100,0
139737,410.958904109589,4,1,1,100,0
140045,410.958904109589,4,2,1,100,0
140436,410.958904109589,4,2,1,100,0
140538,410.958904109589,4,1,1,100,0
140661,410.958904109589,4,2,1,100,0
140969,410.958904109589,4,1,1,100,0
141483,410.958904109589,4,2,1,100,0
144257,410.958904109589,4,1,1,100,0
144771,410.958904109589,4,2,1,100,0
145182,410.958904109589,4,1,1,100,0
145387,410.958904109589,4,2,1,100,0
147647,410.958904109589,4,1,1,100,0
148058,410.958904109589,4,2,1,100,0
148675,410.958904109589,4,1,1,100,0
148880,410.958904109589,4,2,1,100,0
149497,410.958904109589,4,1,1,100,0
149702,410.958904109589,4,2,1,100,0
152374,410.958904109589,4,1,1,100,0
152579,410.958904109589,4,2,1,100,0
152784,410.958904109589,4,1,1,100,0
152990,410.958904109589,4,2,1,100,0
154220,410.958904109589,4,1,1,100,0
154428,410.958904109589,4,2,1,100,0
155045,410.958904109589,4,1,1,100,0
155250,410.958904109589,4,2,1,100,0
155867,410.958904109589,4,1,1,100,0
156072,410.958904109589,4,2,1,100,0
157305,410.958904109589,4,1,1,100,0
157921,410.958904109589,4,2,1,100,0
159874,410.958904109589,4,1,1,100,0
160284,410.958904109589,4,2,1,100,0
163983,410.958904109589,4,1,1,100,0
164497,410.958904109589,4,2,1,100,0
164990,410.958904109589,4,1,1,100,0
165319,410.958904109589,4,2,1,100,0
165730,410.958904109589,4,1,1,100,0
166141,410.958904109589,4,2,1,100,0
166552,410.958904109589,4,1,1,100,0
167784,410.958904109589,4,2,1,100,0
169737,410.958904109589,4,1,1,100,0
176106,821.917808219178,4,2,1,90,1
184319,410.958904109589,4,1,1,100,1
196647,410.958904109589,4,2,1,100,0
203948,410.958904109589,4,1,1,100,0
204353,410.958904109589,4,2,1,100,0
204764,410.958904109589,4,1,1,100,0
205175,410.958904109589,4,2,1,100,0
205586,410.958904109589,4,1,1,100,0
205997,410.958904109589,4,2,1,100,0
207229,410.958904109589,4,1,1,100,0
207538,410.958904109589,4,2,1,100,0
208873,410.958904109589,4,1,1,100,0
209079,410.958904109589,4,2,1,100,0
209798,410.958904109589,4,1,1,100,0
209901,410.958904109589,4,2,1,100,0
210620,410.958904109589,4,1,1,100,0
210825,410.958904109589,4,2,1,100,0
212161,410.958904109589,4,1,1,100,0
212469,410.958904109589,4,2,1,100,0
213188,410.958904109589,4,1,1,45,0
215551,410.958904109589,4,1,1,0,0

[Colours]
Combo1 : 211,44,48
Combo2 : 254,213,69
Combo3 : 255,85,255
Combo4 : 236,231,34

[HitObjects]
95,180,19737,1,0
160,128,19942,2,0,B|227:75,2,105,0|2|2
224,280,20970,1,0
288,328,21175,1,0
352,280,21381,1,2
416,224,21586,2,0,B|490:140|400:87,1,210,0|2
280,48,22408,5,4
200,72,22613,1,2
128,112,22819,1,0
128,112,23024,5,0
56,152,23230,1,2
128,304,23641,1,8
296,304,24052,1,2
232,152,24463,1,8
232,152,24874,2,0,B|296:109|314:112|355:180,2,140,2|8|0
232,152,25798,1,0
232,152,25901,1,0
296,96,26107,5,8
232,40,26312,1,0
168,96,26518,1,0
24,184,26928,1,0
64,256,27134,1,2
184,136,27545,2,0,B|225:204,1,70,0|2
224,112,27956,2,0,B|174:29,1,70,0|2
312,56,28470,1,2
312,56,28572,1,0
384,104,28778,2,0,B|424:104,2,35,0|2|0
440,264,29394,5,8
392,192,29600,1,0
472,192,29805,1,2
368,320,30216,1,8
224,232,30627,1,2
88,328,31038,1,8
88,240,31244,2,0,B|74:188|120:107|289:62,1,280
360,64,32271,1,4
480,176,32682,5,0
400,200,32887,1,0
472,248,33093,2,0,B|368:333|266:315|334:211|306:212,1,210,2|4
224,240,33915,1,0
272,168,34120,2,0,B|240:152,2,35,0|0|2
320,104,34531,1,0
400,80,34737,2,0,B|439:97|457:121,2,105,2|2|2
328,32,35559,1,0
168,80,35970,5,8
88,112,36175,1,0
152,160,36381,2,0,B|81:233|160:310|225:309|225:309|237:301,1,210,2|2
288,256,37202,1,8
288,168,37408,2,0,B|256:144,2,35,0|2|0
360,128,37819,1,2
432,168,38024,2,0,B|463:214|469:266|420:303|364:225,1,210,8|2
288,264,38846,1,10
288,264,38949,1,2
288,264,39052,1,2
224,320,39257,5,0
160,264,39463,1,0
224,208,39668,1,2
216,40,40079,1,2
296,40,40285,1,0
360,96,40490,1,2
416,152,40696,1,0
464,224,40901,1,2
416,288,41107,1,0
360,224,41312,2,0,B|303:317|251:206,1,210,2|2
144,160,42134,5,4
144,160,42339,1,0
144,160,42545,1,8
192,88,42750,5,0
264,48,42956,1,2
432,48,43367,1,8
432,216,43778,1,2
304,216,44086,1,0
304,216,44189,1,8
216,216,44394,2,0,B|176:216,2,35,0|2|0
104,344,45011,5,8
24,192,45422,5,0
96,40,45833,5,8
168,192,46244,5,0
336,192,46655,5,8
272,248,46860,1,2
216,312,47065,2,0,B|217:379,2,35,0|0|2
160,248,47476,5,8
96,192,47682,1,2
160,248,47887,1,0
32,136,48298,2,0,B|30:75,2,35,8|0|2
176,48,48915,5,2
240,96,49120,1,8
240,96,49223,1,0
240,96,49326,1,2
304,144,49531,2,0,B|199:255,3,140,0|8|0|8
272,296,50970,5,2
208,232,51175,1,4
208,232,51278,1,0
208,232,51381,1,2
144,176,51586,2,0,B|42:78,2,140,8|4|8
248,304,52819,5,4
304,144,53230,1,8
304,144,53435,1,0
368,200,53641,2,0,B|368:248,2,35
432,144,54052,1,8
368,88,54257,5,0
368,88,54360,1,0
368,88,54463,2,2,B|262:59|135:112,2,210
448,232,56107,5,0
320,336,56518,1,0
232,336,56723,1,0
104,224,57134,1,0
104,56,57545,1,0
104,56,57648,1,0
104,56,57750,1,0
272,56,58161,1,0
440,56,58572,1,4
280,112,58983,6,0,B|344:160|280:240,1,140
168,112,59805,1,0
224,176,60011,1,0
344,288,60422,2,0,B|391:257,2,35,2|0|2
288,224,60833,2,0,B|353:180,1,70,0|8
416,144,61244,1,2
344,96,61449,2,0,B|292:50,1,70,0|0
208,56,61860,1,8
376,56,62271,5,4
488,176,62682,1,8
416,224,62887,2,0,B|416:184,2,35,2|0|0
328,224,63298,1,2
240,224,63504,2,0,B|91:223,3,140,8|2|8|2
16,224,64942,2,0,B|16:264,2,35,0|0|8
16,56,65559,5,0
80,104,65764,1,0
144,152,65970,6,0,B|66:238|66:238|74:246,2,105,8|0|2
144,152,66791,6,0,B|145:39,2,105,8|0|2
144,152,67613,6,0,B|222:238|222:238|214:246,2,105,8|0|2
240,288,68641,5,0
320,288,68846,1,0
152,288,69257,2,0,B|101:270|80:237|105:237|131:218|158:192|158:192,4,140,8|0|8|0|8
296,200,71312,5,2
360,144,71518,1,2
376,224,71723,1,8
456,72,72134,5,4
296,24,72545,5,0
176,64,72853,1,0
72,128,73161,1,0
72,208,73367,5,2
136,264,73572,1,4
200,208,73778,1,2
264,264,73983,1,0
264,264,74086,1,0
264,264,74189,2,0,B|252:267|253:296|369:310|330:339,2,105
376,144,75216,5,0
448,184,75422,1,4
320,296,75833,5,8
320,296,75935,1,2
232,296,76141,1,2
232,296,76244,1,8
272,224,76449,1,0
184,224,76655,2,0,B|99:255|29:201,2,140,0|4|8
188,223,77579,1,2
232,152,77785,1,2
232,152,77887,1,8
312,128,78093,2,0,B|360:128|384:160,1,70,2|0
448,192,78504,2,0,B|464:256|456:280,1,70,2|8
464,344,78915,5,2
376,344,79120,2,0,L|340:314|362:267,2,105
288,344,79942,1,8
288,344,80045,1,2
216,296,80250,1,2
216,296,80353,1,8
144,248,80559,1,2
216,208,80764,2,0,B|290:111|291:111,2,105
256,32,81997,5,0
32,192,82408,5,8
256,352,82819,5,0
480,192,83230,5,8
256,32,83641,5,0
256,32,83846,1,4
382,200,84463,5,2
328,264,84668,1,2
280,192,84874,1,4
256,160,84976,5,0
232,192,85079,5,4
184,264,85285,5,2
128,200,85490,1,2
48,184,85696,5,0
256,40,86312,1,0
464,184,86928,1,0
312,264,87339,5,2
144,264,87750,1,2
224,264,87956,2,0,B|243:304,2,35,2|0|2
392,264,88572,1,8
472,264,88778,2,0,B|426:130|285:102,1,280,8|4
96,64,90011,5,8
96,144,90216,2,0,B|149:197|149:197|218:160|218:160,3,140,8|2|2|2
232,248,91655,6,2,B|286:204,1,70
304,288,92065,1,2
376,248,92271,2,0,B|376:80|376:56|376:32,2,210,4|0|0
256,192,93915,12,4,95559
64,240,101723,6,2,L|87:266,4,35,2|0|0|0|2
16,168,102339,5,0
56,88,102545,1,2
128,48,102750,2,0,B|197:101,1,70,0|2
254,128,103366,6,0,B|218:148,4,35,0|2|0|2|0
254,128,104291,5,0
254,128,104394,2,0,B|295:99|329:86|354:71,1,105,2|2
420,114,105216,5,0
424,200,105421,2,0,C|438:244|440:279|386:256,1,140,2|2
304,240,106449,2,0,C|260:232,3,35,0|2|0|2
184,232,107271,5,0
104,192,107476,1,2
32,144,107681,1,0
32,56,107887,2,0,C|71:66,1,35,2|0
152,56,108298,1,2
224,112,108503,1,0
296,168,108709,6,0,C|382:193,1,140,2|2
392,280,109736,2,2,C|349:305,3,35,0|2|0|2
280,304,110546,5,0
280,304,110649,1,0
280,304,110752,1,2
280,304,110854,1,0
280,304,110969,1,2
442,132,115079,5,2
442,132,115284,2,0,B|485:192|455:219|428:219|429:218,2,105
251,337,116312,1,2
251,337,116517,1,2
60,132,116928,2,0,B|17:192|47:219|74:219|73:218,2,105
60,132,117750,1,8
202,43,118161,6,0,B|233:118|256:191|259:197,3,140,4|8|2|8
250,174,119600,5,8
252,173,119805,6,0,B|247:190|270:117|301:42,3,140,4|8|2|8
384,48,121243,5,8
384,48,121346,1,0
384,48,121449,1,4
440,112,121654,5,2
440,192,121860,2,0,B|440:279|440:279|349:180,1,210,0|8
272,184,122682,1,8
184,184,122887,1,2
96,184,123093,1,0
8,184,123298,1,8
56,248,123504,2,0,B|130:305|130:305|210:260|210:260,1,210,0|8
312,216,124326,5,8
352,200,124428,1,2
392,184,124531,1,2
468,141,124737,1,4
392,96,124942,6,8,B|357:71,1,70
248,56,125353,2,0,B|256:71|266:89,2,35,2|0|0
168,72,125764,2,0,B|178:89|191:117|191:117|183:113,2,35,2|0|0
88,96,126175,2,0,B|101:117,2,35,2|0|0
24,152,126586,1,2
24,232,126791,1,4
176,296,127202,5,0
176,296,127305,1,0
176,296,127408,1,0
256,296,127613,6,0,B|331:260|331:260|341:253,1,70,0|2
400,240,128024,2,0,B|343:186|343:186,1,70,0|2
296,128,128435,2,0,B|244:176|244:176,1,70,0|2
304,232,128846,1,8
216,232,129052,2,0,B|183:202|160:181,1,70
120,112,129463,5,2
96,80,129565,1,2
72,112,129668,1,8
40,192,129874,6,0,B|71:228,1,70,2|0
136,312,130284,2,0,B|180:289|212:283,1,70,2|8
280,288,130695,2,0,B|282:250,1,70,2|0
256,136,131106,1,2
192,80,131312,1,8
108,66,131517,1,8
45,121,131723,5,4
264,312,132134,1,8
472,120,132545,1,4
264,312,132956,6,0,B|265:231,2,70,8|8|0
264,312,133778,5,8
472,120,134189,1,0
264,312,134600,1,8
46,120,135010,1,0
264,312,135421,5,8
264,312,135627,1,8
264,312,135832,1,4
152,184,136243,5,8
152,184,136449,1,2
152,184,136654,1,0
256,56,137065,5,8
256,56,137271,1,8
256,56,137476,1,4
368,184,137887,5,8
368,184,138093,1,2
368,184,138298,1,4
256,56,138709,5,8
96,104,139120,5,4
48,264,139531,5,8
192,344,139942,5,4
272,344,140147,5,8
272,344,140250,1,2
272,344,140353,1,8
272,344,140456,1,2
272,344,140558,1,0
352,344,140764,5,8
440,200,141175,5,0
472,168,141278,1,0
432,152,141380,1,0
368,88,141586,6,0,B|335:122|309:146,1,70,2|0
232,136,141997,2,0,B|207:110|176:82,1,70,2|8
112,40,142408,1,2
48,96,142613,2,0,B|52:141|50:176,1,70,0|2
48,248,143024,1,8
120,288,143230,1,2
192,328,143435,2,0,B|217:353|231:357|234:359,4,35,2|0|2|2|8
264,288,144052,5,8
408,208,144463,1,0
360,48,144873,2,8,B|325:78|300:98|303:97,3,70,8|2|0|2
258,20,145695,1,8
32,184,146106,1,4
256,352,146517,1,8
480,184,146928,1,4
481,181,147134,1,8
480,264,147339,5,8
424,328,147545,1,2
360,264,147750,1,0
304,200,147956,5,0
248,264,148161,5,8
256,136,148469,1,2
144,192,148778,1,0
80,248,148983,5,8
104,120,149291,1,2
208,184,149600,1,0
272,240,149805,5,8
160,296,150113,1,2
160,176,150421,1,2
72,176,150627,5,8
72,256,150832,1,2
144,304,151038,6,0,B|176:319|199:337|247:344|285:328|293:314,1,140,4|8
352,280,151654,1,8
408,216,151860,2,0,B|437:194|448:166|453:132|437:97|421:75,1,140,4|8
344,72,152476,2,0,B|280:104,1,70,0|2
216,32,152887,1,0
152,88,153093,5,8
24,200,153504,1,4
152,304,153915,1,8
152,304,154120,1,8
224,256,154326,6,0,B|266:227|286:217,1,70,0|2
328,288,154737,1,8
384,224,154942,2,0,B|408:193|423:165|395:158,1,70,2|0
336,112,155353,1,2
272,48,155558,1,8
184,48,155764,2,0,B|145:72|118:89,1,70,2|0
200,120,156175,2,0,B|160:152|131:163,1,70,2|8
64,184,156586,1,8
128,240,156791,1,4
200,280,156997,2,0,B|200:320,2,35,2|2|8
272,240,157408,5,4
352,240,157613,1,0
424,192,157819,1,0
376,120,158024,6,0,B|304:120|272:120,2,105,8|0|2
440,168,158846,5,8
464,200,158949,1,0
416,200,159052,1,0
368,264,159257,5,2
336,240,159360,1,0
336,280,159463,1,0
248,280,159668,6,0,B|160:189|147:170,3,140,8|0|8|2
232,176,161106,5,4
288,232,161312,5,8
392,160,161620,1,0
288,88,161928,1,2
328,160,162134,5,8
448,200,162442,1,0
424,72,162750,1,2
392,152,162956,5,8
272,120,163264,1,0
368,40,163572,1,0
376,280,164189,5,2
312,328,164394,1,0
224,328,164600,2,0,B|159:312|124:275|138:234|136:218|136:217,1,140,8|2
136,152,165216,1,0
136,64,165421,2,0,B|175:38|206:51|233:62|232:62,1,70,8|0
288,56,165832,2,0,B|319:87|287:102|256:108,1,70,2|0
249,186,166243,5,8
312,240,166449,1,8
312,320,166654,1,2
224,320,166860,1,0
136,320,167065,1,8
72,256,167271,5,0
32,184,167476,1,2
80,112,167682,1,2
160,112,167887,2,0,B|210:74|230:60|261:107|273:136,4,140,8|4|8|4|8
256,192,169737,12,4,171175
109,284,176927,6,2,C|123:266|148:261|169:278,2,70
72,216,177955,5,0
24,136,178160,1,2
72,56,178366,1,0
168,56,178571,6,2,C|238:36|261:91|319:85|340:138,1,280
408,232,180421,5,0
360,296,180626,1,2
304,360,180832,1,0
248,296,181037,6,2,C|175:334|127:272|45:301,1,245,0|0
40,216,182681,6,0,C|18:173|71:142|34:92|125:64|113:71,1,280,0|4
208,64,184524,6,0,C|275:87,1,70,2|0
360,96,184935,2,0,C|377:133|382:169,1,70,0|2
328,224,185346,2,0,C|291:244|269:257,1,70
184,280,185757,2,0,B|128:280|112:264,1,70,0|2
32,240,186168,2,0,B|16:200|32:160,1,70,0|2
104,136,186579,2,0,C|156:85|213:146|268:88|308:94|317:104,1,280,2|4
256,48,197264,5,0
184,96,197469,1,2
352,96,197880,1,2
288,152,198086,1,0
360,192,198291,1,2
432,240,198497,2,0,B|384:264|368:280,1,70,0|2
288,304,198908,2,0,B|224:304|208:288,1,70,0|2
184,216,199318,6,0,B|184:168,2,35,0|0|4
96,216,199729,6,0,B|96:256,2,35,0|0|4
136,144,200140,6,0,B|136:88|144:64,1,70,0|2
216,48,200551,6,0,B|256:32|280:32|296:56,1,70,0|2
376,184,201168,2,0,B|336:192|304:192|296:176|296:168|288:168,1,70,2|0
256,248,201579,1,2
176,280,201784,2,0,B|140:247|122:224,1,70,0|2
72,160,202195,2,0,B|123:144|150:137|167:137|167:134,1,70,0|2
200,88,202606,6,0,B|193:63|186:48,2,35,0|0|4
280,96,203017,6,0,B|286:57|290:47,2,35,0|0|4
352,128,203428,5,0
408,192,203634,1,8
408,272,203839,6,0,B|408:344,2,70
320,272,204455,5,8
232,272,204661,6,0,B|232:208,2,70
144,272,205277,5,8
56,272,205483,6,0,B|56:328,2,70
56,184,206099,6,0,B|97:120|148:135|168:175,2,140,8|0|8
128,232,207127,6,0,B|168:248|200:240,1,70,2|4
360,232,207743,1,8
296,168,207949,1,2
296,168,208051,1,0
296,168,208154,1,0
240,104,208360,1,2
168,56,208565,5,8
104,112,208771,1,2
40,168,208976,2,0,B|45:232|91:260|151:206,4,140,0|8|0|8|0
168,56,211031,5,8
328,88,211442,1,2
488,144,211853,1,8
424,200,212058,5,8
352,248,212264,1,0
184,248,212675,1,8
256,200,212880,1,0
320,144,213086,2,0,B|322:100,7,35,8|0|0|0|0|0|0|0
256,192,213908,12,0,215551
