osu file format v9

[General]
AudioFilename: Nightcore_-_Truly_Madly_Deeply.mp3
AudioLeadIn: 0
PreviewTime: 36906
Countdown: 0
SampleSet: Soft
StackLeniency: 0.7
Mode: 0
LetterboxInBreaks: 1

[Editor]
Bookmarks: 90906,117573
DistanceSpacing: 0.8
BeatDivisor: 2
GridSize: 4

[Metadata]
Title:Truly, Madly, Deeply (Nightcore Mix)
Artist:Savage Garden
Creator:SUMMERSHARK
Version:Hard
Source:
Tags:Nightcore Truly Madly Deeply

[Difficulty]
HPDrainRate:8
CircleSize:4
OverallDifficulty:8
ApproachRate:7
SliderMultiplier:1
SliderTickRate:2

[Events]
//Background and Video events
0,0,"anime_couple_fav9375.jpg"
//Break Periods
2,37773,47339
2,80439,90006
//Storyboard Layer 0 (Background)
//Storyboard Layer 1 (Fail)
//Storyboard Layer 2 (Pass)
//Storyboard Layer 3 (Foreground)
//Storyboard Sound Samples
//Background Colour Transformations
3,100,163,162,255

[TimingPoints]
240,333.333333333333,4,2,0,100,1,0
31239,-100,4,2,1,100,0,0
31906,-100,4,2,0,100,0,0
37573,-100,4,1,0,100,0,0
58906,-100,4,1,0,100,0,1
80240,-100,4,1,0,100,0,0
101573,-100,4,2,0,100,0,0
117573,-100,4,1,0,100,0,0

[Colours]
Combo1 : 186,154,150
Combo2 : 64,0,128
Combo3 : 128,0,255
Combo4 : 255,255,255

[HitObjects]
256,36,21573,2,0,B|172:108|344:68|204:188,2,100,2|0|4
256,348,22906,2,0,B|340:276|168:316|308:196,2,100,2|0|6
412,192,24239,6,0,B|340:108|380:280|260:140,2,100,2|0|4
100,192,25572,2,0,B|172:276|132:104|252:244,2,100,2|0|4
296,60,26906,6,0,B|392:60|396:172|396:172,1,100,2|0
376,108,27573,1,4
216,324,28239,6,0,B|120:324|116:212|116:212,1,100,2|0
136,276,28906,1,4
124,192,29573,6,0,B|224:192,1,100,2|0
288,192,30239,1,4
356,192,30573,1,0
376,252,30906,6,4,B|256:344|256:344|120:232,1,300,2|0
136,184,32239,1,8
144,116,32573,1,0
204,84,32906,1,0
272,84,33239,1,0
300,148,33573,5,8
292,216,33907,1,0
232,248,34240,1,0
164,248,34573,1,0
256,192,34906,12,0,37573
256,192,48239,5,0
256,120,48573,1,2
256,192,48906,1,0
256,120,49239,1,2
256,44,49573,6,0,B|368:44,1,100,0|2
360,112,50239,2,0,B|360:212,1,100,0|2
292,216,50906,5,0
292,288,51240,1,2
292,216,51573,1,0
292,288,51906,1,2
292,364,52240,6,0,B|404:364,1,100,0|2
396,296,52906,2,0,B|396:196,1,100,0|2
392,128,53573,6,0,B|352:80|352:80|276:76,1,100,8|2
314,78,54073,1,0
314,78,54239,1,8
236,76,54573,1,2
148,84,54906,5,8
112,88,55073,1,0
88,124,55239,2,0,B|80:184|76:188,1,50,2|0
84,216,55573,1,8
108,252,55739,2,0,B|164:260,1,50,0|2
256,192,56239,12,4,58573
256,56,58906,6,0,B|256:0,1,50
256,56,59239,2,0,B|188:56,1,50
256,56,59573,2,0,B|256:128,1,50
256,56,59906,2,0,B|320:56,1,50
256,132,60239,1,8
256,216,60573,1,8
256,300,60906,1,8
256,212,61239,1,8
256,280,61573,6,0,B|188:280,1,50
256,280,61907,2,0,B|256:208,1,50
256,280,62240,2,0,B|320:280,1,50
256,280,62573,2,0,B|256:340,1,50
256,204,62906,1,8
256,120,63240,1,8
256,36,63573,1,8
256,124,63906,1,8
336,124,64239,6,0,B|388:124,2,50,0|0|8
336,192,64739,1,0
336,260,64906,2,0,B|284:260,2,50,0|0|8
336,192,65406,1,0
404,192,65573,6,0,B|460:192,1,50
456,124,65906,1,8
404,80,66073,1,0
336,56,66239,2,0,B|336:88,2,25
268,56,66573,2,0,B|204:56|192:120,1,100,8|0
256,148,67239,5,8
140,148,67573,1,0
196,232,67906,1,8
308,224,68239,6,0,B|344:124|344:124|416:248|416:248|476:136,1,300,4|8
440,112,69573,5,0
400,76,69739,1,0
356,44,69906,1,8
304,56,70073,1,0
268,88,70239,2,0,B|248:104,2,25
300,136,70573,1,8
340,172,70739,1,0
388,212,70906,2,0,B|360:268|328:292|244:324|152:284|124:176,1,300,0|8
72,272,72239,5,0
112,308,72405,1,0
156,340,72572,1,8
208,328,72739,1,0
248,296,72905,2,0,B|268:280,2,25
212,248,73239,1,8
172,212,73405,1,0
124,172,73572,2,0,B|152:116|184:92|268:60|360:100|388:208,1,300,0|8
316,212,74906,6,0,B|280:212,2,25
372,256,75239,2,0,B|408:256,2,25,8|0|0
312,292,75573,2,0,B|276:284,2,25
368,328,75906,2,0,B|404:328,2,25,8|0|0
308,360,76239,2,0,B|248:356|204:316|180:252|196:200|228:160|280:140,1,300,0|8
256,192,77573,12,4,80239
160,192,90906,6,0,B|56:192,2,100
256,192,91906,1,8
352,192,92239,2,0,B|456:192,2,100
256,192,93239,1,8
256,288,93573,6,0,B|256:392,2,100
256,192,94573,1,8
256,96,94906,2,0,B|256:-8,2,100
256,192,95906,1,8
323,259,96239,6,0,B|397:333,2,100
256,192,97239,1,8
188,124,97572,2,0,B|114:50,2,100
256,192,98572,1,8
188,259,98906,6,0,B|114:333,2,100
256,192,99906,1,8
323,124,100239,2,0,B|397:50,2,100
256,192,101239,1,8
292,284,101573,5,2
324,284,101739,1,0
292,284,101906,1,0
216,284,102239,1,2
184,284,102406,1,0
216,284,102573,1,0
256,336,102906,6,0,B|256:260,1,50,2|0
256,236,103239,2,0,B|256:144,1,50
256,116,103573,1,2
256,116,103740,1,0
256,116,103907,1,0
180,116,104240,6,0,B|132:112|100:140|88:200|92:256|84:272,1,200
85,266,105073,1,0
136,268,105239,1,0
220,268,105573,6,0,B|268:272|300:244|312:184|308:128|316:112,1,200
314,117,106406,1,0
272,116,106573,1,0
176,116,106906,5,0
76,116,107239,1,2
76,232,107573,1,0
176,232,107906,1,2
76,116,108239,1,0
176,116,108573,1,2
76,232,108906,1,0
176,232,109239,1,2
176,116,109573,6,0,B|240:100|324:96|332:236,1,200,0|2
327,197,110573,1,0
336,268,110906,2,0,B|272:284|188:288|180:148,1,200,0|2
184,186,111906,1,0
184,76,112239,6,4,B|344:92|384:120|428:192|416:284|172:280,1,500
179,280,114239,1,4
256,192,114906,12,4,117573
