osu file format v4

[General]
AudioFilename: Savage Garden - Truly Madly Deeply.mp3
AudioLeadIn: 0
AudioHash: 1dd9d22577fe0a9369269773cd5ba153
PreviewTime: 50140
Countdown: 1
SampleSet: Soft

[Metadata]
Title:Truly Madly Deeply
Artist:Savage Garden
Creator:Behonkiss
Version:Normal

[Difficulty]
HPDrainRate:7
CircleSize:5
OverallDifficulty:5
SliderMultiplier: 1.4
SliderTickRate: 1

[Events]
//Background and Video events
0,-100000,"20000727-savage_garden.jpg"
//Break Periods
2,39269,49090
2,73911,84804
2,148018,159090
//Storyboard Layer 0 (Background)
//Storyboard Layer 1 (Failing)
//Storyboard Layer 2 (Passing)
//Storyboard Layer 3 (Foreground)
//Storyboard Sound Samples
//Background Colour Transformations

[TimingPoints]
5490,713.983977430186,4,2,0,100

[HitObjects]
64,96,17270,2,0,B|64:96|224:96,1,140
256,128,18341,1,0
320,128,18698,2,0,B|320:128|320:288,1,140
256,256,19769,1,0
224,224,20126,1,0
160,224,20483,2,0,B|160:224|118:306|32:224,2,140
256,192,22625,1,2
320,192,22982,6,0,B|320:192|480:192,1,140
448,128,24053,1,0
384,96,24410,2,0,B|384:96|224:96,1,140
192,96,25481,1,0
128,128,25838,1,0
128,128,26195,1,0
64,160,26552,1,0
96,224,26909,2,0,B|96:224|256:224,1,140
288,192,27980,1,2
224,128,28694,6,0,B|224:128|128:128,3,70
128,192,30122,1,0
64,224,30479,2,0,B|64:224|64:64,1,140
128,96,31550,1,0
192,96,31907,1,0
224,160,32264,2,0,B|224:160|320:160,3,70
320,224,33692,1,2
384,320,34406,6,0,B|384:320|480:320,3,70
416,256,35834,1,0
384,192,36191,2,0,B|384:192|384:32,1,140
320,64,37262,1,0
320,128,37619,1,0
256,96,37976,2,0,B|256:96|192:160,3,70
192,192,50113,5,0
128,224,50470,1,0
64,256,50827,1,0
64,192,51184,2,0,B|64:192|72:95|160:96,2,140
128,224,52969,1,0
192,224,53326,1,0
256,224,53683,2,0,B|256:224|448:224|416:224,1,140
352,128,54754,1,0
352,128,55111,1,0
288,128,55825,5,0
288,192,56182,1,0
288,256,56539,1,0
224,224,56896,2,0,B|224:224|232:321|320:320,2,140
160,224,58681,1,0
96,224,59038,1,0
96,160,59395,2,0,B|96:160|288:160|256:160,1,140
288,256,60466,1,0
288,256,60823,1,2
288,192,61537,6,0,B|288:192|228:193|192:192,2,70
224,192,62608,1,0
128,160,63322,1,0
192,64,64036,2,0,B|192:64|288:64|384:160,1,210
352,256,65821,1,0
256,256,66178,1,0
256,256,66535,1,2
256,192,67249,5,0
320,192,67606,1,0
320,128,67963,1,0
288,64,68320,2,0,B|288:64|128:64,2,140
320,128,70105,1,0
256,160,70462,1,0
192,160,70819,1,0
128,256,71176,5,0
224,288,71890,1,0
256,224,72247,2,0,B|256:224|384:128,2,140
160,128,85813,6,0,B|160:128|224:192|288:128,2,140
128,160,87598,1,0
128,224,87955,1,0
128,224,88312,1,0
64,256,88669,1,0
64,192,89026,2,0,B|64:192|64:96,1,70
128,96,89740,2,0,B|128:96|224:96,2,70
224,160,91168,5,2
224,224,91525,2,0,B|224:224|256:256|288:224,3,70
320,160,92953,1,0
256,160,93310,1,0
256,96,93667,1,0
320,96,94024,1,0
384,96,94381,2,0,B|384:96|384:192,1,70
384,224,95094,1,0
320,224,95273,1,0
320,224,95451,1,0
256,192,95808,2,0,B|256:192|160:192,2,70
224,128,96879,6,2,B|224:128|160:160|224:256,1,140
160,288,97950,1,0
64,224,98664,1,0
64,160,99021,1,0
128,128,99378,1,0
128,128,99557,1,0
128,128,99735,2,0,B|128:128|188:269|295:98|448:256,1,350
320,256,102234,5,0
256,224,102591,2,0,B|256:224|188:164|128:224,1,140
128,288,103662,1,0
224,288,104376,1,0
288,288,104733,1,0
352,288,105090,2,0,B|352:288|289:225|481:197|402:215|416:192,1,140
352,160,106161,1,0
288,192,106518,1,2
224,256,107232,5,0
224,320,107589,1,0
160,320,107946,1,0
160,256,108303,2,0,B|160:256|152:159|64:160,2,140
96,256,110088,1,0
32,256,110445,1,0
32,192,110802,2,0,B|32:192|132:195|96:64,1,140
160,128,111873,1,0
224,160,112230,1,0
320,160,112944,5,0
352,224,113301,1,0
288,256,113658,1,0
224,224,114015,2,0,B|224:224|232:321|320:320,2,140
160,224,115800,1,0
96,224,116157,1,0
96,160,116514,2,0,B|96:160|288:160|256:160,1,140
288,256,117585,1,0
288,256,117942,1,2
288,192,118656,6,0,B|288:192|228:193|192:192,2,70
256,128,119727,1,0
352,160,120441,1,0
256,224,121155,2,0,B|256:224|160:224|64:320,1,210
96,192,122940,1,0
192,128,123297,1,0
192,128,123654,1,0
192,192,124368,5,0
256,192,124725,1,0
288,128,125082,1,0
256,64,125439,2,0,B|256:64|96:64,2,140
320,64,127224,1,0
384,64,127581,1,0
384,128,127938,1,0
320,128,128295,5,0
224,192,129009,1,0
160,160,129366,2,0,B|160:160|288:64,2,140
128,192,131151,5,2
160,256,131508,2,0,B|160:256|256:256,2,70
96,256,132579,1,0
64,192,132936,1,0
128,160,133293,1,0
128,96,133650,2,0,B|128:96|224:96|288:96,2,140
64,96,135435,1,0
128,96,135792,1,0
192,128,136149,1,0
192,128,136506,1,0
192,192,136863,5,2
256,192,137220,2,0,B|256:192|292:135|288:96,1,70
288,64,137934,1,0
288,64,138112,1,0
352,64,138469,2,0,B|352:64|480:64,1,105
480,128,139361,1,0
416,224,140075,5,0
352,192,140432,1,0
352,192,140611,1,0
352,256,140968,2,0,B|352:256|288:288|192:288,1,140
192,224,142039,1,0
96,224,142574,5,0
128,160,142931,2,0,B|128:160|32:160,2,70
192,160,144002,1,0
192,96,144359,1,0
128,96,144716,1,0
64,96,145073,2,2,B|64:96|64:288|192:96|288:320|384:96|480:320,1,525
192,160,160067,6,0,B|192:160|96:160,3,70
128,224,161495,6,0,B|128:224|224:224,3,70
224,288,162923,5,0
288,288,163280,2,0,B|288:288|320:256|288:192,1,70
288,160,163994,2,0,B|288:160|384:160,2,70
160,160,165422,1,2
160,96,165779,6,0,B|160:96|64:96,3,70
96,160,167207,6,0,B|96:160|192:160,3,70
128,224,168635,5,0
128,288,168992,2,0,B|128:288|32:288,2,70
192,288,170063,1,0
192,224,170420,2,0,B|192:224|192:128,1,70
288,224,171491,6,0,B|288:224|448:224,1,140
416,288,172562,1,0
352,288,172919,2,0,B|352:288|192:288,1,140
160,288,173990,1,0
96,256,174347,1,0
96,256,174704,1,0
64,192,175061,1,0
128,192,175418,2,0,B|128:192|288:192,1,140
256,128,176489,1,0
256,192,176846,12,2,180773
64,64,181487,5,0
128,64,181844,1,0
192,64,182201,1,0
192,128,182558,1,0
128,224,183272,2,0,B|128:224|288:224,1,140
288,288,184342,1,0
352,288,184699,1,0
352,224,185056,2,0,B|352:224|426:172|352:96,1,140
288,96,186127,1,0
256,160,186484,1,0
192,160,187198,5,0
128,160,187555,1,0
64,160,187912,1,0
96,224,188269,2,0,B|96:224|104:321|192:320,2,140
160,224,190054,1,0
224,192,190411,1,0
256,128,190768,2,0,B|256:128|64:128|96:128,1,140
64,128,191839,1,0
0,128,192196,1,2
32,192,192910,5,0
96,192,193267,1,0
160,192,193624,1,0
160,128,193981,1,2
96,32,194695,2,0,B|96:32|256:32,1,140
256,96,195766,1,0
192,96,196123,1,0
192,160,196480,2,0,B|192:160|80:192|192:256,1,140
256,320,197908,1,0
192,320,198265,1,0
128,320,198622,5,0
64,320,198979,1,0
64,256,199336,1,0
64,192,199693,2,0,B|64:192|64:32,2,140
128,160,201657,1,0
128,96,202014,1,0
192,96,202371,1,0
192,160,202728,2,2,B|192:160|192:288|352:288,1,210
320,160,204513,5,0
384,160,204870,1,0
384,96,205227,1,0
320,96,205584,2,0,B|320:96|192:96|96:256,1,280
160,288,207368,1,0
224,288,207725,1,0
224,224,208082,2,0,B|224:224|175:132|96:128,1,140
64,128,209153,1,0
64,64,209510,1,0
160,96,210224,5,0
224,96,210581,1,0
288,96,210938,1,0
352,96,211295,2,0,B|352:96|448:224,1,140
448,256,212366,1,0
384,256,212723,1,0
320,256,213080,2,0,B|320:256|224:256,2,70
224,192,214508,1,0
192,256,214865,1,0
128,256,215222,1,0
256,192,215579,12,2,225218
