osu file format v5

[General]
AudioFilename: Savage Garden - I Want You.mp3
AudioLeadIn: 0
PreviewTime: 51586
Countdown: 1
SampleSet: Soft
StackLeniency: 0.7
Mode: 0
LetterboxInBreaks: 1
EditorDistanceSpacing: 1.5

[Metadata]
Title:I Want You
Artist:Savage Garden
Creator:mtmcl
Version:Tough
Source:
Tags:

[Difficulty]
HPDrainRate:6
CircleSize:4
OverallDifficulty:6
SliderMultiplier:2.5
SliderTickRate:4

[Events]
//Background and Video events
0,0,"iwantyou.jpg"
//Break Periods
2,67560,70959
2,114884,122790
2,157701,185888
//Storyboard Layer 0 (Background)
//Storyboard Layer 1 (Failing)
//Storyboard Layer 2 (Passing)
//Storyboard Layer 3 (Foreground)
//Storyboard Sound Samples
//Background Colour Transformations
3,100,163,162,255

[TimingPoints]
2150,563.380281690141,4,2,0,70,1,0

[Colours]
Combo1 : 128,64,0
Combo2 : 0,0,64
Combo3 : 0,64,64
Combo4 : 64,0,0

[HitObjects]
256,192,24685,2,0,L|256:272,1,62.5
352,256,24966,2,0,L|352:176,1,62.5
352,96,25248,2,8,L|256:96,1,62.5
192,96,25530,2,8,L|192:176,1,62.5
192,256,25811,2,0,L|128:256,1,62.5
128,352,26093,2,0,L|208:352,1,62.5,0|4
384,352,26516,2,4,L|384:176,1,125
384,32,27079,6,0,L|384:96,1,62.5
288,96,27361,2,0,L|288:176,1,62.5,0|8
192,160,27642,2,8,L|192:224,1,62.5
96,224,27924,2,0,L|96:288,1,62.5,8|0
0,288,28206,2,0,L|0:352,2,62.5,4|0|4
0,96,28769,2,4,L|128:96,1,125
320,96,29333,6,0,L|240:96,2,62.5,0|0|0
320,288,29896,2,0,L|320:160,2,125
224,288,30600,2,0,L|224:224,1,62.5
144,288,30882,2,0,L|144:224,1,62.5
64,288,31164,2,0,L|64:224,1,62.5
64,96,31445,2,8,L|64:160,1,62.5
144,96,31727,2,8,L|144:160,1,62.5
336,192,32150,6,0,L|416:192,1,62.5
496,192,32431,2,0,L|496:112,1,62.5,0|8
432,48,32713,2,8,L|512:48,1,62.5
432,128,32995,2,8,L|368:128,1,62.5
176,128,33417,1,8
256,304,33699,6,0,L|256:240,1,62.5
160,240,33980,2,0,L|160:304,1,62.5
64,304,34262,2,8,L|64:224,1,62.5
64,144,34544,2,8,L|64:64,1,62.5
256,80,34966,2,0,L|256:144,1,62.5
352,144,35248,2,4,L|480:144,2,125
480,288,36093,6,0,L|416:288,1,62.5
320,288,36375,2,0,L|320:224,1,62.5,0|8
224,224,36657,2,8,L|224:288,1,62.5
128,288,36938,1,8
128,96,37220,2,0,L|128:32,2,62.5,4|0|4
320,96,37783,2,4,L|160:96,1,125
320,240,38347,6,0,L|320:160,2,62.5
416,240,38769,2,0,L|416:96,1,125
512,112,39192,2,0,L|512:176,1,62.5,0|8
512,272,39473,2,8,L|512:336,1,62.5
416,336,39755,1,8
224,336,40037,6,0,L|288:336,1,62.5
288,240,40319,2,0,L|160:240,1,125
160,144,40741,2,0,L|224:144,2,62.5
96,320,41304,6,0,L|96:256,1,62.5
0,256,41586,2,4,L|0:128,1,125
0,32,42009,1,8
96,32,42150,2,4,L|224:32,1,125
432,336,42995,6,0,L|432:192,1,125
432,16,43558,2,8,L|432:80,1,62.5
240,80,43980,2,8,L|304:80,1,62.5
304,272,44403,2,2,L|304:144,1,125
0,368,45248,6,0,L|0:224,1,125
0,48,45811,1,8
96,48,45952,2,8,L|96:176,1,125,8|8
96,272,46375,2,0,L|224:272,2,125,8|4|8
464,192,47502,6,0,L|336:192,1,125
144,192,48065,2,8,L|224:192,1,62.5
384,256,48488,2,8,L|304:256,1,62.5,0|0
128,256,48910,2,2,L|256:256,1,125
256,192,49473,12,4,51164
256,16,51727,6,0,L|256:272,1,250
384,16,52713,2,0,L|384:208,1,187.5
464,32,53417,2,8,L|464:176,1,125
464,336,53980,2,8,L|464:208,2,125
176,336,54966,2,0,L|368:336,1,187.5
272,176,55671,1,4
32,16,56234,6,0,L|32:272,1,250
176,16,57220,2,0,L|384:16,1,187.5
192,96,57924,2,4,L|384:96,1,187.5
256,192,58488,12,4,60178
256,16,60741,6,0,L|256:272,1,250
128,16,61727,2,0,L|128:208,1,187.5
48,32,62431,2,8,L|48:176,1,125
48,336,62994,2,8,L|48:208,2,125
336,336,63980,2,0,L|144:336,1,187.5
240,176,64685,1,4
480,16,65248,6,0,L|480:272,1,250
336,16,66375,2,0,L|160:16,1,125
384,96,66938,2,4,L|192:96,1,187.5
256,192,72009,6,0,L|256:272,1,62.5
160,256,72290,2,0,L|160:176,1,62.5,0|0
160,96,72572,2,8,L|64:96,1,62.5,8|8
0,96,72854,2,8,L|0:176,1,62.5
64,224,73135,2,0,L|0:224,1,62.5,0|0
64,288,73417,2,0,L|144:288,1,62.5,0|4
320,288,73840,2,4,L|320:112,1,125
512,176,74403,6,0,L|512:240,1,62.5
432,176,74685,2,0,L|432:256,1,62.5,0|8
496,304,74966,2,8,L|496:368,1,62.5
416,304,75248,2,0,L|416:368,1,62.5,8|0
336,304,75530,2,0,L|336:368,2,62.5,4|0|4
160,368,76093,2,4,L|160:240,1,125
160,48,76657,6,0,L|80:48,2,62.5,0|0|0
256,48,77079,2,0,L|320:48,2,62.5
256,144,77502,2,0,L|320:144,1,62.5
416,144,77783,2,0,L|416:80,2,62.5,0|0|0
256,240,78347,5,0
160,240,78488,2,0,L|160:176,1,62.5
160,80,78769,2,8,L|96:80,1,62.5,8|8
0,80,79051,2,8,L|0:144,1,62.5,8|8
336,192,79474,6,0,L|416:192,1,62.5
496,192,79755,2,0,L|496:336,1,125,0|8
400,320,80178,2,8,L|320:320,1,62.5,8|8
240,320,80459,2,8,L|240:160,1,125
400,96,81023,6,0,L|400:32,1,62.5,0|0
304,32,81304,2,0,L|304:96,1,62.5
208,96,81586,2,8,L|208:16,1,62.5
112,32,81868,2,8,L|112:112,1,62.5,8|8
112,192,82150,2,0,L|112:256,1,62.5,0|0
208,256,82431,1,0
208,352,82572,2,4,L|336:352,2,125
384,288,83417,6,0,L|320:288,1,62.5
320,192,83699,2,0,L|320:128,1,62.5,0|8
416,128,83981,2,8,L|416:192,1,62.5
512,192,84262,2,8,L|512:128,1,62.5
448,64,84544,2,0,L|448:0,2,62.5,4|0|4
256,64,85107,2,4,L|96:64,1,125
112,256,85671,6,0,L|112:176,2,62.5
208,256,86093,2,0,L|208:176,2,62.5
304,256,86516,2,0,L|304:320,1,62.5,0|8
384,256,86797,2,8,L|384:320,1,62.5
480,320,87079,1,8
416,144,87361,6,0,L|480:144,1,62.5
480,48,87642,1,0
384,48,87783,2,0,L|256:48,1,125
160,48,88206,2,0,L|160:192,1,125
256,176,88628,6,0,L|256:112,1,62.5,0|0
352,112,88910,2,8,L|352:176,1,62.5
448,176,89192,2,8,L|448:112,1,62.5
448,16,89473,2,4,L|288:16,1,125
80,48,90319,6,0,L|80:192,1,125
80,368,90882,2,8,L|80:304,1,62.5
272,304,91304,2,8,L|208:304,1,62.5
208,112,91727,2,2,L|208:240,1,125
512,16,92572,6,0,L|512:160,1,125
512,336,93135,1,8
416,336,93276,2,8,L|416:208,1,125,8|8
416,112,93699,2,0,L|288:112,2,125,8|4|8
48,192,94826,6,0,L|176:192,1,125
368,192,95389,2,8,L|288:192,1,62.5
128,128,95812,2,8,L|208:128,1,62.5,0|0
384,128,96234,2,2,L|256:128,1,125
256,192,96797,12,4,98488
256,16,99051,6,0,L|256:272,1,250
128,16,100037,2,0,L|128:208,1,187.5
48,32,100741,2,8,L|48:176,1,125
48,336,101304,2,8,L|48:208,2,125
336,336,102290,2,0,L|144:336,1,187.5
240,176,102995,1,4
480,16,103558,6,0,L|480:272,1,250
336,16,104544,2,0,L|128:16,1,187.5
320,96,105248,2,4,L|128:96,1,187.5
256,192,105812,12,4,107502
256,16,108065,6,0,L|256:272,1,250
384,16,109051,2,0,L|384:208,1,187.5
464,32,109755,2,8,L|464:176,1,125
464,336,110318,2,8,L|464:208,2,125
176,336,111304,2,0,L|368:336,1,187.5
272,176,112009,1,4
32,16,112572,6,0,L|32:272,1,250
176,16,113699,2,0,L|352:16,1,125
128,96,114262,2,4,L|320:96,1,187.5
256,192,123840,6,0,L|256:112,1,62.5
160,128,124121,2,0,L|160:208,1,62.5
160,288,124403,2,8,L|256:288,1,62.5
320,288,124685,2,8,L|320:208,1,62.5
320,128,124966,2,0,L|384:128,1,62.5
384,32,125248,2,0,L|304:32,1,62.5,0|4
128,32,125671,2,4,L|128:208,1,125
128,352,126234,6,0,L|128:288,1,62.5
224,288,126516,2,0,L|224:208,1,62.5,0|8
320,224,126797,2,8,L|320:160,1,62.5
416,160,127079,2,0,L|416:96,1,62.5,8|0
512,96,127361,2,0,L|512:32,2,62.5,4|0|4
512,288,127924,2,4,L|384:288,1,125
192,288,128488,6,0,L|272:288,2,62.5,0|0|0
192,96,129051,2,0,L|192:224,2,125
288,96,129755,2,0,L|288:160,1,62.5
368,96,130037,2,0,L|368:160,1,62.5
448,96,130319,2,0,L|448:160,1,62.5
448,288,130600,2,8,L|448:224,1,62.5
368,288,130882,2,8,L|368:224,1,62.5
176,192,131305,6,0,L|96:192,1,62.5
16,192,131586,2,0,L|16:272,1,62.5,0|8
80,336,131868,2,8,L|0:336,1,62.5
80,256,132150,2,8,L|144:256,1,62.5
336,256,132572,1,8
256,80,132854,6,0,L|256:144,1,62.5
352,144,133135,2,0,L|352:80,1,62.5
448,80,133417,2,8,L|448:160,1,62.5
448,240,133699,2,8,L|448:320,1,62.5
256,304,134121,2,0,L|256:240,1,62.5
160,240,134403,2,4,L|32:240,2,125
32,96,135248,6,0,L|96:96,1,62.5
192,96,135530,2,0,L|192:160,1,62.5,0|8
288,160,135812,2,8,L|288:96,1,62.5
384,96,136093,1,8
384,288,136375,2,0,L|384:352,2,62.5,4|0|4
192,288,136938,2,4,L|352:288,1,125
192,144,137502,6,0,L|192:224,2,62.5
96,144,137924,2,0,L|96:288,1,125
0,272,138347,2,0,L|0:208,1,62.5,0|8
0,112,138628,2,8,L|0:48,1,62.5
96,48,138910,1,8
288,48,139192,6,0,L|224:48,1,62.5
224,144,139474,2,0,L|352:144,1,125
352,240,139896,2,0,L|288:240,2,62.5
416,64,140459,6,0,L|416:128,1,62.5
512,128,140741,2,4,L|512:256,1,125
512,352,141164,1,8
416,352,141305,2,4,L|288:352,1,125
256,160,141868,6,0,L|256:32|112:32,1,250
256,288,142854,2,0,L|64:288,1,187.5
64,96,143558,2,8,L|64:192|64:240,1,125
256,224,144121,2,8,L|112:224,1,125
320,224,144685,1,8
48,160,145107,2,0,L|240:160,1,187.5
416,160,145811,1,4
80,336,146375,6,0,L|336:336,1,250
256,64,147361,2,0,L|256:256,1,187.5
352,96,148065,2,4,L|352:288,1,187.5
256,192,148628,12,4,150319
256,160,150882,6,0,L|256:32|400:32,1,250
256,288,151868,2,0,L|448:288,1,187.5
448,96,152572,2,8,L|448:192|448:240,1,125
256,224,153135,2,8,L|400:224,1,125
192,224,153699,1,8
464,160,154121,2,0,L|272:160,1,187.5
96,160,154825,1,4
432,336,155389,6,0,L|176:336,1,250
256,64,156516,2,0,L|256:240,1,125
128,64,157079,2,4,L|128:256,1,187.5
256,368,186938,6,0,L|256:112,1,250
128,368,187924,2,0,L|128:176,1,187.5
48,352,188628,2,8,L|48:208,1,125
48,48,189191,2,8,L|48:176,2,125
336,48,190177,2,0,L|144:48,1,187.5
240,208,190882,1,4
480,368,191445,6,0,L|480:112,1,250
336,368,192431,2,0,L|128:368,1,187.5
320,288,193135,2,4,L|128:288,1,187.5
256,192,193699,12,4,195389
256,368,195952,6,0,L|256:112,1,250
384,368,196938,2,0,L|384:176,1,187.5
464,352,197642,2,8,L|464:208,1,125
464,48,198205,2,8,L|464:176,2,125
176,48,199191,2,0,L|368:48,1,187.5
272,208,199896,1,4
32,368,200459,6,0,L|32:112,1,250
176,368,201586,2,0,L|352:368,1,125
128,288,202149,2,4,L|320:288,1,187.5
256,192,202713,12,4,204403
256,224,204966,6,0,L|256:352|400:352,1,250
256,96,205952,2,0,L|448:96,1,187.5
448,288,206656,2,8,L|448:192|448:144,1,125
256,160,207219,2,8,L|400:160,1,125
192,160,207783,1,8
464,224,208205,2,0,L|272:224,1,187.5
96,224,208909,1,4
432,48,209473,6,0,L|176:48,1,250
256,320,210459,2,0,L|256:128,1,187.5
160,288,211163,2,4,L|160:96,1,187.5
256,192,211726,12,4,213417
256,224,213980,6,0,L|256:352|112:352,1,250
256,96,214966,2,0,L|64:96,1,187.5
64,288,215670,2,8,L|64:192|64:144,1,125
256,160,216233,2,8,L|112:160,1,125
320,160,216797,1,8
48,224,217219,2,0,L|240:224,1,187.5
416,224,217923,1,4
80,48,218487,6,0,L|336:48,1,250
256,320,219614,2,0,L|256:144,1,125
384,320,220177,2,4,L|384:128,1,187.5
